VERSION	0.00.00	1.04.00
FES_MODE	1
BPM_DEF	138.000	138.000	138.000	138.000
MET_DEF	4	4
RESOLUTION	384
CLK_DEF	384
COMPATIBLE_CODE	MA2

BPM	0	0	138.000
MET	0	0	4	4

NMHLD	2	0	3	2880
NMHLD	2	0	4	2880
BRTAP	9	288	1
BRTAP	9	288	6
NMSTR	10	0	0
NMSCR	10	0	0	96	96	3
NMSTR	10	96	3
NMSCR	10	96	3	96	96	6
NMSTR	10	192	6
NMSCR	10	192	6	96	96	1
NMSTR	10	288	1
NMSCR	10	288	1	96	96	4
NMSTR	11	0	4
NMSCR	11	0	4	96	96	7
NMSTR	11	96	7
NMSCR	11	96	7	96	96	2
NMSTR	11	192	2
NMSCR	11	192	2	96	96	5
NMSTR	11	288	5
NMSCR	11	288	5	96	96	0
NMSTR	12	0	0
NMSCR	12	0	0	96	96	3
NMSTR	12	96	3
NMSCR	12	96	3	96	96	6
NMSTR	12	192	6
NMSCR	12	192	6	96	96	1
NMSTR	12	288	1
NMSCR	12	288	1	96	96	4
NMSTR	13	0	4
NMSCR	13	0	4	96	96	7
NMSTR	13	96	7
NMSCR	13	96	7	96	96	2
NMSTR	13	192	2
NMSCR	13	192	2	96	96	5
NMSTR	13	288	5
NMSCR	13	288	5	96	96	0
NMSTR	14	0	0
NMSCR	14	0	0	96	96	3
NMSTR	14	96	3
NMSCR	14	96	3	96	96	6
NMSTR	14	192	6
NMSCR	14	192	6	96	96	1
NMSTR	14	288	1
NMSCR	14	288	1	96	96	4
NMSTR	15	0	4
NMSCR	15	0	4	96	96	7
NMSTR	15	96	7
NMSCR	15	96	7	96	96	2
NMSTR	15	192	2
NMSCR	15	192	2	96	96	5
NMSTR	15	288	5
NMSCR	15	288	5	96	96	0
NMSTR	16	0	0
NMSCR	16	0	0	96	96	3
NMSTR	16	96	3
NMSCR	16	96	3	96	96	6
NMSTR	16	192	6
NMSCR	16	192	6	96	96	1
NMSTR	16	288	1
NMSCR	16	288	1	96	96	4
NMSTR	17	0	4
NMSCR	17	0	4	96	96	7
NMSTR	17	96	7
NMSCR	17	96	7	96	96	2
NMSTR	17	192	2
NMSCR	17	192	2	96	96	5
BRTAP	17	288	5
NMHLD	18	0	7	96
NMHLD	18	96	0	96
NMHLD	18	192	1	96
NMHLD	18	288	2	96
NMHLD	19	0	3	96
NMHLD	19	96	4	96
NMHLD	19	192	5	96
NMHLD	19	288	6	96
NMHLD	20	0	7	96
NMHLD	20	96	0	96
NMHLD	20	192	1	96
NMHLD	20	288	2	96
NMHLD	21	0	3	96
NMHLD	21	96	4	96
NMHLD	21	192	5	96
NMHLD	21	288	6	96
NMTAP	22	0	7
NMTAP	22	48	0
NMTAP	22	96	1
NMTAP	22	144	2
NMTAP	22	192	3
NMTAP	22	240	4
NMTAP	22	288	5
NMTAP	22	336	6
NMTAP	23	0	7
NMTAP	23	48	0
NMTAP	23	96	1
NMTAP	23	144	2
NMTAP	23	192	3
NMTAP	23	240	4
NMTAP	23	288	5
NMTAP	23	336	6
NMTAP	24	0	7
NMTAP	24	24	0
NMTAP	24	48	1
NMTAP	24	72	2
NMTAP	24	96	3
NMTAP	24	120	4
NMTAP	24	144	5
NMTAP	24	168	6
NMTAP	24	192	7
NMTAP	24	216	0
NMTAP	24	240	1
NMTAP	24	264	2
NMTAP	24	288	3
NMTAP	24	312	4
NMTAP	24	336	5
NMTAP	24	360	6
NMTAP	25	0	7
NMTAP	25	24	0
NMTAP	25	48	1
NMTAP	25	72	2
NMTAP	25	96	3
NMTAP	25	120	4
NMTAP	25	144	5
NMTAP	25	168	6
NMTAP	25	192	7
NMTAP	25	216	0
NMTAP	25	240	1
NMTAP	25	264	2
NMTAP	25	288	3
NMTAP	25	312	4
NMTAP	25	336	5
NMTAP	25	360	6
NMTAP	26	0	7
NMTAP	26	24	0
NMTAP	26	48	1
NMTAP	26	72	2
NMSTR	26	96	3
NMSCR	26	96	3	96	192	7
NMSTR	26	288	7
NMSCR	26	288	7	96	192	3
NMSTR	27	96	3
NMSCR	27	96	3	96	192	7
NMSTR	27	288	7
NMSCR	27	288	7	96	192	3
NMSTR	28	96	3
NMSCR	28	96	3	96	192	7
NMSTR	28	288	7
NMSCR	28	288	7	96	192	3
NMSTR	29	96	3
NMSCR	29	96	3	96	192	7
NMSTR	29	288	7
NMSCR	29	288	7	96	192	3
NMSTR	30	96	3
NMSCR	30	96	3	96	192	7
NMSTR	30	288	7
NMSCR	30	288	7	96	192	3
NMSTR	31	96	3
NMSCR	31	96	3	96	192	7
NMSTR	31	288	7
NMSCR	31	288	7	96	96	1
NMSTR	32	0	1
NMSCR	32	0	1	96	96	3
NMSTR	32	96	3
NMSCR	32	96	3	96	96	5
NMSTR	32	192	5
NMSCR	32	192	5	96	96	7
NMSTR	32	288	7
NMSCR	32	288	7	96	96	1
NMSTR	33	0	1
NMSCR	33	0	1	96	96	4
NMSTR	33	96	4
NMSCR	33	96	4	96	96	7
NMSTR	33	192	7
NMSCR	33	192	7	96	96	2
NMSTR	33	288	2
NMSCR	33	288	2	96	96	6
NMSTR	34	0	6
NMSCR	34	0	6	96	96	2
NMSTR	34	96	2
NMSCR	34	96	2	96	96	6
NMSTR	34	192	6
NMSCR	34	192	6	96	96	2
NMSTR	34	288	2
NMSCR	34	288	2	96	96	6
NMTAP	35	0	6
NMTAP	35	24	7
NMTAP	35	48	0
NMTAP	35	72	1
NMTAP	35	96	2
NMTAP	35	120	3
NMTAP	35	144	4
NMTAP	35	168	5
NMTAP	35	192	6
NMTAP	35	216	7
NMTAP	35	240	0
NMTAP	35	264	1
NMTAP	35	288	2
NMTAP	35	312	3
NMTAP	35	336	4
NMTAP	35	360	5
BRTAP	36	0	6
NMTAP	36	16	7
NMTAP	36	32	0
NMTAP	36	48	1
NMTAP	36	64	2
NMTAP	36	80	3
NMTAP	36	96	4
NMTAP	36	112	5
NMTAP	36	128	6
NMTAP	36	144	7
NMTAP	36	160	0
NMTAP	36	176	1
NMTAP	36	192	2
NMTAP	36	208	3
NMTAP	36	224	4
NMTAP	36	240	5
NMTAP	36	256	6
NMTAP	36	272	7
NMTAP	36	288	0
NMTAP	36	304	1
NMTAP	36	320	2
NMTAP	36	336	3
NMTAP	36	352	4
NMTAP	36	368	5
NMTAP	37	0	6
NMTAP	37	16	7
NMTAP	37	32	0
NMTAP	37	48	1
NMTAP	37	64	2
NMTAP	37	80	3
NMTAP	37	96	4
NMTAP	37	112	5
NMTAP	37	128	6
NMTAP	37	144	7
NMTAP	37	160	0
NMTAP	37	176	1
NMTAP	37	192	2
NMTAP	37	208	3
NMTAP	37	224	4
NMTAP	37	240	5
NMTAP	37	256	6
NMTAP	37	272	7
NMTAP	37	288	0
NMTAP	37	304	1
NMTAP	37	320	2
NMTAP	37	336	3
NMTAP	37	352	4
NMTAP	37	368	5
NMTAP	38	0	6
NMTAP	38	16	7
NMTAP	38	32	0
NMTAP	38	48	1
NMTAP	38	64	2
NMTAP	38	80	3
NMTAP	38	96	4
NMTAP	38	112	5
NMTAP	38	128	6
NMTAP	38	144	7
NMTAP	38	160	0
NMTAP	38	176	1
NMTAP	38	192	2
NMTAP	38	208	3
NMTAP	38	224	4
NMTAP	38	240	5
NMTAP	38	256	6
NMTAP	38	272	7
NMTAP	38	288	0
NMTAP	38	304	1
NMTAP	38	320	2
NMTAP	38	336	3
NMTAP	38	352	4
NMTAP	38	368	5
NMTAP	39	0	6
NMTAP	39	16	7
NMTAP	39	32	0
NMTAP	39	48	1
NMTAP	39	64	2
NMTAP	39	80	3
NMTAP	39	96	4
NMTAP	39	112	5
NMTAP	39	128	6
NMTAP	39	144	7
NMTAP	39	160	0
NMTAP	39	176	1
NMTAP	39	192	2
NMTAP	39	208	3
NMTAP	39	224	4
NMTAP	39	240	5
NMTAP	39	256	6
NMTAP	39	272	7
NMTAP	39	288	0
NMTAP	39	304	1
NMTAP	39	320	2
NMTAP	39	336	3
NMTAP	39	352	4
NMTAP	39	368	5
NMTAP	40	0	6
NMTAP	40	16	7
NMTAP	40	32	0
NMTAP	40	48	1
NMTAP	40	64	2
NMTAP	40	80	3
NMTAP	40	96	5
NMTAP	40	112	6
NMTAP	40	128	7
NMTAP	40	144	0
NMTAP	40	160	1
NMTAP	40	176	2
NMTAP	40	192	4
NMTAP	40	208	5
NMTAP	40	224	6
NMTAP	40	240	7
NMTAP	40	256	0
NMTAP	40	272	1
NMTAP	40	288	3
NMTAP	40	304	4
NMTAP	40	320	5
NMTAP	40	336	6
NMTAP	40	352	7
NMTAP	40	368	0
NMTAP	41	0	2
NMTAP	41	16	3
NMTAP	41	32	4
NMTAP	41	48	5
NMTAP	41	64	6
NMTAP	41	80	7
NMTAP	41	96	1
NMTAP	41	112	2
NMTAP	41	128	3
NMTAP	41	144	4
NMTAP	41	160	5
NMTAP	41	176	6
NMTAP	41	192	0
NMTAP	41	208	1
NMTAP	41	224	2
NMTAP	41	240	3
NMTAP	41	256	4
NMTAP	41	272	5
NMTAP	41	288	7
NMTAP	41	304	0
NMTAP	41	320	1
NMTAP	41	336	2
NMTAP	41	352	3
NMTAP	41	368	4
NMTAP	42	0	6
NMTAP	42	16	7
NMTAP	42	32	0
NMTAP	42	48	1
NMTAP	42	64	2
NMTAP	42	80	3
NMTAP	42	96	5
NMTAP	42	112	6
NMTAP	42	128	7
NMTAP	42	144	0
NMTAP	42	160	1
NMTAP	42	176	2
NMTAP	42	192	4
NMTAP	42	208	5
NMTAP	42	224	6
NMTAP	42	240	7
NMTAP	42	256	0
NMTAP	42	272	1
NMTAP	42	288	3
NMTAP	42	304	4
NMTAP	42	320	5
NMTAP	42	336	6
NMTAP	42	352	7
NMTAP	42	368	0
NMTAP	43	0	2
NMTAP	43	16	3
NMTAP	43	32	4
NMTAP	43	48	5
NMTAP	43	64	6
NMTAP	43	80	7
NMTAP	43	96	1
NMTAP	43	112	2
NMTAP	43	128	3
NMTAP	43	144	4
NMTAP	43	160	5
NMTAP	43	176	6
NMTAP	43	192	0
NMTAP	43	208	1
NMTAP	43	224	2
NMTAP	43	240	3
NMTAP	43	256	4
NMTAP	43	272	5
NMTAP	43	288	7
NMTAP	43	304	0
NMTAP	43	320	1
NMTAP	43	336	2
NMTAP	43	352	3
NMTAP	43	368	4
BRTAP	44	0	6
NMTAP	44	12	7
NMTAP	44	24	0
NMTAP	44	36	1
NMTAP	44	48	2
NMTAP	44	60	3
NMTAP	44	72	4
NMTAP	44	84	5
NMTAP	44	96	6
NMTAP	44	108	7
NMTAP	44	120	0
NMTAP	44	132	1
NMTAP	44	144	2
NMTAP	44	156	3
NMTAP	44	168	4
NMTAP	44	180	5
NMTAP	44	192	6
NMTAP	44	204	7
NMTAP	44	216	0
NMTAP	44	228	1
NMTAP	44	240	2
NMTAP	44	252	3
NMTAP	44	264	4
NMTAP	44	276	5
NMTAP	44	288	6
NMTAP	44	300	7
NMTAP	44	312	0
NMTAP	44	324	1
NMTAP	44	336	2
NMTAP	44	348	3
NMTAP	44	360	4
NMTAP	44	372	5
NMTAP	45	0	6
NMTAP	45	12	7
NMTAP	45	24	0
NMTAP	45	36	1
NMTAP	45	48	2
NMTAP	45	60	3
NMTAP	45	72	4
NMTAP	45	84	5
NMTAP	45	96	6
NMTAP	45	108	7
NMTAP	45	120	0
NMTAP	45	132	1
NMTAP	45	144	2
NMTAP	45	156	3
NMTAP	45	168	4
NMTAP	45	180	5
NMTAP	45	192	6
NMTAP	45	204	7
NMTAP	45	216	0
NMTAP	45	228	1
NMTAP	45	240	2
NMTAP	45	252	3
NMTAP	45	264	4
NMTAP	45	276	5
NMTAP	45	288	6
NMTAP	45	300	7
NMTAP	45	312	0
NMTAP	45	324	1
NMTAP	45	336	2
NMTAP	45	348	3
NMTAP	45	360	4
NMTAP	45	372	5
NMTAP	46	0	6
NMTAP	46	12	7
NMTAP	46	24	0
NMTAP	46	36	1
NMTAP	46	48	2
NMTAP	46	60	3
NMTAP	46	72	4
NMTAP	46	84	5
NMTAP	46	96	6
NMTAP	46	108	7
NMTAP	46	120	0
NMTAP	46	132	1
NMTAP	46	144	2
NMTAP	46	156	3
NMTAP	46	168	4
NMTAP	46	180	5
NMTAP	46	192	6
NMTAP	46	204	7
NMTAP	46	216	0
NMTAP	46	228	1
NMTAP	46	240	2
NMTAP	46	252	3
NMTAP	46	264	4
NMTAP	46	276	5
NMTAP	46	288	6
NMTAP	46	300	7
NMTAP	46	312	0
NMTAP	46	324	1
NMTAP	46	336	2
NMTAP	46	348	3
NMTAP	46	360	4
NMTAP	46	372	5
NMTAP	47	0	6
NMTAP	47	12	7
NMTAP	47	24	0
NMTAP	47	36	1
NMTAP	47	48	2
NMTAP	47	60	3
NMTAP	47	72	4
NMTAP	47	84	5
NMTAP	47	96	6
NMTAP	47	108	7
NMTAP	47	120	0
NMTAP	47	132	1
NMTAP	47	144	2
NMTAP	47	156	3
NMTAP	47	168	4
NMTAP	47	180	5
NMTAP	47	192	6
NMTAP	47	204	7
NMTAP	47	216	0
NMTAP	47	228	1
NMTAP	47	240	2
NMTAP	47	252	3
NMTAP	47	264	4
NMTAP	47	276	5
NMTAP	47	288	6
NMTAP	47	300	7
NMTAP	47	312	0
NMTAP	47	324	1
NMTAP	47	336	2
NMTAP	47	348	3
NMTAP	47	360	4
NMTAP	47	372	5
BRTAP	48	0	6
NMTAP	48	12	7
NMTAP	48	24	0
NMTAP	48	36	1
NMTAP	48	48	2
NMTAP	48	60	3
NMTAP	48	72	4
NMTAP	48	84	5
BRTAP	48	96	7
NMTAP	48	108	0
NMTAP	48	120	1
NMTAP	48	132	2
NMTAP	48	144	3
NMTAP	48	156	4
NMTAP	48	168	5
NMTAP	48	180	6
BRTAP	48	192	0
NMTAP	48	204	1
NMTAP	48	216	2
NMTAP	48	228	3
NMTAP	48	240	4
NMTAP	48	252	5
NMTAP	48	264	6
NMTAP	48	276	7
BRTAP	48	288	1
NMTAP	48	300	2
NMTAP	48	312	3
NMTAP	48	324	4
NMTAP	48	336	5
NMTAP	48	348	6
NMTAP	48	360	7
NMTAP	48	372	0
BRTAP	49	0	2
NMTAP	49	12	3
NMTAP	49	24	4
NMTAP	49	36	5
NMTAP	49	48	6
NMTAP	49	60	7
NMTAP	49	72	0
NMTAP	49	84	1
BRTAP	49	96	3
NMTAP	49	108	4
NMTAP	49	120	5
NMTAP	49	132	6
NMTAP	49	144	7
NMTAP	49	156	0
NMTAP	49	168	1
NMTAP	49	180	2
BRTAP	49	192	4
NMTAP	49	204	5
NMTAP	49	216	6
NMTAP	49	228	7
NMTAP	49	240	0
NMTAP	49	252	1
NMTAP	49	264	2
NMTAP	49	276	3
BRTAP	49	288	5
NMTAP	49	300	6
NMTAP	49	312	7
NMTAP	49	324	0
NMTAP	49	336	1
NMTAP	49	348	2
NMTAP	49	360	3
NMTAP	49	372	4
BRTAP	50	0	6
NMTAP	50	12	7
NMTAP	50	24	0
NMTAP	50	36	1
NMTAP	50	48	2
NMTAP	50	60	3
NMTAP	50	72	4
NMTAP	50	84	5
BRTAP	50	96	7
NMTAP	50	108	0
NMTAP	50	120	1
NMTAP	50	132	2
NMTAP	50	144	3
NMTAP	50	156	4
NMTAP	50	168	5
NMTAP	50	180	6
BRTAP	50	192	0
NMTAP	50	204	1
NMTAP	50	216	2
NMTAP	50	228	3
NMTAP	50	240	4
NMTAP	50	252	5
NMTAP	50	264	6
NMTAP	50	276	7
BRTAP	50	288	1
NMTAP	50	300	2
NMTAP	50	312	3
NMTAP	50	324	4
NMTAP	50	336	5
NMTAP	50	348	6
NMTAP	50	360	7
NMTAP	50	372	0
BRTAP	51	0	2
NMTAP	51	12	3
NMTAP	51	24	4
NMTAP	51	36	5
NMTAP	51	48	6
NMTAP	51	60	7
NMTAP	51	72	0
NMTAP	51	84	1
BRTAP	51	96	3
NMTAP	51	108	4
NMTAP	51	120	5
NMTAP	51	132	6
NMTAP	51	144	7
NMTAP	51	156	0
NMTAP	51	168	1
NMTAP	51	180	2
BRTAP	51	192	4
NMTAP	51	204	5
NMTAP	51	216	6
NMTAP	51	228	7
NMTAP	51	240	0
NMTAP	51	252	1
NMTAP	51	264	2
NMTAP	51	276	3
BXTAP	51	288	5
EXTAP	51	296	6
EXTAP	51	304	7
EXTAP	51	312	0
EXTAP	51	320	1
EXTAP	51	328	2
EXTAP	51	336	3
EXTAP	51	344	4
EXTAP	51	352	5
EXTAP	51	360	6
EXTAP	51	368	7
EXTAP	51	376	0
EXHLD	52	0	1	2784
EXHLD	52	0	2	2832

T_REC_TAP	491
T_REC_BRK	20
T_REC_XTP	11
T_REC_BXX	1
T_REC_HLD	18
T_REC_XHO	2
T_REC_BHO	0
T_REC_BXH	0
T_REC_STR	55
T_REC_BST	0
T_REC_XST	0
T_REC_XBS	0
T_REC_TTP	0
T_REC_THO	0
T_REC_SLD	55
T_REC_BSL	0
T_REC_ALL	653
T_NUM_TAP	557
T_NUM_BRK	21
T_NUM_HLD	20
T_NUM_SLD	55
T_NUM_ALL	653
T_JUDGE_TAP	578
T_JUDGE_HLD	269
T_JUDGE_SLD	55
T_JUDGE_ALL	902
TTM_EACHPAIRS	3
TTM_SCR_TAP	278500
TTM_SCR_BRK	54600
TTM_SCR_HLD	20000
TTM_SCR_SLD	82500
TTM_SCR_ALL	435600
TTM_SCR_S	420500
TTM_SCR_SS	433500
TTM_RAT_ACV	10048

