VERSION	0.00.00	1.04.00
FES_MODE	0
BPM_DEF	256.000	256.000	256.000	256.000
MET_DEF	4	4
RESOLUTION	384
CLK_DEF	384
COMPATIBLE_CODE	MA2

BPM	0	0	256.000

NMTAP	2	0	3
NMTAP	2	192	5
NMTAP	2	240	4
NMTAP	2	336	6
NMTAP	3	192	6
NMTAP	3	240	4
NMTAP	3	288	5
NMTAP	3	336	3
NMTAP	4	0	4
NMTAP	4	192	3
NMTAP	4	240	4
NMTAP	4	336	2
NMTAP	5	192	1
NMTAP	5	192	4
NMTAP	5	288	3
NMTAP	5	288	6
NMTAP	6	0	4
NMTAP	6	192	2
NMTAP	6	240	3
NMTAP	6	336	1
NMTAP	7	192	1
NMTAP	7	240	3
NMTAP	7	288	2
NMTAP	7	336	4
NMTAP	8	0	3
NMTAP	8	192	4
NMTAP	8	240	3
NMTAP	8	336	5
NMTAP	9	192	3
NMTAP	9	192	6
NMTAP	9	288	1
NMSTR	9	288	4
NMSI_	9	288	4	96	336	0
NMTAP	10	0	5
NMTAP	10	192	6
NMTAP	10	240	6
NMHLD	10	336	4	240
NMTAP	11	192	5
NMTAP	11	240	4
NMSTR	11	288	3
NMSCR	11	288	3	96	336	6
NMTAP	11	336	2
NMTAP	12	0	1
NMTAP	12	192	3
NMTAP	12	240	3
NMHLD	12	336	1	240
NMTAP	13	192	4
NMSTR	13	288	3
NMSI_	13	288	3	96	336	7
NMTAP	13	288	6
NMTAP	14	0	2
NMTAP	14	192	1
NMTAP	14	240	1
NMHLD	14	336	3	240
NMTAP	15	192	2
NMTAP	15	240	3
NMSTR	15	288	4
NMSCL	15	288	4	96	336	1
NMTAP	15	336	5
NMTAP	16	0	6
NMTAP	16	192	4
NMTAP	16	240	4
NMTAP	16	336	6
NMTAP	17	0	3
NMTAP	17	0	4
NMTAP	17	96	0
NMTAP	17	96	7
NMSTR	17	192	2
NMSUR	17	192	2	96	48	7
NMSTR	17	192	5
NMSUL	17	192	5	96	48	0
NMTAP	18	0	1
NMTAP	18	0	6
NMTAP	18	96	2
NMTAP	18	96	3
NMTAP	18	192	1
NMTAP	18	192	6
NMTAP	18	288	4
NMTAP	18	288	5
NMTAP	19	0	1
NMTAP	19	0	6
NMTAP	19	96	3
NMTAP	19	96	4
NMTAP	19	192	0
NMTAP	19	192	7
NMTAP	19	288	1
NMTAP	19	288	3
NMTAP	19	336	1
NMTAP	20	0	1
NMTAP	20	0	3
NMTAP	20	96	4
NMTAP	20	96	6
NMTAP	20	192	0
NMTAP	20	192	2
NMTAP	20	288	5
NMTAP	20	288	7
NMTAP	21	0	1
NMTAP	21	24	0
NMTAP	21	48	7
NMTAP	21	72	6
NMSTR	21	96	5
NMSI_	21	96	5	96	48	0
NMTAP	21	192	3
NMTAP	22	0	4
NMTAP	22	0	6
NMTAP	22	96	1
NMTAP	22	96	3
NMTAP	22	192	5
NMTAP	22	192	7
NMTAP	22	288	0
NMTAP	22	288	2
NMTAP	23	0	6
NMTAP	23	24	7
NMTAP	23	48	0
NMTAP	23	72	1
NMSTR	23	96	2
NMSI_	23	96	2	96	48	7
NMTAP	23	192	4
NMTAP	24	0	3
NMTAP	24	48	7
NMTAP	24	96	7
NMTAP	24	144	7
NMTAP	24	192	1
NMTAP	24	240	5
NMSTR	24	288	5
NMSI_	24	288	5	96	48	3
NMTAP	24	336	5
NMSTR	25	0	2
NMSI_	25	0	2	96	48	6
NMSTR	25	96	7
NMSI_	25	96	7	96	48	1
NMTAP	25	192	3
BRTAP	25	288	7
NMTAP	26	0	5
NMTAP	26	144	3
NMTAP	26	192	3
NMTAP	26	288	2
NMTAP	26	288	6
NMTAP	27	0	1
NMTAP	27	0	5
NMTAP	27	96	0
NMTAP	27	96	4
NMSTR	27	192	3
NMSCR	27	192	3	96	48	6
NMSTR	27	192	7
NMSCR	27	192	7	96	48	2
NMTAP	28	0	1
NMTAP	28	0	5
NMTAP	28	96	3
NMTAP	28	96	7
NMTAP	28	192	0
NMTAP	28	192	4
NMTAP	28	288	2
NMTAP	28	288	6
NMTAP	29	0	4
NMTAP	29	24	3
NMTAP	29	48	2
NMTAP	29	72	1
NMSTR	29	96	0
NMSI_	29	96	0	96	48	5
NMTAP	29	192	2
NMTAP	30	0	2
NMTAP	30	0	6
NMTAP	30	96	0
NMTAP	30	96	4
NMTAP	30	192	3
NMTAP	30	192	7
NMTAP	30	288	0
NMTAP	30	288	4
NMTAP	31	0	3
NMTAP	31	24	4
NMTAP	31	48	5
NMTAP	31	72	6
NMSTR	31	96	7
NMSI_	31	96	7	96	48	2
NMTAP	31	192	5
NMTAP	32	0	2
NMTAP	32	48	6
NMTAP	32	96	6
NMTAP	32	144	6
NMTAP	32	192	0
NMTAP	32	240	4
NMTAP	32	288	4
NMTAP	32	336	4
NMTAP	33	0	1
NMTAP	33	48	3
NMTAP	33	96	2
NMTAP	33	144	4
NMTAP	33	192	3
NMTAP	33	240	5
NMTAP	33	288	4
NMTAP	33	336	6
NMTAP	34	0	3
NMTAP	34	0	5
NMTAP	34	96	1
NMTAP	34	96	4
NMTAP	34	192	2
NMTAP	34	192	6
NMSTR	34	288	0
NMSI_	34	288	0	96	48	3
NMTAP	34	288	4
NMSTR	35	0	5
NMSI_	35	0	5	96	48	0
NMSTR	35	96	2
NMSI_	35	96	2	96	48	5
NMTAP	35	192	7
NMTAP	35	288	3
NMTAP	36	0	2
NMTAP	36	0	4
NMTAP	36	96	3
NMTAP	36	96	6
NMTAP	36	192	1
NMTAP	36	192	5
NMTAP	36	288	3
NMSTR	36	288	7
NMSI_	36	288	7	96	48	4
NMSTR	37	0	2
NMSI_	37	0	2	96	48	7
NMSTR	37	96	5
NMSI_	37	96	5	96	48	2
NMTAP	37	192	0
NMTAP	37	288	3
NMTAP	38	0	3
NMTAP	38	0	5
NMTAP	38	96	1
NMTAP	38	96	4
NMTAP	38	192	2
NMTAP	38	192	6
NMSTR	38	288	0
NMSI_	38	288	0	96	48	3
NMTAP	38	288	4
NMSTR	39	0	5
NMSI_	39	0	5	96	48	0
NMSTR	39	96	2
NMSI_	39	96	2	96	48	5
NMTAP	39	192	7
NMTAP	39	288	3
NMTAP	40	0	4
NMTAP	40	48	0
NMTAP	40	96	0
NMTAP	40	144	0
NMTAP	40	192	6
NMTAP	40	240	2
NMSTR	40	288	2
NMSI_	40	288	2	96	48	4
NMTAP	40	336	2
NMSTR	41	0	5
NMSI_	41	0	5	96	48	1
NMSTR	41	96	0
NMSI_	41	96	0	96	48	6
NMTAP	41	192	4
BRTAP	41	288	0
NMTAP	42	0	2
NMTAP	42	0	4
NMTAP	42	96	3
NMTAP	42	96	6
NMTAP	42	192	1
NMTAP	42	192	5
NMTAP	42	288	3
NMSTR	42	288	7
NMSI_	42	288	7	96	48	4
NMSTR	43	0	2
NMSI_	43	0	2	96	48	7
NMTAP	43	0	7
NMTAP	43	96	2
NMSTR	43	96	5
NMSI_	43	96	5	96	48	2
NMTAP	43	192	0
NMTAP	43	192	5
NMTAP	43	288	4
NMTAP	44	0	3
NMTAP	44	0	5
NMTAP	44	96	1
NMTAP	44	96	4
NMTAP	44	192	2
NMTAP	44	192	6
NMSTR	44	288	0
NMSI_	44	288	0	96	48	3
NMTAP	44	288	4
NMTAP	45	0	0
NMSTR	45	0	5
NMSI_	45	0	5	96	48	0
NMSTR	45	96	2
NMSI_	45	96	2	96	48	5
NMTAP	45	96	5
NMTAP	45	192	2
NMTAP	45	192	7
NMTAP	45	288	4
NMTAP	46	0	7
NMTAP	46	48	0
NMTAP	46	96	7
NMTAP	46	192	2
NMTAP	46	240	3
NMTAP	46	288	1
NMTAP	47	0	5
NMTAP	47	48	4
NMTAP	47	96	6
NMSTR	47	192	0
NMSF_	47	192	0	96	48	4
NMTAP	47	240	7
NMTAP	47	288	0
NMTAP	48	0	6
NMTAP	48	144	1
NMTAP	48	240	1
NMTAP	48	336	1
BRTAP	49	192	6
NMSTR	50	0	2
NMSXR	50	0	2	96	288	4
NMTAP	50	144	4
NMTAP	50	288	6
NMTAP	51	96	0
NMTAP	51	192	7
NMTAP	51	288	6
NMSTR	52	0	5
NMSXL	52	0	5	96	288	3
NMTAP	52	144	3
NMTAP	52	288	1
NMTAP	53	48	2
NMTAP	53	96	2
NMTAP	53	144	2
NMSTR	53	192	2
NMSI_	53	192	2	96	48	5
NMSI_	53	192	2	96	48	7
NMSTR	54	0	6
NMSXL	54	0	6	96	288	3
NMTAP	54	144	3
NMTAP	54	288	1
NMTAP	55	96	7
NMTAP	55	192	5
NMTAP	55	288	3
NMSTR	56	0	1
NMSXR	56	0	1	96	288	4
NMTAP	56	144	4
NMTAP	56	288	6
NMTAP	57	48	5
NMTAP	57	96	5
NMTAP	57	144	5
NMSTR	57	192	5
NMSI_	57	192	5	96	48	0
NMSI_	57	192	5	96	48	2
BRTAP	58	0	1
NMTAP	59	0	1
NMTAP	59	0	2
NMTAP	59	144	4
NMTAP	59	144	7
NMTAP	59	288	1
NMTAP	59	288	2
NMTAP	60	0	0
NMTAP	60	0	3
NMTAP	61	0	5
NMTAP	61	0	6
NMTAP	61	144	0
NMTAP	61	144	3
NMTAP	61	288	5
NMTAP	61	288	6
NMTAP	62	0	4
NMSTR	62	192	0
NMSCL	62	192	0	96	96	4
NMTAP	62	192	1
NMTAP	62	288	4
NMTAP	62	312	3
NMTAP	62	336	2
NMTAP	62	360	1
NMTAP	63	0	0
NMSTR	63	192	7
NMSCR	63	192	7	96	96	3
NMTAP	63	288	3
NMTAP	63	312	4
NMTAP	63	336	5
NMTAP	63	360	6
NMTAP	64	0	7
NMTAP	64	96	0
NMTAP	64	192	5
NMSTR	64	288	1
NMSI_	64	288	1	96	48	4
NMSTR	65	0	4
NMSI_	65	0	4	96	48	1
NMSTR	65	96	6
NMSI_	65	96	6	96	48	3
NMSTR	65	192	3
NMSI_	65	192	3	96	48	6
NMTAP	66	0	5
NMTAP	66	96	4
NMTAP	66	96	7
NMTAP	66	192	0
NMTAP	66	192	3
NMSTR	66	288	1
NMSI_	66	288	1	96	48	4
NMTAP	66	288	2
NMSTR	67	0	0
NMSI_	67	0	0	96	48	3
NMSTR	67	96	7
NMSI_	67	96	7	96	48	2
NMTAP	67	192	6
NMTAP	67	288	5
NMTAP	68	0	1
NMTAP	68	0	2
NMTAP	68	96	0
NMTAP	68	96	3
NMTAP	68	192	4
NMTAP	68	192	7
NMTAP	68	288	5
NMSTR	68	288	6
NMSI_	68	288	6	96	48	3
NMSTR	69	0	7
NMSI_	69	0	7	96	48	4
NMSTR	69	96	0
NMSI_	69	96	0	96	48	5
NMTAP	69	192	1
NMTAP	69	288	2
NMTAP	70	0	3
NMTAP	70	0	4
NMTAP	70	96	5
NMTAP	70	96	6
NMTAP	70	192	0
NMTAP	70	192	7
NMSTR	70	288	1
NMSI_	70	288	1	96	48	4
NMTAP	70	288	2
NMSTR	71	0	0
NMSI_	71	0	0	96	48	3
NMSTR	71	96	7
NMSI_	71	96	7	96	48	2
NMTAP	71	192	6
NMTAP	71	288	5
NMTAP	72	0	2
NMTAP	72	0	4
NMTAP	72	96	3
NMTAP	72	96	6
NMTAP	72	192	1
NMTAP	72	192	5
NMTAP	72	288	3
NMTAP	72	288	7
BRTAP	73	0	0
NMTAP	74	0	1
NMTAP	74	0	2
NMTAP	74	96	4
NMTAP	74	96	7
NMTAP	74	192	5
NMTAP	74	192	6
NMSTR	74	288	0
NMSI_	74	288	0	96	48	3
NMTAP	74	288	3
NMSTR	75	0	4
NMSI_	75	0	4	96	48	1
NMSTR	75	96	2
NMSI_	75	96	2	96	48	7
NMTAP	75	192	5
NMTAP	75	288	0
NMTAP	76	0	5
NMTAP	76	0	6
NMTAP	76	96	0
NMTAP	76	96	3
NMTAP	76	192	1
NMTAP	76	192	2
NMTAP	76	288	4
NMSTR	76	288	7
NMSI_	76	288	7	96	48	4
NMSTR	77	0	3
NMSI_	77	0	3	96	48	6
NMSTR	77	96	5
NMSI_	77	96	5	96	48	0
NMTAP	77	192	2
NMTAP	77	288	7
NMTAP	78	0	3
NMTAP	78	0	5
NMTAP	78	96	1
NMTAP	78	96	4
NMTAP	78	192	2
NMTAP	78	192	6
NMTAP	78	288	0
NMTAP	78	288	4
NMTAP	79	0	7
NMTAP	79	96	3
NMTAP	79	192	0
NMTAP	79	240	7
NMSTR	79	288	0
NMSI_	79	288	0	96	48	5
NMSTR	79	336	7
NMSI_	79	336	7	96	48	2
NMTAP	80	192	1
NMTAP	80	288	5
NMTAP	81	0	3
NMTAP	81	48	3
NMTAP	81	144	4
BRTAP	81	192	4
BRTAP	81	192	6
BRTAP	81	288	3
BRTAP	81	288	4
NMSTR	82	0	1
NMSLR	82	0	1	96	384	5
NMTAP	82	0	3
NMTAP	82	192	7
NMSTR	82	240	7
NMSI_	82	240	7	96	144	1
NMTAP	82	336	7
NMTAP	83	192	2
NMTAP	83	240	3
NMTAP	83	288	4
NMTAP	83	336	5
NMSTR	84	0	6
NMSLL	84	0	6	96	384	2
NMTAP	84	192	0
NMSTR	84	240	0
NMSI_	84	240	0	96	144	6
NMTAP	84	336	0
NMTAP	85	192	5
NMTAP	85	288	1
NMSTR	86	0	5
NMSLR	86	0	5	96	384	1
NMTAP	86	192	2
NMSTR	86	240	2
NMSI_	86	240	2	96	144	6
NMTAP	86	336	2
NMTAP	87	192	6
NMTAP	87	240	5
NMTAP	87	288	4
NMTAP	87	336	3
NMSTR	88	0	2
NMSLL	88	0	2	96	384	6
NMTAP	88	192	5
NMSTR	88	240	5
NMSI_	88	240	5	96	144	1
NMTAP	88	336	5
NMTAP	89	192	1
NMTAP	89	288	3
NMTAP	89	288	7
NMTAP	90	0	1
NMSTR	90	0	5
NMSI_	90	0	5	96	96	1
NMTAP	90	192	2
NMTAP	90	240	3
NMTAP	90	288	2
NMTAP	90	336	3
NMHLD	91	0	2	96
NMTAP	91	96	1
NMTAP	91	144	1
NMTAP	91	192	2
NMTAP	91	288	4
NMSTR	92	0	2
NMSI_	92	0	2	96	96	6
NMTAP	92	0	6
NMTAP	92	192	5
NMTAP	92	240	4
NMTAP	92	288	5
NMTAP	92	336	4
NMHLD	93	0	5	96
NMTAP	93	96	4
NMTAP	93	144	4
NMTAP	93	192	6
NMTAP	93	240	6
NMTAP	93	336	0
NMSTR	94	0	0
NMSI_	94	0	0	96	96	4
NMTAP	94	192	6
NMTAP	94	240	1
NMTAP	94	288	4
NMTAP	94	336	3
NMHLD	95	0	4	96
NMTAP	95	96	3
NMTAP	95	144	3
NMTAP	95	192	4
NMTAP	95	288	1
NMTAP	95	336	2
NMTAP	96	0	3
NMTAP	96	48	4
NMTAP	96	96	5
NMTAP	96	144	6
NMTAP	96	192	0
NMTAP	96	192	7
NMTAP	96	216	1
NMTAP	96	240	2
NMTAP	96	264	3
NMTAP	96	288	4
NMTAP	96	312	5
NMTAP	96	336	6
NMTAP	96	360	7
NMTAP	97	0	0
NMTAP	97	0	4
NMTAP	97	96	1
NMTAP	97	96	5
BRTAP	97	192	3
BRTAP	97	192	7
NMSTR	98	0	1
NMSI_	98	0	1	96	48	4
NMTAP	98	0	4
NMTAP	98	96	1
NMTAP	98	96	6
NMSTR	98	192	0
NMSI_	98	192	0	96	48	5
NMTAP	98	192	5
NMTAP	98	288	0
NMSTR	98	288	7
NMSI_	98	288	7	96	48	3
NMSTR	99	0	2
NMSI_	99	0	2	96	48	7
NMSTR	99	96	6
NMSI_	99	96	6	96	48	3
NMTAP	99	192	0
NMTAP	99	288	4
NMTAP	100	0	3
NMSTR	100	0	6
NMSI_	100	0	6	96	48	3
NMTAP	100	96	1
NMTAP	100	96	6
NMTAP	100	192	2
NMSTR	100	192	7
NMSI_	100	192	7	96	48	2
NMSTR	100	288	0
NMSI_	100	288	0	96	48	4
NMTAP	100	288	7
NMSTR	101	0	5
NMSI_	101	0	5	96	48	0
NMSTR	101	96	1
NMSI_	101	96	1	96	48	4
NMTAP	101	192	7
NMTAP	101	288	3
NMSTR	102	0	0
NMSI_	102	0	0	96	48	5
NMTAP	102	0	5
NMTAP	102	96	0
NMTAP	102	96	6
NMTAP	102	192	2
NMSTR	102	192	7
NMSI_	102	192	7	96	48	2
NMSTR	102	288	1
NMSI_	102	288	1	96	48	3
NMTAP	102	288	7
NMSTR	103	0	4
NMSI_	103	0	4	96	48	6
NMSTR	103	96	0
NMSI_	103	96	0	96	48	4
NMTAP	103	192	7
NMTAP	103	288	1
NMTAP	103	336	1
NMTAP	104	48	6
NMTAP	104	96	5
NMTAP	104	144	4
NMTAP	104	192	1
NMTAP	104	240	2
NMSTR	104	288	3
NMSI_	104	288	3	96	48	1
NMTAP	104	336	4
NMSTR	105	0	5
NMSI_	105	0	5	96	48	7
NMSTR	105	96	0
NMSI_	105	96	0	96	48	4
NMTAP	105	192	6
NMTAP	105	288	2
NMTAP	106	0	3
NMSTR	106	0	6
NMSI_	106	0	6	96	48	3
NMTAP	106	96	1
NMTAP	106	96	6
NMTAP	106	192	2
NMSTR	106	192	7
NMSI_	106	192	7	96	48	2
NMSTR	106	288	0
NMSI_	106	288	0	96	48	4
NMTAP	106	288	7
NMSTR	107	0	5
NMSI_	107	0	5	96	48	0
NMSTR	107	96	1
NMSI_	107	96	1	96	48	4
NMTAP	107	192	7
NMTAP	107	288	3
NMSTR	108	0	1
NMSI_	108	0	1	96	48	4
NMTAP	108	0	4
NMTAP	108	96	1
NMTAP	108	96	6
NMSTR	108	192	0
NMSI_	108	192	0	96	48	5
NMTAP	108	192	5
NMTAP	108	288	0
NMSTR	108	288	7
NMSI_	108	288	7	96	48	3
NMSTR	109	0	2
NMSI_	109	0	2	96	48	7
NMSTR	109	96	6
NMSI_	109	96	6	96	48	3
NMTAP	109	192	0
NMTAP	109	288	4
NMTAP	110	0	2
NMSTR	110	0	7
NMSI_	110	0	7	96	48	2
NMTAP	110	96	1
NMTAP	110	96	7
NMSTR	110	192	0
NMSI_	110	192	0	96	48	5
NMTAP	110	192	5
NMTAP	110	288	0
NMSTR	110	288	6
NMSI_	110	288	6	96	48	4
NMSTR	111	0	3
NMSI_	111	0	3	96	48	1
NMSTR	111	96	7
NMSI_	111	96	7	96	48	3
NMTAP	111	192	0
NMTAP	111	288	2
NMTAP	111	336	2
NMTAP	112	48	7
NMTAP	112	96	7
NMTAP	112	144	7
NMTAP	112	192	7
NMTAP	112	240	7
NMTAP	112	288	7
NMTAP	112	336	7
NMTAP	113	0	3
NMTAP	113	96	5
NMTAP	113	192	1
NMTAP	113	288	0
BRTAP	113	288	7
NMTAP	114	0	2
NMTAP	114	48	2
NMTAP	114	96	2
NMTAP	114	144	2
NMTAP	114	192	6
NMTAP	114	240	6
NMSTR	114	288	6
NMSI_	114	288	6	96	48	0
NMTAP	114	336	6
NMSTR	115	0	1
NMSI_	115	0	1	96	48	5
NMTAP	115	48	1
NMSTR	115	96	4
NMSI_	115	96	4	96	48	2
NMTAP	115	144	4
NMTAP	115	192	7
NMTAP	115	240	7
BRTAP	115	288	3
NMTAP	115	288	7
NMTAP	116	0	5
NMTAP	116	48	5
NMTAP	116	96	5
NMTAP	116	144	5
NMTAP	116	192	1
NMTAP	116	240	1
NMSTR	116	288	1
NMSI_	116	288	1	96	48	7
NMTAP	116	336	1
NMSTR	117	0	6
NMSI_	117	0	6	96	48	2
NMTAP	117	48	6
NMSTR	117	96	3
NMSI_	117	96	3	96	48	5
NMTAP	117	144	3
NMTAP	117	192	0
NMTAP	117	240	0
NMTAP	117	288	0
BRTAP	117	288	4
NMTAP	118	0	2
NMTAP	118	48	2
NMTAP	118	96	2
NMTAP	118	144	2
NMTAP	118	192	0
NMTAP	118	240	0
NMSTR	118	288	0
NMSI_	118	288	0	96	48	4
NMTAP	118	336	0
NMSTR	119	0	3
NMSI_	119	0	3	96	48	7
NMTAP	119	48	3
NMSTR	119	96	5
NMSI_	119	96	5	96	48	1
NMTAP	119	144	5
NMTAP	119	192	0
NMTAP	119	240	0
NMTAP	119	288	0
BRTAP	119	288	4
NMTAP	120	0	5
NMTAP	120	48	5
NMTAP	120	96	5
NMTAP	120	144	5
NMTAP	120	192	7
NMTAP	120	240	7
NMSTR	120	288	7
NMSI_	120	288	7	96	48	3
NMTAP	120	336	7
NMSTR	121	0	4
NMSI_	121	0	4	96	48	0
NMTAP	121	48	4
NMSTR	121	96	2
NMSI_	121	96	2	96	48	6
NMTAP	121	144	2
NMTAP	121	192	7
NMTAP	121	240	7
BRTAP	121	288	0
NMSTR	121	288	7
NMSI_	121	288	7	96	48	3
NMSTR	122	0	2
NMSI_	122	0	2	96	48	6
NMTAP	122	48	2
NMSTR	122	96	5
NMSI_	122	96	5	96	48	1
NMTAP	122	144	5
NMSTR	122	192	0
NMSI_	122	192	0	96	48	4
NMTAP	122	240	0
NMSTR	122	288	6
NMSI_	122	288	6	96	48	2
NMTAP	122	336	6
NMSTR	123	0	3
NMSI_	123	0	3	96	48	7
NMTAP	123	48	3
NMTAP	123	96	5
NMTAP	123	144	5
NMTAP	123	192	0
NMTAP	123	240	0
BRTAP	123	288	0
NMSTR	123	288	7
NMSI_	123	288	7	96	48	3
NMSTR	124	0	2
NMSI_	124	0	2	96	48	6
NMTAP	124	48	2
NMSTR	124	96	5
NMSI_	124	96	5	96	48	1
NMTAP	124	144	5
NMSTR	124	192	0
NMSI_	124	192	0	96	48	4
NMTAP	124	240	0
NMSTR	124	288	5
NMSI_	124	288	5	96	48	0
NMTAP	124	336	5
NMSTR	125	0	2
NMSI_	125	0	2	96	48	7
NMTAP	125	48	2
NMSTR	125	96	4
NMSI_	125	96	4	96	48	0
NMTAP	125	144	4
NMTAP	125	192	1
NMTAP	125	240	1
NMTAP	125	288	1
BRTAP	125	288	6
NMTAP	126	0	2
NMTAP	126	0	4
NMTAP	126	48	2
NMTAP	126	48	4
NMTAP	126	96	3
NMTAP	126	96	6
NMTAP	126	144	3
NMTAP	126	144	6
NMTAP	126	192	1
NMTAP	126	192	5
NMTAP	126	240	1
NMTAP	126	240	5
NMTAP	126	288	3
NMTAP	126	288	7
NMTAP	126	336	3
NMTAP	126	336	7
NMTAP	127	0	2
NMTAP	127	0	6
NMTAP	127	24	5
NMTAP	127	48	4
NMTAP	127	72	3
NMTAP	127	96	0
NMTAP	127	120	7
NMTAP	127	144	6
NMTAP	127	168	5
NMTAP	127	192	2
NMTAP	127	216	1
NMTAP	127	240	0
NMTAP	127	264	7
NMTAP	127	288	6
NMTAP	127	312	5
NMTAP	127	336	4
NMTAP	127	360	3
NMTAP	128	48	0
NMTAP	128	96	1
NMTAP	128	144	2
NMTAP	128	192	7
NMTAP	128	240	6
NMTAP	128	288	5
NMTAP	128	336	4
BRTAP	129	0	3
NMTAP	130	0	0
NMTAP	130	0	7

T_REC_TAP	586
T_REC_BRK	19
T_REC_XTP	0
T_REC_BXX	0
T_REC_HLD	6
T_REC_XHO	0
T_REC_BHO	0
T_REC_BXH	0
T_REC_STR	132
T_REC_BST	0
T_REC_XST	0
T_REC_XBS	0
T_REC_TTP	0
T_REC_THO	0
T_REC_SLD	134
T_REC_BSL	0
T_REC_ALL	877
T_NUM_TAP	718
T_NUM_BRK	19
T_NUM_HLD	6
T_NUM_SLD	134
T_NUM_ALL	877
T_JUDGE_TAP	737
T_JUDGE_HLD	12
T_JUDGE_SLD	134
T_JUDGE_ALL	883
TTM_EACHPAIRS	148
TTM_SCR_TAP	359000
TTM_SCR_BRK	49400
TTM_SCR_HLD	6000
TTM_SCR_SLD	201000
TTM_SCR_ALL	615400
TTM_SCR_S	595100
TTM_SCR_SS	613500
TTM_RAT_ACV	10030

