VERSION	0.00.00	1.04.00
FES_MODE	1
BPM_DEF	123.000	123.000	123.000	123.000
MET_DEF	4	4
RESOLUTION	384
CLK_DEF	384
COMPATIBLE_CODE	MA2

BPM	0	0	123.000
MET	0	0	4	4

EXTAP	1	0	5
EXTAP	1	96	3
EXTAP	1	192	1
BXTAP	1	288	1
EXTAP	2	0	3
EXTAP	2	48	3
EXTAP	2	96	4
EXTAP	2	120	4
EXTAP	2	168	3
EXTAP	2	216	3
EXTAP	2	264	2
EXTAP	2	288	2
EXTAP	2	336	3
EXTAP	3	0	4
EXTAP	3	48	4
EXTAP	3	96	5
EXTAP	3	120	5
EXTAP	3	168	4
EXTAP	3	192	4
EXTAP	3	240	3
EXTAP	3	288	3
EXTAP	4	0	4
EXTAP	4	48	4
EXTAP	4	96	5
EXTAP	4	120	5
EXTAP	4	168	4
EXTAP	4	216	4
EXTAP	4	264	3
EXTAP	4	288	3
EXTAP	4	336	4
EXTAP	5	0	5
EXTAP	5	48	5
EXTAP	5	96	6
EXTAP	5	120	6
EXTAP	5	168	7
EXTAP	5	192	7
EXTAP	5	240	0
EXTAP	5	240	1
EXTAP	5	288	1
EXTAP	5	288	2
EXSTR	6	0	0
NMSCL	6	0	0	96	96	5
BXTAP	6	96	0
EXTAP	6	192	1
EXTAP	6	288	2
EXSTR	7	0	7
NMSCR	7	0	7	96	96	2
BXTAP	7	96	7
EXTAP	7	192	6
EXTAP	7	288	5
EXSTR	8	0	0
NMSCL	8	0	0	96	96	5
BXTAP	8	96	0
EXTAP	8	192	1
EXTAP	8	288	2
EXHLD	9	0	2	72
EXTAP	9	72	1
EXTAP	9	144	3
EXTAP	9	192	4
EXTAP	9	216	4
EXHLD	9	264	5	72
EXTAP	9	336	6
EXHLD	10	0	0	96
EXTAP	10	96	1
EXTAP	10	192	6
EXTAP	10	240	5
EXHLD	10	264	4	72
EXTAP	10	336	2
EXTAP	11	0	3
EXTAP	11	72	4
EXTAP	11	144	5
EXHLD	11	192	6	96
EXHLD	12	0	0	96
EXTAP	12	96	1
EXTAP	12	144	2
EXTAP	12	192	1
EXTAP	12	240	7
EXHLD	12	264	6	72
EXTAP	12	336	5
EXTAP	13	0	6
EXTAP	13	72	7
EXTAP	13	144	0
EXHLD	13	192	0	96
EXTAP	13	240	1
BXTAP	13	288	1
EXHLD	14	0	6	96
EXTAP	14	96	5
EXTAP	14	192	3
EXHLD	14	264	2	72
EXTAP	14	336	3
EXTAP	15	0	3
EXTAP	15	72	4
EXTAP	15	144	5
EXHLD	15	192	6	96
EXSTR	15	288	0
NMSCR	15	288	0	96	96	3
BXTAP	16	0	7
EXSTR	16	96	7
NMSCL	16	96	7	96	96	4
BXTAP	16	192	0
EXHLD	16	288	0	96
EXHLD	17	0	1	96
EXTAP	17	96	2
EXHLD	17	168	3	120
EXHLD	17	168	5	120
EXHLD	18	0	2	96
EXTAP	18	96	1
EXTAP	18	168	7
EXTAP	18	192	7
EXTAP	18	240	6
EXTAP	18	336	7
EXTAP	19	0	1
EXTAP	19	48	2
EXTAP	19	96	3
EXTAP	19	144	5
EXHLD	19	192	4	144
EXTAP	19	288	3
EXTAP	19	336	2
EXHLD	20	0	1	96
EXTAP	20	96	0
EXTAP	20	168	7
EXTAP	20	192	7
EXTAP	20	240	6
EXTAP	20	336	7
EXTAP	21	0	0
EXTAP	21	72	2
EXTAP	21	144	4
EXHLD	21	192	3	96
EXTAP	21	240	2
BXTAP	21	288	2
EXHLD	22	0	0	96
EXTAP	22	96	1
EXTAP	22	168	7
EXTAP	22	192	7
EXHLD	22	240	6	48
EXTAP	22	336	3
EXTAP	22	360	4
EXTAP	23	0	3
EXTAP	23	48	5
EXTAP	23	96	1
EXTAP	23	144	7
EXHLD	23	192	0	192
EXTAP	23	288	1
EXTAP	23	336	2
EXHLD	24	0	7	96
EXTAP	24	96	6
EXTAP	24	120	5
EXHLD	24	168	0	120
EXSTR	24	288	1
NMSCL	24	288	1	96	96	6
EXTAP	25	96	0
BXTAP	25	168	0
EXTAP	26	0	5
EXTAP	26	48	4
EXTAP	26	96	5
EXTAP	26	144	4
EXTAP	26	192	3
EXTAP	26	240	4
EXTAP	26	288	3
EXTAP	26	336	4
EXTAP	27	0	3
EXTAP	27	48	2
EXTAP	27	96	3
EXTAP	27	144	2
EXTAP	27	192	1
EXTAP	27	240	2
EXTAP	27	288	1
EXTAP	27	336	2
EXTAP	28	0	3
EXTAP	28	48	4
EXTAP	28	96	3
EXTAP	28	144	4
EXTAP	28	192	5
EXTAP	28	240	6
EXTAP	28	288	7
EXTAP	28	336	6
EXHLD	29	0	0	192
EXTAP	29	144	1
EXHLD	29	192	2	96
EXTAP	30	0	2
EXHLD	30	0	6	96
EXTAP	30	96	5
EXHLD	30	192	0	96
EXTAP	30	192	4
EXTAP	30	288	1
EXTAP	31	0	3
EXHLD	31	0	7	96
EXTAP	31	96	6
EXHLD	31	192	1	96
EXTAP	31	192	5
EXTAP	31	288	2
EXTAP	31	336	3
EXTAP	32	0	5
EXTAP	32	48	7
EXTAP	32	144	5
EXTAP	32	192	3
EXTAP	32	240	1
EXTAP	32	336	2
EXSTR	33	0	4
NMSI_	33	0	4	96	48	0
EXSTR	33	96	2
NMSI_	33	96	2	96	48	7
EXTAP	33	144	2
EXSTR	33	192	5
NMSI_	33	192	5	96	48	0
EXTAP	33	240	5
BXTAP	33	336	7
EXTAP	34	0	5
EXTAP	34	48	5
EXTAP	34	96	4
EXTAP	34	120	4
EXTAP	34	168	5
EXTAP	34	216	5
EXTAP	34	264	6
EXTAP	34	288	6
EXTAP	34	336	5
EXTAP	35	0	4
EXTAP	35	48	4
EXTAP	35	96	5
EXTAP	35	120	5
EXTAP	35	168	4
EXTAP	35	192	4
EXTAP	35	240	2
EXTAP	35	240	3
EXTAP	35	288	0
EXTAP	35	288	7
EXTAP	36	0	5
EXSTR	36	0	7
BRSCR	36	0	7	96	24	2
NMTTP	36	96	6	E	1	M1
BXTAP	36	96	7
EXTAP	36	192	3
EXTAP	36	216	3
EXHLD	36	264	2	72
EXTAP	36	336	3
EXSTR	37	0	4
BRSCL	37	0	4	96	24	1
EXTAP	37	0	6
BXTAP	37	96	4
NMTTP	37	96	6	E	1	M1
EXTAP	37	192	0
EXTAP	37	216	0
EXHLD	37	264	6	71
EXTAP	37	336	7
EXSTR	38	0	0
BRSCL	38	0	0	96	24	5
EXTAP	38	0	2
BXTAP	38	96	0
NMTTP	38	96	2	E	1	M1
EXTAP	38	192	2
EXTAP	38	192	6
EXTAP	38	288	3
EXTAP	38	288	7
EXTAP	39	0	2
EXTAP	39	0	6
EXTAP	39	48	1
EXTAP	39	96	0
EXTAP	39	96	4
EXTAP	39	144	5
EXTAP	39	192	3
EXHLD	39	216	7	48
EXHLD	39	264	0	72
EXTAP	39	336	1
EXTAP	40	0	5
EXSTR	40	0	7
BRSCR	40	0	7	96	24	2
NMTTP	40	96	6	E	1	M1
BXTAP	40	96	7
EXTAP	40	192	3
EXTAP	40	216	3
EXHLD	40	264	2	72
EXTAP	40	336	3
EXSTR	41	0	4
BRSCL	41	0	4	96	24	1
EXTAP	41	0	6
BXTAP	41	96	4
NMTTP	41	96	6	E	1	M1
EXTAP	41	192	0
EXTAP	41	216	0
EXHLD	41	264	6	71
EXTAP	41	336	7
EXSTR	42	0	0
BRSCL	42	0	0	96	24	5
EXTAP	42	0	2
BXTAP	42	96	0
NMTTP	42	96	2	E	1	M1
EXTAP	42	192	2
EXTAP	42	192	6
EXTAP	42	288	3
EXTAP	42	288	7
EXTAP	43	0	2
EXTAP	43	0	6
EXTAP	43	48	1
EXTAP	43	96	0
EXTAP	43	96	4
EXTAP	43	144	5
EXTAP	43	192	3
EXHLD	43	216	7	48
EXHLD	43	264	6	72
EXTAP	43	336	5
EXTAP	44	0	0
EXTAP	44	96	1
EXTAP	44	192	2
EXTAP	44	288	3
EXTAP	45	0	4
EXTAP	45	96	5
EXTAP	45	192	6
EXTAP	45	288	7
EXTAP	46	0	7
EXTAP	46	96	6
EXTAP	46	192	5
EXTAP	46	288	4
EXTAP	47	0	3
EXTAP	47	96	2
EXTAP	47	192	1
BXTAP	47	288	0
EXSTR	48	0	0
NMSI_	48	0	0	96	384	4
EXSTR	49	0	1
NMSI_	49	0	1	96	384	5
EXSTR	50	0	2
NMSI_	50	0	2	96	384	6
EXSTR	51	0	7
NMSCR	51	0	7	96	48	2
EXSTR	51	96	7
NMSCL	51	96	7	96	48	4
EXSTR	51	192	7
NMSI_	51	192	7	96	48	3
EXTAP	52	0	5
EXSTR	52	0	7
BRSCR	52	0	7	96	24	2
NMTTP	52	96	6	E	1	M1
BXTAP	52	96	7
EXTAP	52	192	3
EXTAP	52	216	3
EXHLD	52	264	2	72
EXTAP	52	336	3
EXSTR	53	0	4
BRSCL	53	0	4	96	24	1
EXTAP	53	0	6
BXTAP	53	96	4
NMTTP	53	96	6	E	1	M1
EXTAP	53	192	0
EXTAP	53	216	0
EXHLD	53	264	6	71
EXTAP	53	336	7
EXSTR	54	0	0
BRSCL	54	0	0	96	24	5
EXTAP	54	0	2
BXTAP	54	96	0
NMTTP	54	96	2	E	1	M1
EXTAP	54	192	2
EXTAP	54	192	6
EXTAP	54	288	3
EXTAP	54	288	7
EXSTR	55	0	6
NMSI_	55	0	6	96	48	3
EXSTR	55	96	1
NMSI_	55	96	1	96	48	4
EXSTR	55	192	7
NMSI_	55	192	7	96	48	3
EXTAP	56	0	5
EXSTR	56	0	7
BRSCR	56	0	7	96	24	2
NMTTP	56	96	6	E	1	M1
BXTAP	56	96	7
EXTAP	56	192	3
EXTAP	56	216	3
EXHLD	56	264	2	72
EXTAP	56	336	3
EXSTR	57	0	4
BRSCL	57	0	4	96	24	1
EXTAP	57	0	6
BXTAP	57	96	4
NMTTP	57	96	6	E	1	M1
EXTAP	57	192	0
EXTAP	57	216	0
EXHLD	57	264	6	71
EXTAP	57	336	7
EXSTR	58	0	0
BRSCL	58	0	0	96	24	5
EXTAP	58	0	2
NMTTP	58	96	2	E	1	M1
EXTAP	58	192	2
EXTAP	58	192	6
EXTAP	58	288	3
EXTAP	58	288	7
EXTAP	59	0	6
EXTAP	59	48	3
EXTAP	59	96	0
EXTAP	59	144	5
EXHLD	59	192	0	144
EXTAP	59	216	1
EXTAP	59	264	7
EXTAP	59	336	6
EXSTR	60	0	4
BRSI_	60	0	4	96	24	0
EXTAP	60	0	5
NMTTP	60	96	4	A	1	M1
BXTAP	60	96	7
EXTAP	60	192	2
EXSTR	60	192	3
BRSI_	60	192	3	96	24	7
BXTAP	60	288	0
NMTTP	60	288	3	A	1	M1
EXSTR	61	0	5
BRSI_	61	0	5	96	24	0
EXTAP	61	0	6
NMTTP	61	96	5	A	1	M1
BXTAP	61	96	7
EXTAP	61	192	1
EXSTR	61	192	2
BRSI_	61	192	2	96	24	7
BXTAP	61	288	0
NMTTP	61	288	2	A	1	M1
EXTAP	62	0	6
EXSTR	62	0	7
BRSCR	62	0	7	96	24	2
NMTTP	62	96	6	E	1	M1
BXTAP	62	96	7
EXSTR	62	192	0
BRSCL	62	192	0	96	24	5
EXTAP	62	192	1
BXTAP	62	288	0
NMTTP	62	288	2	E	1	M1
EXSTR	63	0	5
NMSI_	63	0	5	96	24	0
EXSTR	63	96	2
NMSI_	63	96	2	96	24	7
EXSTR	63	192	4
NMSI_	63	192	4	96	24	0
BXTAP	63	288	7

T_REC_TAP	0
T_REC_BRK	0
T_REC_XTP	264
T_REC_BXX	29
T_REC_HLD	0
T_REC_XHO	43
T_REC_BHO	0
T_REC_BXH	0
T_REC_STR	0
T_REC_BST	0
T_REC_XST	39
T_REC_XBS	0
T_REC_TTP	18
T_REC_THO	0
T_REC_SLD	21
T_REC_BSL	18
T_REC_ALL	432
T_NUM_TAP	321
T_NUM_BRK	47
T_NUM_HLD	43
T_NUM_SLD	21
T_NUM_ALL	432
T_JUDGE_TAP	350
T_JUDGE_HLD	92
T_JUDGE_SLD	39
T_JUDGE_ALL	481
TTM_EACHPAIRS	39
TTM_SCR_TAP	160500
TTM_SCR_BRK	122200
TTM_SCR_HLD	43000
TTM_SCR_SLD	31500
TTM_SCR_ALL	357200
TTM_SCR_S	341950
TTM_SCR_SS	352500
TTM_RAT_ACV	10133

