VERSION	0.00.00	1.04.00
FES_MODE	0
BPM_DEF	125.000	125.000	125.000	125.000
MET_DEF	4	4
RESOLUTION	384
CLK_DEF	384
COMPATIBLE_CODE	MA2

BPM	0	0	125.000
MET	0	0	4	4

NMTAP	3	0	2
NMTAP	3	80	2
NMTAP	3	192	2
NMTAP	3	272	2
NMTAP	4	0	5
NMTAP	4	80	5
NMTAP	4	192	5
NMTAP	4	272	5
NMTAP	5	0	2
EXTAP	5	16	2
EXTAP	5	32	2
EXTAP	5	48	2
EXTAP	5	64	2
EXTAP	5	80	2
NMTAP	5	192	2
EXTAP	5	208	2
EXTAP	5	224	2
EXTAP	5	240	2
EXTAP	5	256	2
EXTAP	5	272	2
NMTAP	6	0	5
EXTAP	6	16	5
EXTAP	6	32	5
EXTAP	6	48	5
EXTAP	6	64	5
EXTAP	6	80	5
NMTAP	6	192	5
EXTAP	6	208	5
EXTAP	6	224	5
EXTAP	6	240	5
EXTAP	6	256	5
EXTAP	6	272	5
NMTAP	7	0	2
EXTAP	7	16	2
EXTAP	7	32	2
EXTAP	7	48	2
EXTAP	7	64	2
EXTAP	7	80	2
NMTAP	7	80	6
NMTAP	7	144	6
NMTAP	7	192	2
EXTAP	7	208	2
EXTAP	7	224	2
EXTAP	7	240	2
EXTAP	7	256	2
EXTAP	7	272	2
NMTAP	7	272	6
NMTAP	7	336	6
NMTAP	8	0	5
EXTAP	8	16	5
EXTAP	8	32	5
EXTAP	8	48	5
EXTAP	8	64	5
NMTAP	8	80	1
EXTAP	8	80	5
NMTAP	8	144	1
NMTAP	8	192	5
EXTAP	8	208	5
EXTAP	8	224	5
EXTAP	8	240	5
EXTAP	8	256	5
NMTAP	8	272	1
EXTAP	8	272	5
NMTAP	8	336	1
NMTAP	9	0	2
EXTAP	9	16	2
EXTAP	9	32	2
EXTAP	9	48	2
EXTAP	9	64	2
EXTAP	9	80	2
NMTAP	9	80	6
EXTAP	9	96	6
EXTAP	9	112	6
EXTAP	9	128	6
EXTAP	9	144	6
NMTAP	9	192	2
EXTAP	9	208	2
EXTAP	9	224	2
EXTAP	9	240	2
EXTAP	9	256	2
EXTAP	9	272	2
NMTAP	9	272	6
EXTAP	9	288	6
EXTAP	9	304	6
EXTAP	9	320	6
EXTAP	9	336	6
NMTAP	10	0	5
EXTAP	10	16	5
EXTAP	10	32	5
EXTAP	10	48	5
EXTAP	10	64	5
NMTAP	10	80	1
EXTAP	10	80	5
EXTAP	10	96	1
EXTAP	10	112	1
EXTAP	10	128	1
EXTAP	10	144	1
EXTAP	10	160	1
NMTAP	10	192	5
EXTAP	10	208	5
EXTAP	10	224	5
EXTAP	10	240	5
EXTAP	10	256	5
NMTAP	10	272	1
EXTAP	10	272	5
EXTAP	10	288	1
EXTAP	10	304	1
EXTAP	10	320	1
EXTAP	10	336	1
NMTAP	11	0	2
EXTAP	11	16	2
EXTAP	11	32	2
EXTAP	11	48	2
EXTAP	11	64	2
EXTAP	11	80	2
NMTAP	11	80	6
EXTAP	11	96	6
EXTAP	11	112	6
EXTAP	11	128	6
NMTAP	11	144	4
EXTAP	11	144	6
NMTAP	11	192	5
EXTAP	11	208	5
EXTAP	11	224	5
EXTAP	11	240	5
EXTAP	11	256	5
NMTAP	11	272	1
EXTAP	11	272	5
EXTAP	11	288	1
EXTAP	11	304	1
EXTAP	11	320	1
EXTAP	11	336	1
NMTAP	11	336	3
NMTAP	12	0	2
EXTAP	12	16	2
EXTAP	12	32	2
EXTAP	12	48	2
EXTAP	12	64	2
EXTAP	12	80	2
NMTAP	12	80	6
EXTAP	12	96	6
EXTAP	12	112	6
EXTAP	12	128	6
NMTAP	12	144	4
EXTAP	12	144	6
NMTAP	12	192	5
EXTAP	12	208	5
EXTAP	12	224	5
EXTAP	12	240	5
EXTAP	12	256	5
NMTAP	12	272	1
EXTAP	12	272	5
EXTAP	12	288	1
EXTAP	12	304	1
EXTAP	12	320	1
EXTAP	12	336	1
NMTAP	12	336	3
NMTAP	13	0	2
EXTAP	13	16	2
EXTAP	13	32	2
EXTAP	13	48	2
EXTAP	13	64	2
EXTAP	13	80	2
NMTAP	13	80	6
EXTAP	13	96	6
EXTAP	13	112	6
EXTAP	13	128	6
NMTAP	13	144	4
EXTAP	13	144	6
EXTAP	13	160	4
EXTAP	13	176	4
EXTAP	13	192	4
NMTAP	13	192	5
EXTAP	13	208	5
EXTAP	13	224	5
EXTAP	13	240	5
EXTAP	13	256	5
NMTAP	13	272	1
EXTAP	13	272	5
EXTAP	13	288	1
EXTAP	13	304	1
EXTAP	13	320	1
EXTAP	13	336	1
NMTAP	13	336	3
EXTAP	13	352	3
EXTAP	13	368	3
NMTAP	14	0	0
EXTAP	14	0	3
EXTAP	14	16	0
EXTAP	14	32	0
EXTAP	14	48	0
EXTAP	14	64	0
EXTAP	14	80	0
NMTAP	14	80	4
EXTAP	14	96	4
EXTAP	14	112	4
EXTAP	14	128	4
NMTAP	14	144	2
EXTAP	14	144	4
EXTAP	14	160	2
EXTAP	14	176	2
EXTAP	14	192	2
NMTAP	14	192	7
EXTAP	14	208	7
EXTAP	14	224	7
EXTAP	14	240	7
EXTAP	14	256	7
NMTAP	14	272	3
EXTAP	14	272	7
EXTAP	14	288	3
EXTAP	14	304	3
EXTAP	14	320	3
EXTAP	14	336	3
NMTAP	14	336	5
EXTAP	14	352	5
EXTAP	14	368	5
NMTAP	15	0	0
EXTAP	15	0	5
EXTAP	15	16	0
EXTAP	15	32	0
EXTAP	15	48	0
EXTAP	15	64	0
EXTAP	15	80	0
EXTAP	15	96	0
EXTAP	15	112	0
EXTAP	15	128	0
EXTAP	15	144	0
NMSTR	15	144	1
NMSI_	15	144	1	96	144	5
EXTAP	15	160	0
EXTAP	15	176	0
EXTAP	15	192	0
EXTAP	15	208	0
EXTAP	15	224	0
EXTAP	15	240	0
EXTAP	15	256	0
EXTAP	15	272	0
EXTAP	15	288	0
EXTAP	15	304	0
EXTAP	15	320	0
EXTAP	15	336	0
EXTAP	15	352	0
EXTAP	15	368	0
EXTAP	16	0	0
EXTAP	16	16	0
EXTAP	16	32	0
EXTAP	16	48	0
EXTAP	16	64	0
EXTAP	16	80	0
EXTAP	16	96	0
EXTAP	16	112	0
EXTAP	16	128	0
EXTAP	16	144	0
EXTAP	16	160	0
EXTAP	16	176	0
EXTAP	16	192	0
NMTAP	16	192	5
EXTAP	16	208	5
EXTAP	16	224	5
EXTAP	16	240	5
EXTAP	16	256	5
EXTAP	16	272	5
EXTAP	16	288	5
NMTAP	16	288	6
EXTAP	16	304	6
EXTAP	16	320	6
EXTAP	16	336	6
EXTAP	16	352	6
EXTAP	16	368	6
EXTAP	17	0	6
NMTAP	17	0	7
EXTAP	17	16	7
EXTAP	17	32	7
EXTAP	17	48	7
EXTAP	17	64	7
EXTAP	17	80	7
EXTAP	17	96	7
EXTAP	17	112	7
EXTAP	17	128	7
NMSTR	17	144	6
NMSI_	17	144	6	96	144	2
EXTAP	17	144	7
EXTAP	17	160	7
EXTAP	17	176	7
EXTAP	17	192	7
EXTAP	17	208	7
EXTAP	17	224	7
EXTAP	17	240	7
EXTAP	17	256	7
EXTAP	17	272	7
EXTAP	17	288	7
EXTAP	17	304	7
EXTAP	17	320	7
EXTAP	17	336	7
EXTAP	17	352	7
EXTAP	17	368	7
EXTAP	18	0	7
EXTAP	18	16	7
EXTAP	18	32	7
EXTAP	18	48	7
EXTAP	18	64	7
EXTAP	18	80	7
EXTAP	18	96	7
EXTAP	18	112	7
EXTAP	18	128	7
EXTAP	18	144	7
EXTAP	18	160	7
EXTAP	18	176	7
EXTAP	18	192	7
EXTAP	18	208	7
EXTAP	18	224	7
EXTAP	18	240	7
EXTAP	18	256	7
EXTAP	18	272	7
EXTAP	18	288	7
EXTAP	18	304	7
EXTAP	18	320	7
EXTAP	18	336	7
EXTAP	18	352	7
EXTAP	18	368	7
NMTAP	19	0	1
EXTAP	19	0	7
EXTAP	19	16	1
EXTAP	19	32	1
EXTAP	19	48	1
EXTAP	19	64	1
EXTAP	19	80	1
EXTAP	19	96	1
EXTAP	19	112	1
EXTAP	19	128	1
NMSTR	19	144	0
NMSCL	19	144	0	96	144	5
EXTAP	19	144	1
EXTAP	19	160	1
EXTAP	19	176	1
EXTAP	19	192	1
EXTAP	19	208	1
EXTAP	19	224	1
EXTAP	19	240	1
EXTAP	19	256	1
EXTAP	19	272	1
EXTAP	19	288	1
EXTAP	19	304	1
EXTAP	19	320	1
EXTAP	19	336	1
EXTAP	19	352	1
EXTAP	19	368	1
EXTAP	20	0	1
EXTAP	20	16	1
EXTAP	20	32	1
EXTAP	20	48	1
EXTAP	20	64	1
EXTAP	20	80	1
EXTAP	20	96	1
EXTAP	20	112	1
EXTAP	20	128	1
EXTAP	20	144	1
EXTAP	20	160	1
EXTAP	20	176	1
EXTAP	20	192	1
NMTAP	20	192	4
EXTAP	20	208	4
EXTAP	20	224	4
EXTAP	20	240	4
EXTAP	20	256	4
EXTAP	20	272	4
EXTAP	20	288	4
NMTAP	20	288	5
EXTAP	20	304	5
EXTAP	20	320	5
EXTAP	20	336	5
EXTAP	20	352	5
EXTAP	20	368	5
EXTAP	21	0	5
NMTAP	21	0	6
EXTAP	21	16	6
EXTAP	21	32	6
EXTAP	21	48	6
EXTAP	21	64	6
EXTAP	21	80	6
EXTAP	21	96	6
EXTAP	21	112	6
EXTAP	21	128	6
EXTAP	21	144	6
EXTAP	21	160	6
EXTAP	21	176	6
EXTAP	21	192	6
EXTAP	21	208	6
EXTAP	21	224	6
EXTAP	21	240	6
EXTAP	21	256	6
EXTAP	21	272	6
EXTAP	21	288	6
EXTAP	21	304	6
EXTAP	21	320	6
EXTAP	21	336	6
EXTAP	21	352	6
EXTAP	21	368	6
NMSTR	22	0	0
NMSI_	22	0	0	96	192	3
EXTAP	22	0	6
EXTAP	22	16	6
EXTAP	22	32	6
EXTAP	22	48	6
EXTAP	22	64	6
EXTAP	22	80	6
EXTAP	22	96	6
EXTAP	22	112	6
EXTAP	22	128	6
EXTAP	22	144	6
EXTAP	22	160	6
EXTAP	22	176	6
EXTAP	22	192	6
EXTAP	22	208	6
EXTAP	22	224	6
EXTAP	22	240	6
EXTAP	22	256	6
EXTAP	22	272	6
EXTAP	22	288	6
EXTAP	22	304	6
EXTAP	22	320	6
EXTAP	22	336	6
EXTAP	22	352	6
EXTAP	22	368	6
NMTAP	23	0	1
EXTAP	23	0	6
EXTAP	23	16	1
EXTAP	23	32	1
EXTAP	23	48	1
EXTAP	23	64	1
EXTAP	23	80	1
NMTAP	23	80	2
EXTAP	23	96	2
EXTAP	23	112	2
EXTAP	23	128	2
EXTAP	23	144	2
EXTAP	23	160	2
EXTAP	23	176	2
NMTAP	23	192	1
EXTAP	23	192	2
EXTAP	23	208	1
EXTAP	23	224	1
EXTAP	23	240	1
EXTAP	23	256	1
EXTAP	23	272	1
NMTAP	23	272	2
EXTAP	23	288	2
EXTAP	23	304	2
EXTAP	23	320	2
EXTAP	23	336	2
EXTAP	23	352	2
EXTAP	23	368	2
NMTAP	24	0	1
EXTAP	24	0	2
EXTAP	24	16	1
EXTAP	24	32	1
EXTAP	24	48	1
EXTAP	24	64	1
EXTAP	24	80	1
NMTAP	24	80	2
EXTAP	24	96	2
EXTAP	24	112	2
EXTAP	24	128	2
EXTAP	24	144	2
EXTAP	24	160	2
EXTAP	24	176	2
NMTAP	24	192	1
EXTAP	24	192	2
EXTAP	24	208	1
EXTAP	24	224	1
EXTAP	24	240	1
EXTAP	24	256	1
EXTAP	24	272	1
NMTAP	24	272	2
EXTAP	24	288	2
EXTAP	24	304	2
EXTAP	24	320	2
EXTAP	24	336	2
NMTAP	24	336	3
EXTAP	24	352	3
EXTAP	24	368	3
EXTAP	25	0	3
NMTAP	25	0	6
EXTAP	25	16	6
EXTAP	25	32	6
EXTAP	25	48	6
EXTAP	25	64	6
NMTAP	25	80	5
EXTAP	25	80	6
EXTAP	25	96	5
EXTAP	25	112	5
EXTAP	25	128	5
EXTAP	25	144	5
EXTAP	25	160	5
EXTAP	25	176	5
EXTAP	25	192	5
NMTAP	25	192	6
EXTAP	25	208	6
EXTAP	25	224	6
EXTAP	25	240	6
EXTAP	25	256	6
NMTAP	25	272	5
EXTAP	25	272	6
EXTAP	25	288	5
EXTAP	25	304	5
EXTAP	25	320	5
EXTAP	25	336	5
EXTAP	25	352	5
EXTAP	25	368	5
EXTAP	26	0	5
NMTAP	26	0	6
EXTAP	26	16	6
EXTAP	26	32	6
EXTAP	26	48	6
EXTAP	26	64	6
NMTAP	26	80	5
EXTAP	26	80	6
EXTAP	26	96	5
EXTAP	26	112	5
EXTAP	26	128	5
EXTAP	26	144	5
EXTAP	26	160	5
EXTAP	26	176	5
EXTAP	26	192	5
NMTAP	26	192	6
EXTAP	26	208	6
EXTAP	26	224	6
EXTAP	26	240	6
EXTAP	26	256	6
NMTAP	26	272	5
EXTAP	26	272	6
EXTAP	26	288	5
EXTAP	26	304	5
EXTAP	26	320	5
NMTAP	26	336	4
EXTAP	26	336	5
EXTAP	26	352	4
EXTAP	26	368	4
NMTAP	27	0	2
EXTAP	27	0	4
EXTAP	27	16	2
EXTAP	27	32	2
EXTAP	27	48	2
EXTAP	27	64	2
EXTAP	27	80	2
NMTAP	27	80	3
EXTAP	27	96	3
EXTAP	27	112	3
EXTAP	27	128	3
NMTAP	27	144	2
EXTAP	27	144	3
EXTAP	27	160	3
EXTAP	27	176	3
NMTAP	27	192	2
EXTAP	27	192	3
EXTAP	27	208	2
EXTAP	27	224	2
EXTAP	27	240	2
EXTAP	27	256	2
EXTAP	27	272	2
NMTAP	27	272	3
EXTAP	27	288	3
EXTAP	27	304	3
EXTAP	27	320	3
NMTAP	27	336	2
EXTAP	27	336	3
EXTAP	27	352	3
EXTAP	27	368	3
NMTAP	28	0	2
EXTAP	28	0	3
EXTAP	28	16	2
EXTAP	28	32	2
EXTAP	28	48	2
EXTAP	28	64	2
EXTAP	28	80	2
NMTAP	28	80	3
EXTAP	28	96	3
EXTAP	28	112	3
EXTAP	28	128	3
NMTAP	28	144	2
EXTAP	28	144	3
EXTAP	28	160	3
EXTAP	28	176	3
NMTAP	28	192	2
EXTAP	28	192	3
EXTAP	28	208	2
EXTAP	28	224	2
EXTAP	28	240	2
EXTAP	28	256	2
EXTAP	28	272	2
NMTAP	28	272	3
EXTAP	28	288	3
EXTAP	28	304	3
EXTAP	28	320	3
EXTAP	28	336	3
NMTAP	28	336	4
EXTAP	28	352	4
EXTAP	28	368	4
EXTAP	29	0	4
NMTAP	29	0	5
EXTAP	29	16	5
EXTAP	29	32	5
EXTAP	29	48	5
EXTAP	29	64	5
NMTAP	29	80	4
EXTAP	29	80	5
EXTAP	29	96	4
EXTAP	29	112	4
EXTAP	29	128	4
EXTAP	29	144	4
NMTAP	29	144	5
EXTAP	29	160	4
EXTAP	29	176	4
EXTAP	29	192	4
NMTAP	29	192	5
EXTAP	29	208	5
EXTAP	29	224	5
EXTAP	29	240	5
EXTAP	29	256	5
NMTAP	29	272	4
EXTAP	29	272	5
EXTAP	29	288	4
EXTAP	29	304	4
EXTAP	29	320	4
EXTAP	29	336	4
NMTAP	29	336	5
EXTAP	29	352	4
EXTAP	29	368	4
EXTAP	30	0	4
NMTAP	30	0	6
EXTAP	30	16	6
EXTAP	30	32	6
EXTAP	30	48	6
EXTAP	30	64	6
NMTAP	30	80	3
EXTAP	30	80	6
EXTAP	30	96	6
EXTAP	30	112	6
EXTAP	30	128	6
NMTAP	30	144	3
EXTAP	30	144	6
EXTAP	30	160	6
EXTAP	30	176	6
NMTAP	30	192	1
EXTAP	30	192	6
EXTAP	30	208	1
EXTAP	30	224	1
EXTAP	30	240	1
EXTAP	30	256	1
EXTAP	30	272	1
NMTAP	30	272	4
EXTAP	30	288	1
EXTAP	30	304	1
EXTAP	30	320	1
EXTAP	30	336	1
NMTAP	30	336	4
EXTAP	30	352	1
EXTAP	30	368	1
EXTAP	31	0	1
NMTAP	31	0	7
EXTAP	31	16	7
EXTAP	31	32	7
EXTAP	31	48	7
EXTAP	31	64	7
EXTAP	31	80	7
EXTAP	31	96	7
EXTAP	31	112	7
EXTAP	31	128	7
NMTAP	31	144	6
EXTAP	31	144	7
EXTAP	31	160	6
EXTAP	31	160	7
EXTAP	31	176	6
EXTAP	31	176	7
EXTAP	31	192	6
EXTAP	31	192	7
EXTAP	31	208	6
EXTAP	31	208	7
EXTAP	31	224	6
EXTAP	31	224	7
EXTAP	31	240	6
EXTAP	31	240	7
EXTAP	31	256	6
EXTAP	31	256	7
EXTAP	31	272	6
EXTAP	31	272	7
EXTAP	31	288	6
EXTAP	31	288	7
EXTAP	31	304	6
EXTAP	31	304	7
EXTAP	31	320	6
EXTAP	31	320	7
EXTAP	31	336	6
EXTAP	31	336	7
EXTAP	31	352	6
EXTAP	31	352	7
EXTAP	31	368	6
EXTAP	31	368	7
EXTAP	32	0	6
EXTAP	32	0	7
EXTAP	32	16	6
EXTAP	32	16	7
EXTAP	32	32	6
EXTAP	32	32	7
EXTAP	32	48	6
EXTAP	32	48	7
EXTAP	32	64	6
EXTAP	32	64	7
EXTAP	32	80	6
EXTAP	32	80	7
EXTAP	32	96	6
EXTAP	32	96	7
EXTAP	32	112	6
EXTAP	32	112	7
EXTAP	32	128	6
EXTAP	32	128	7
EXTAP	32	144	6
EXTAP	32	144	7
EXTAP	32	160	6
EXTAP	32	176	6
NMTAP	32	192	4
EXTAP	32	192	6
EXTAP	32	208	4
EXTAP	32	208	6
EXTAP	32	224	4
EXTAP	32	224	6
EXTAP	32	240	4
EXTAP	32	240	6
EXTAP	32	256	4
EXTAP	32	272	4
NMTAP	32	288	3
EXTAP	32	288	4
EXTAP	32	304	3
EXTAP	32	304	4
EXTAP	32	320	3
EXTAP	32	320	4
EXTAP	32	336	3
EXTAP	32	336	4
EXTAP	32	352	3
EXTAP	32	368	3
NMTAP	33	0	1
EXTAP	33	0	3
EXTAP	33	16	1
EXTAP	33	16	3
EXTAP	33	32	1
EXTAP	33	32	3
EXTAP	33	48	1
EXTAP	33	48	3
EXTAP	33	64	1
EXTAP	33	64	3
EXTAP	33	80	1
EXTAP	33	80	3
EXTAP	33	96	1
EXTAP	33	96	3
EXTAP	33	112	1
EXTAP	33	128	1
NMTAP	33	144	0
EXTAP	33	144	1
EXTAP	33	160	0
EXTAP	33	160	1
EXTAP	33	176	0
EXTAP	33	176	1
EXTAP	33	192	0
EXTAP	33	192	1
EXTAP	33	208	0
EXTAP	33	208	1
EXTAP	33	224	0
EXTAP	33	224	1
EXTAP	33	240	0
EXTAP	33	240	1
EXTAP	33	256	0
EXTAP	33	256	1
EXTAP	33	272	0
EXTAP	33	272	1
EXTAP	33	288	0
EXTAP	33	288	1
EXTAP	33	304	0
EXTAP	33	304	1
EXTAP	33	320	0
EXTAP	33	320	1
EXTAP	33	336	0
EXTAP	33	336	1
EXTAP	33	352	0
EXTAP	33	352	1
EXTAP	33	368	0
EXTAP	33	368	1
EXTAP	34	0	0
EXTAP	34	0	1
EXTAP	34	16	0
EXTAP	34	16	1
EXTAP	34	32	0
EXTAP	34	32	1
EXTAP	34	48	0
EXTAP	34	48	1
EXTAP	34	64	0
EXTAP	34	64	1
EXTAP	34	80	0
EXTAP	34	80	1
EXTAP	34	96	0
EXTAP	34	96	1
EXTAP	34	112	0
EXTAP	34	112	1
EXTAP	34	128	0
EXTAP	34	128	1
EXTAP	34	144	0
EXTAP	34	144	1
EXTAP	34	160	0
EXTAP	34	160	1
EXTAP	34	176	0
EXTAP	34	176	1
EXTAP	34	192	0
EXTAP	34	192	1
EXTAP	34	208	0
EXTAP	34	208	1
EXTAP	34	224	0
EXTAP	34	224	1
EXTAP	34	240	0
EXTAP	34	240	1
EXTAP	34	256	0
EXTAP	34	256	1
EXTAP	34	272	0
EXTAP	34	272	1
EXTAP	34	288	0
EXTAP	34	288	1
EXTAP	34	304	0
EXTAP	34	304	1
EXTAP	34	320	0
EXTAP	34	320	1
EXTAP	34	336	0
EXTAP	34	336	1
EXTAP	34	352	1
EXTAP	34	368	1
NMTAP	35	0	0
EXTAP	35	0	1
EXTAP	35	16	0
EXTAP	35	16	1
EXTAP	35	32	0
EXTAP	35	32	1
EXTAP	35	48	0
EXTAP	35	48	1
EXTAP	35	64	0
EXTAP	35	64	1
EXTAP	35	80	0
EXTAP	35	80	1
EXTAP	35	96	0
EXTAP	35	96	1
EXTAP	35	112	0
EXTAP	35	128	0
EXTAP	35	144	0
NMTAP	35	144	1
EXTAP	35	160	0
EXTAP	35	160	1
EXTAP	35	176	0
EXTAP	35	176	1
EXTAP	35	192	0
EXTAP	35	192	1
EXTAP	35	208	0
EXTAP	35	208	1
EXTAP	35	224	0
EXTAP	35	224	1
EXTAP	35	240	0
EXTAP	35	240	1
EXTAP	35	256	0
EXTAP	35	256	1
EXTAP	35	272	0
EXTAP	35	272	1
EXTAP	35	288	0
EXTAP	35	288	1
EXTAP	35	304	0
EXTAP	35	304	1
EXTAP	35	320	0
EXTAP	35	320	1
EXTAP	35	336	0
EXTAP	35	336	1
EXTAP	35	352	0
EXTAP	35	352	1
EXTAP	35	368	0
EXTAP	35	368	1
EXTAP	36	0	0
EXTAP	36	0	1
EXTAP	36	16	0
EXTAP	36	16	1
EXTAP	36	32	0
EXTAP	36	32	1
EXTAP	36	48	0
EXTAP	36	48	1
EXTAP	36	64	0
EXTAP	36	64	1
EXTAP	36	80	0
EXTAP	36	80	1
EXTAP	36	96	0
EXTAP	36	96	1
EXTAP	36	112	0
EXTAP	36	112	1
EXTAP	36	128	0
EXTAP	36	128	1
EXTAP	36	144	0
EXTAP	36	144	1
EXTAP	36	160	0
EXTAP	36	176	0
EXTAP	36	192	0
NMTAP	36	192	5
EXTAP	36	208	0
EXTAP	36	208	5
EXTAP	36	224	0
EXTAP	36	224	5
EXTAP	36	240	0
EXTAP	36	240	5
EXTAP	36	256	5
EXTAP	36	272	5
EXTAP	36	288	5
NMTAP	36	288	6
EXTAP	36	304	5
EXTAP	36	304	6
EXTAP	36	320	5
EXTAP	36	320	6
EXTAP	36	336	5
EXTAP	36	336	6
EXTAP	36	352	6
EXTAP	36	368	6
EXTAP	37	0	6
NMTAP	37	0	7
EXTAP	37	16	6
EXTAP	37	16	7
EXTAP	37	32	6
EXTAP	37	32	7
EXTAP	37	48	6
EXTAP	37	48	7
EXTAP	37	64	6
EXTAP	37	64	7
EXTAP	37	80	6
EXTAP	37	80	7
EXTAP	37	96	6
EXTAP	37	96	7
EXTAP	37	112	6
EXTAP	37	112	7
EXTAP	37	128	6
EXTAP	37	128	7
EXTAP	37	144	6
EXTAP	37	144	7
EXTAP	37	160	6
EXTAP	37	160	7
EXTAP	37	176	6
EXTAP	37	176	7
EXTAP	37	192	6
EXTAP	37	192	7
EXTAP	37	208	6
EXTAP	37	208	7
EXTAP	37	224	6
EXTAP	37	224	7
EXTAP	37	240	6
EXTAP	37	240	7
EXTAP	37	256	6
EXTAP	37	256	7
EXTAP	37	272	6
EXTAP	37	272	7
EXTAP	37	288	6
EXTAP	37	288	7
EXTAP	37	304	6
EXTAP	37	304	7
EXTAP	37	320	6
EXTAP	37	320	7
EXTAP	37	336	6
EXTAP	37	336	7
EXTAP	37	352	7
EXTAP	37	368	7
BRTAP	38	0	6
EXTAP	38	0	7
EXTAP	38	16	7
EXTAP	38	32	7
BRTAP	38	48	5
EXTAP	38	48	7
EXTAP	38	64	7
EXTAP	38	80	7
BRTAP	38	96	4
EXTAP	38	96	7
EXTAP	38	112	7
EXTAP	38	128	7
BRTAP	38	144	3
EXTAP	38	144	7
EXTAP	38	160	7
EXTAP	38	176	7
BRTAP	38	192	2
EXTAP	38	192	7
EXTAP	38	208	7
EXTAP	38	224	7
BRTAP	38	240	1
EXTAP	38	240	7
EXTAP	38	256	7
EXTAP	38	272	7
BRTAP	38	288	0
EXTAP	38	288	7
EXTAP	38	304	7
EXTAP	38	320	7
EXTAP	38	336	7
EXTAP	38	352	7
EXTAP	38	368	7
NMTAP	39	0	0
EXTAP	39	0	7
EXTAP	39	16	0
EXTAP	39	32	0
EXTAP	39	48	0
EXTAP	39	64	0
EXTAP	39	80	0
EXTAP	39	96	0
NMTAP	39	96	1
EXTAP	39	112	1
EXTAP	39	128	1
EXTAP	39	144	1
EXTAP	39	160	1
EXTAP	39	176	1
EXTAP	39	192	1
NMTAP	39	192	3
EXTAP	39	208	3
EXTAP	39	224	3
EXTAP	39	240	3
EXTAP	39	256	3
EXTAP	39	272	3
NMTAP	39	288	2
EXTAP	39	288	3
EXTAP	39	304	2
EXTAP	39	320	2
EXTAP	39	336	2
EXTAP	39	352	2
EXTAP	39	368	2
EXTAP	40	0	2
NMTAP	40	0	7
EXTAP	40	16	7
EXTAP	40	32	7
EXTAP	40	48	7
EXTAP	40	64	7
EXTAP	40	80	7
NMTAP	40	96	6
EXTAP	40	96	7
EXTAP	40	112	6
EXTAP	40	128	6
EXTAP	40	144	6
EXTAP	40	160	6
EXTAP	40	176	6
NMTAP	40	192	4
EXTAP	40	192	6
EXTAP	40	208	4
EXTAP	40	224	4
EXTAP	40	240	4
EXTAP	40	256	4
EXTAP	40	272	4
EXTAP	40	288	4
NMTAP	40	288	5
EXTAP	40	304	5
EXTAP	40	320	5
EXTAP	40	336	5
EXTAP	40	352	5
EXTAP	40	368	5
NMTAP	41	0	1
EXTAP	41	0	5
EXTAP	41	16	1
EXTAP	41	32	1
EXTAP	41	48	1
EXTAP	41	64	1
EXTAP	41	80	1
EXTAP	41	96	1
NMTAP	41	96	3
EXTAP	41	112	3
EXTAP	41	128	3
EXTAP	41	144	3
EXTAP	41	160	3
EXTAP	41	176	3
EXTAP	41	192	3
NMTAP	41	192	4
EXTAP	41	208	4
EXTAP	41	224	4
EXTAP	41	240	4
EXTAP	41	256	4
EXTAP	41	272	4
EXTAP	41	288	4
NMTAP	41	288	6
EXTAP	41	304	6
EXTAP	41	320	6
EXTAP	41	336	6
EXTAP	41	352	6
EXTAP	41	368	6
NMTAP	42	0	2
EXTAP	42	0	6
EXTAP	42	16	2
EXTAP	42	32	2
EXTAP	42	48	2
EXTAP	42	64	2
EXTAP	42	80	2
NMTAP	42	96	0
EXTAP	42	96	2
EXTAP	42	112	0
EXTAP	42	128	0
EXTAP	42	144	0
EXTAP	42	160	0
EXTAP	42	176	0
EXTAP	42	192	0
NMTAP	42	192	7
EXTAP	42	208	7
EXTAP	42	224	7
EXTAP	42	240	7
EXTAP	42	256	7
EXTAP	42	272	7
NMTAP	42	288	5
EXTAP	42	288	7
EXTAP	42	304	5
EXTAP	42	320	5
EXTAP	42	336	5
EXTAP	42	352	5
EXTAP	42	368	5
EXTAP	43	0	5
NMTAP	43	0	6
EXTAP	43	16	6
EXTAP	43	32	6
EXTAP	43	48	6
EXTAP	43	64	6
EXTAP	43	80	6
NMTAP	43	96	4
EXTAP	43	96	6
EXTAP	43	112	4
EXTAP	43	128	4
EXTAP	43	144	4
EXTAP	43	160	4
EXTAP	43	176	4
NMTAP	43	192	2
EXTAP	43	192	4
EXTAP	43	208	2
EXTAP	43	224	2
EXTAP	43	240	2
EXTAP	43	256	2
EXTAP	43	272	2
NMTAP	43	288	0
EXTAP	43	288	2
EXTAP	43	304	0
EXTAP	43	320	0
EXTAP	43	336	0
EXTAP	43	352	0
EXTAP	43	368	0
EXTAP	44	0	0
NMTAP	44	0	1
EXTAP	44	16	1
EXTAP	44	32	1
EXTAP	44	48	1
EXTAP	44	64	1
EXTAP	44	80	1
EXTAP	44	96	1
NMTAP	44	96	3
EXTAP	44	112	3
EXTAP	44	128	3
EXTAP	44	144	3
EXTAP	44	160	3
EXTAP	44	176	3
EXTAP	44	192	3
NMTAP	44	192	5
EXTAP	44	208	5
EXTAP	44	224	5
EXTAP	44	240	5
EXTAP	44	256	5
EXTAP	44	272	5
EXTAP	44	288	5
NMTAP	44	288	7
EXTAP	44	304	7
EXTAP	44	320	7
EXTAP	44	336	7
EXTAP	44	352	7
EXTAP	44	368	7
NMTAP	45	0	6
EXTAP	45	0	7
EXTAP	45	16	6
EXTAP	45	32	6
EXTAP	45	48	6
EXTAP	45	64	6
EXTAP	45	80	6
NMTAP	45	96	5
EXTAP	45	96	6
EXTAP	45	112	5
EXTAP	45	128	5
EXTAP	45	144	5
EXTAP	45	160	5
EXTAP	45	176	5
NMTAP	45	192	4
EXTAP	45	192	5
EXTAP	45	208	4
EXTAP	45	224	4
EXTAP	45	240	4
EXTAP	45	256	4
EXTAP	45	272	4
NMTAP	45	288	3
EXTAP	45	288	4
EXTAP	45	304	3
EXTAP	45	320	3
EXTAP	45	336	3
EXTAP	45	352	3
EXTAP	45	368	3
NMTAP	46	0	2
EXTAP	46	0	3
EXTAP	46	16	2
EXTAP	46	32	2
EXTAP	46	48	2
EXTAP	46	64	2
EXTAP	46	80	2
NMTAP	46	96	1
EXTAP	46	96	2
EXTAP	46	112	1
EXTAP	46	128	1
EXTAP	46	144	1
EXTAP	46	160	1
EXTAP	46	176	1
NMTAP	46	192	0
EXTAP	46	192	1
EXTAP	46	208	0
EXTAP	46	224	0
EXTAP	46	240	0
EXTAP	46	256	0
EXTAP	46	272	0
EXTAP	46	288	0
NMTAP	46	288	7
EXTAP	46	304	7
EXTAP	46	320	7
EXTAP	46	336	7
EXTAP	46	352	7
EXTAP	46	368	7
NMSTR	47	0	0
NMSI_	47	0	0	96	288	3
EXTAP	47	0	7
EXTAP	47	16	7
EXTAP	47	32	7
EXTAP	47	48	7
EXTAP	47	64	7
EXTAP	47	80	7
EXTAP	47	96	7
EXTAP	47	112	7
EXTAP	47	128	7
EXTAP	47	144	7
EXTAP	47	160	7
EXTAP	47	176	7
EXTAP	47	192	7
NMSTR	47	288	7
NMSI_	47	288	7	96	288	4
NMTAP	48	96	3
EXTAP	48	112	3
EXTAP	48	128	3
EXTAP	48	144	3
EXTAP	48	160	3
EXTAP	48	176	3
EXTAP	48	192	3
EXTAP	48	208	3
EXTAP	48	224	3
EXTAP	48	240	3
EXTAP	48	256	3
EXTAP	48	272	3
EXTAP	48	288	3
EXTAP	48	304	3
EXTAP	48	320	3
EXTAP	48	336	3
EXTAP	48	352	3
EXTAP	48	368	3
EXTAP	49	0	3
NMTAP	49	0	4
EXTAP	49	16	3
EXTAP	49	16	4
EXTAP	49	32	3
EXTAP	49	32	4
EXTAP	49	48	3
EXTAP	49	48	4
EXTAP	49	64	3
EXTAP	49	64	4
EXTAP	49	80	3
EXTAP	49	80	4
EXTAP	49	96	3
EXTAP	49	96	4
EXTAP	49	112	3
EXTAP	49	112	4
EXTAP	49	128	3
EXTAP	49	128	4
EXTAP	49	144	3
EXTAP	49	144	4
EXTAP	49	160	3
EXTAP	49	160	4
EXTAP	49	176	3
EXTAP	49	176	4
EXTAP	49	192	3
EXTAP	49	192	4
EXTAP	49	208	3
EXTAP	49	208	4
EXTAP	49	224	3
EXTAP	49	224	4
EXTAP	49	240	3
EXTAP	49	240	4
EXTAP	49	256	3
EXTAP	49	256	4
EXTAP	49	272	3
EXTAP	49	272	4
EXTAP	49	288	3
EXTAP	49	288	4
EXTAP	49	304	4
EXTAP	49	320	4
EXTAP	49	336	4
EXTAP	49	352	4
EXTAP	49	368	4
NMTAP	50	0	3
EXTAP	50	0	4
EXTAP	50	16	3
EXTAP	50	32	3
NMTAP	50	48	2
EXTAP	50	48	3
EXTAP	50	64	2
EXTAP	50	80	2
NMTAP	50	96	1
EXTAP	50	96	2
EXTAP	50	112	1
EXTAP	50	128	1
NMTAP	50	144	0
EXTAP	50	144	1
EXTAP	50	160	0
EXTAP	50	176	0
EXTAP	50	192	0
NMTAP	50	192	7
EXTAP	50	208	7
EXTAP	50	224	7
NMTAP	50	240	6
EXTAP	50	240	7
EXTAP	50	256	6
EXTAP	50	272	6
NMTAP	50	288	5
EXTAP	50	288	6
EXTAP	50	304	5
EXTAP	50	320	5
NMTAP	50	336	4
EXTAP	50	336	5
EXTAP	50	352	4
EXTAP	50	368	4
NMTAP	51	0	3
EXTAP	51	0	4
EXTAP	51	16	3
EXTAP	51	32	3
EXTAP	51	48	3
EXTAP	51	64	3
EXTAP	51	80	3
EXTAP	51	96	3
NMTAP	51	96	5
EXTAP	51	112	3
EXTAP	51	128	3
EXTAP	51	144	3
EXTAP	51	160	3
EXTAP	51	176	3
EXTAP	51	192	3
NMTAP	51	192	4
EXTAP	51	208	4
EXTAP	51	224	4
EXTAP	51	240	4
EXTAP	51	256	4
EXTAP	51	272	4
NMTAP	51	288	2
EXTAP	51	288	4
EXTAP	51	304	4
EXTAP	51	320	4
EXTAP	51	336	4
EXTAP	51	352	4
EXTAP	51	368	4
NMTAP	52	0	3
EXTAP	52	0	4
EXTAP	52	16	3
EXTAP	52	32	3
EXTAP	52	48	3
EXTAP	52	64	3
NMTAP	52	64	5
EXTAP	52	80	3
EXTAP	52	96	3
EXTAP	52	112	3
EXTAP	52	128	3
NMTAP	52	128	4
EXTAP	52	144	4
EXTAP	52	160	4
EXTAP	52	176	4
NMTAP	52	192	2
EXTAP	52	192	4
EXTAP	52	208	4
EXTAP	52	224	4
EXTAP	52	240	4
NMTAP	52	256	3
EXTAP	52	256	4
EXTAP	52	272	3
EXTAP	52	288	3
EXTAP	52	304	3
EXTAP	52	320	3
NMTAP	52	320	5
EXTAP	52	336	3
EXTAP	52	352	3
EXTAP	52	368	3
EXTAP	53	0	3
NMTAP	53	0	6
EXTAP	53	16	6
EXTAP	53	32	6
EXTAP	53	48	6
EXTAP	53	64	6
EXTAP	53	80	6
NMTAP	53	96	5
EXTAP	53	96	6
EXTAP	53	112	6
EXTAP	53	128	6
EXTAP	53	144	6
EXTAP	53	160	6
EXTAP	53	176	6
NMTAP	53	192	1
EXTAP	53	192	6
EXTAP	53	208	1
EXTAP	53	224	1
EXTAP	53	240	1
EXTAP	53	256	1
EXTAP	53	272	1
EXTAP	53	288	1
NMTAP	53	288	2
EXTAP	53	304	1
EXTAP	53	320	1
EXTAP	53	336	1
EXTAP	53	352	1
EXTAP	53	368	1
EXTAP	54	0	1
NMTAP	54	0	7
EXTAP	54	16	7
EXTAP	54	32	7
EXTAP	54	48	7
EXTAP	54	64	7
NMSTR	54	80	6
NMSI_	54	80	6	96	112	1
EXTAP	54	80	7
EXTAP	54	96	7
EXTAP	54	112	7
EXTAP	54	128	7
NMTAP	54	144	0
EXTAP	54	144	7
EXTAP	54	160	0
EXTAP	54	176	0
EXTAP	54	192	0
EXTAP	54	208	0
EXTAP	54	224	0
EXTAP	54	240	0
EXTAP	54	256	0
EXTAP	54	272	0
EXTAP	54	288	0
EXTAP	54	304	0
EXTAP	54	320	0
EXTAP	54	336	0
EXTAP	54	352	0
EXTAP	54	368	0
EXTAP	55	0	0
NMTAP	55	0	7
EXTAP	55	16	7
EXTAP	55	32	7
EXTAP	55	48	7
EXTAP	55	64	7
EXTAP	55	80	7
NMTAP	55	192	7
EXTAP	55	208	7
EXTAP	55	224	7
EXTAP	55	240	7
EXTAP	55	256	7
EXTAP	55	272	7
NMTAP	56	0	0
EXTAP	56	16	0
EXTAP	56	32	0
EXTAP	56	48	0
EXTAP	56	64	0
EXTAP	56	80	0
NMTAP	56	192	0
EXTAP	56	208	0
EXTAP	56	224	0
EXTAP	56	240	0
EXTAP	56	256	0
EXTAP	56	272	0
NMTAP	57	0	7
EXTAP	57	16	7
EXTAP	57	32	7
EXTAP	57	48	7
NMTAP	57	80	7
NMTAP	57	192	7
EXTAP	57	208	7
EXTAP	57	224	7
EXTAP	57	240	7
NMTAP	57	272	7
NMTAP	58	0	0
EXTAP	58	16	0
EXTAP	58	32	0
EXTAP	58	48	0
NMTAP	58	80	0
NMTAP	58	192	0
EXTAP	58	208	0
EXTAP	58	224	0
EXTAP	58	240	0
NMTAP	58	272	0

T_REC_TAP	187
T_REC_BRK	7
T_REC_XTP	1282
T_REC_BXX	0
T_REC_HLD	0
T_REC_XHO	0
T_REC_BHO	0
T_REC_BXH	0
T_REC_STR	7
T_REC_BST	0
T_REC_XST	0
T_REC_XBS	0
T_REC_TTP	0
T_REC_THO	0
T_REC_SLD	7
T_REC_BSL	0
T_REC_ALL	1490
T_NUM_TAP	1476
T_NUM_BRK	7
T_NUM_HLD	0
T_NUM_SLD	7
T_NUM_ALL	1490
T_JUDGE_TAP	1483
T_JUDGE_HLD	0
T_JUDGE_SLD	7
T_JUDGE_ALL	1490
TTM_EACHPAIRS	306
TTM_SCR_TAP	738000
TTM_SCR_BRK	18200
TTM_SCR_HLD	0
TTM_SCR_SLD	10500
TTM_SCR_ALL	766700
TTM_SCR_S	743050
TTM_SCR_SS	766000
TTM_RAT_ACV	10009

