VERSION	0.00.00	1.04.00
FES_MODE	0
BPM_DEF	190.000	190.000	190.000	190.000
MET_DEF	4	4
RESOLUTION	384
CLK_DEF	384
COMPATIBLE_CODE	MA2

BPM	0	0	190.000
MET	0	0	4	4

NMHLD	1	0	2	1344
NMTAP	1	192	3
NMHLD	2	0	3	768
NMTAP	2	192	4
NMHLD	3	0	4	576
NMTAP	3	192	5
NMHLD	4	0	5	192
BRTAP	4	192	3
NMHLD	5	0	5	1344
NMTAP	5	192	4
NMHLD	6	0	4	768
NMTAP	6	192	3
NMHLD	7	0	3	576
NMTAP	7	192	2
NMHLD	8	0	2	192
BRTAP	8	192	4
NMTAP	9	0	5
NMSTR	9	192	1
NMSI_	9	192	1	96	48	7
NMSTR	9	192	2
NMSI_	9	192	2	96	48	7
NMSTR	9	192	3
NMSI_	9	192	3	96	48	7
NMSI_	9	192	3	96	48	7
NMTAP	10	0	5
NMTAP	10	96	5
NMTAP	10	144	5
NMSTR	10	192	1
NMSI_	10	192	1	96	48	7
NMSTR	10	192	2
NMSI_	10	192	2	96	48	7
NMSTR	10	192	3
NMSI_	10	192	3	96	48	7
NMSI_	10	192	3	96	48	7
NMTAP	11	0	5
NMSTR	11	192	1
NMSI_	11	192	1	96	48	7
NMSTR	11	192	2
NMSI_	11	192	2	96	48	7
NMSTR	11	192	3
NMSI_	11	192	3	96	48	7
NMSI_	11	192	3	96	48	7
NMTAP	12	48	5
NMTAP	12	144	5
NMSTR	12	192	1
NMSI_	12	192	1	96	48	7
NMSTR	12	192	2
NMSI_	12	192	2	96	48	7
NMSTR	12	192	3
NMSI_	12	192	3	96	48	7
NMSI_	12	192	3	96	48	7
NMTAP	12	240	5
NMTAP	12	288	1
NMTAP	12	288	2
NMTAP	12	288	3
NMTAP	13	0	2
NMSTR	13	192	4
NMSI_	13	192	4	96	48	0
NMSI_	13	192	4	96	48	0
NMSTR	13	192	5
NMSI_	13	192	5	96	48	0
NMSTR	13	192	6
NMSI_	13	192	6	96	48	0
NMTAP	13	336	2
NMTAP	14	48	2
NMTAP	14	144	2
NMSTR	14	192	4
NMSI_	14	192	4	96	48	0
NMSI_	14	192	4	96	48	0
NMSTR	14	192	5
NMSI_	14	192	5	96	48	0
NMSTR	14	192	6
NMSI_	14	192	6	96	48	0
NMTAP	15	0	2
NMSTR	15	192	4
NMSI_	15	192	4	96	48	0
NMSI_	15	192	4	96	48	0
NMSTR	15	192	5
NMSI_	15	192	5	96	48	0
NMSTR	15	192	6
NMSI_	15	192	6	96	48	0
NMTAP	15	288	2
NMSTR	16	0	2
NMSCL	16	0	2	96	48	0
NMSTR	16	0	3
NMSUL	16	0	3	96	48	7
NMSTR	16	192	4
NMSUR	16	192	4	96	48	0
NMSTR	16	192	5
NMSCR	16	192	5	96	48	7
NMTAP	17	0	3
NMTAP	17	0	4
NMTAP	17	48	2
NMTAP	17	48	3
NMTAP	17	72	4
NMTAP	17	72	5
NMTAP	17	96	2
NMTAP	17	96	3
NMTAP	17	120	4
NMTAP	17	120	5
NMTAP	17	144	2
NMTAP	17	144	3
NMTAP	17	168	4
NMTAP	17	168	5
NMSTR	17	192	2
NMSI_	17	192	2	96	48	7
NMSTR	17	192	3
NMSI_	17	192	3	96	48	7
BRTAP	17	288	6
NMTAP	18	0	3
NMTAP	18	0	4
NMTAP	18	48	1
NMTAP	18	72	3
NMTAP	18	96	2
NMTAP	18	144	6
NMTAP	18	168	4
NMTAP	18	192	5
NMTAP	18	240	1
NMTAP	18	264	3
NMTAP	18	288	2
NMTAP	18	336	6
NMTAP	18	360	4
NMTAP	19	0	5
NMTAP	19	48	1
NMTAP	19	72	3
NMTAP	19	96	2
NMTAP	19	144	6
NMTAP	19	168	4
BRSTR	19	192	5
NMSCR	19	192	5	96	48	0
NMTAP	19	288	1
NMTAP	20	0	3
NMTAP	20	0	4
NMTAP	20	48	6
NMTAP	20	72	7
NMTAP	20	96	6
NMTAP	20	144	3
NMTAP	20	144	4
NMTAP	20	192	3
NMTAP	20	192	4
NMTAP	20	240	1
NMTAP	20	264	0
NMTAP	20	288	1
NMTAP	20	336	3
NMTAP	20	336	4
NMTAP	21	0	2
NMTAP	21	0	3
NMTAP	21	0	4
NMTAP	21	0	5
NMTAP	21	48	2
NMTAP	21	48	3
NMTAP	21	48	4
NMTAP	21	48	5
NMTAP	21	96	1
NMTAP	21	96	2
NMTAP	21	96	5
NMTAP	21	96	6
NMTAP	21	144	1
NMTAP	21	144	2
NMTAP	21	144	5
NMTAP	21	144	6
NMTAP	21	192	0
NMSTR	21	192	1
NMSI_	21	192	1	96	48	3
NMSI_	21	192	1	96	48	4
NMSTR	21	192	6
NMSI_	21	192	6	96	48	3
NMSI_	21	192	6	96	48	4
NMTAP	21	192	7
BRTAP	21	288	1
BRTAP	21	288	6
NMTAP	22	0	3
NMTAP	22	0	4
NMTAP	22	48	6
NMTAP	22	72	4
NMTAP	22	96	5
NMTAP	22	144	1
NMTAP	22	168	3
NMTAP	22	192	2
NMTAP	22	240	6
NMTAP	22	264	4
NMTAP	22	288	5
NMTAP	22	336	1
NMTAP	22	360	3
NMTAP	23	0	2
NMTAP	23	48	4
NMTAP	23	48	5
NMTAP	23	96	6
NMTAP	23	96	7
NMTAP	23	144	0
NMTAP	23	144	1
BRSTR	23	192	2
NMSCL	23	192	2	96	48	7
BRTAP	23	192	3
NMTAP	23	288	6
NMTAP	23	336	6
NMTAP	24	0	5
NMTAP	24	48	4
NMTAP	24	48	6
NMTAP	24	96	3
NMTAP	24	96	7
NMHLD	24	144	0	96
NMTAP	24	144	2
NMTAP	24	240	7
NMTAP	24	288	1
NMTAP	24	288	5
NMTAP	24	336	2
NMTAP	24	336	4
NMTAP	25	48	2
NMTAP	25	48	3
NMTAP	25	48	6
NMTAP	25	48	7
NMTAP	25	144	0
NMTAP	25	144	1
NMTAP	25	144	4
NMTAP	25	144	5
NMHLD	25	240	0	96
NMHLD	25	240	3	96
NMHLD	25	240	4	96
NMHLD	25	240	7	96
NMSTR	26	0	4
NMSF_	26	0	4	96	48	0
NMTAP	26	96	4
NMSTR	26	192	3
NMSF_	26	192	3	96	48	7
NMTAP	26	288	3
NMSTR	27	0	4
NMSF_	27	0	4	96	48	0
NMSF_	27	96	0	96	48	4
NMSF_	27	192	4	96	48	0
NMTAP	28	0	3
NMTAP	28	0	4
NMTAP	28	48	6
NMTAP	28	72	4
NMTAP	28	96	5
NMTAP	28	144	3
NMTAP	28	144	6
NMTAP	28	192	4
NMTAP	28	192	5
NMTAP	28	240	1
NMTAP	28	264	3
NMTAP	28	288	2
NMTAP	28	336	1
NMTAP	28	336	4
NMSTR	29	0	2
NMSI_	29	0	2	96	48	7
NMSUL	29	0	2	96	48	6
NMSTR	29	0	3
NMSI_	29	0	3	96	48	6
NMSUR	29	0	3	96	48	7
NMSTR	29	192	0
NMSI_	29	192	0	96	48	2
NMSI_	29	192	0	96	48	3
NMSI_	29	192	0	96	48	4
NMSI_	29	192	0	96	48	4
NMSI_	29	192	0	96	48	5
NMSI_	29	192	0	96	48	6
BRTAP	29	288	0
NMSTR	30	0	3
NMSF_	30	0	3	96	48	7
NMTAP	30	96	3
NMSTR	30	192	4
NMSF_	30	192	4	96	48	0
NMTAP	30	288	4
NMTAP	31	0	0
NMTAP	31	0	1
NMTAP	31	0	4
NMTAP	31	0	5
NMTAP	31	48	0
NMTAP	31	48	1
NMTAP	31	48	4
NMTAP	31	48	5
NMTAP	31	96	1
NMTAP	31	96	2
NMTAP	31	96	5
NMTAP	31	96	6
NMTAP	31	144	1
NMTAP	31	144	2
NMTAP	31	144	5
NMTAP	31	144	6
NMSTR	31	192	2
NMSI_	31	192	2	96	48	0
NMSTR	31	192	3
NMSI_	31	192	3	96	48	0
NMSTR	31	192	6
NMSI_	31	192	6	96	48	4
NMSTR	31	192	7
NMSI_	31	192	7	96	48	4
NMSTR	32	0	1
NMSI_	32	0	1	96	24	4
NMSI_	32	0	1	96	48	3
NMSTR	32	0	7
NMSI_	32	0	7	96	24	4
NMSI_	32	0	7	96	48	5
NMTAP	32	96	1
NMTAP	32	96	7
NMSTR	32	192	0
NMSI_	32	192	0	96	24	3
NMSI_	32	192	0	96	48	2
NMSTR	32	192	6
NMSI_	32	192	6	96	24	3
NMSI_	32	192	6	96	48	4
NMTAP	32	288	0
NMTAP	32	288	6
BRSTR	33	0	0
NMSTR	33	12	1
NMSTR	33	24	2
NMSTR	33	36	3
NMSTR	33	48	4
NMSTR	33	60	5
NMSTR	33	72	6
NMSTR	33	84	7
BRSTR	33	96	0
NMSTR	33	108	1
NMSTR	33	120	2
NMSTR	33	132	3
NMSTR	33	144	4
NMSTR	33	156	5
NMSTR	33	168	6
NMSTR	33	180	7
BRSTR	33	192	0
NMSI_	33	192	0	96	48	4
NMTAP	34	0	2
NMTAP	34	0	6
NMSTR	34	48	0
NMSI_	34	48	0	96	48	4
NMSTR	34	144	0
NMSCL	34	144	0	96	48	6
NMSCR	34	144	0	96	48	2
NMSTR	34	240	0
NMSI_	34	240	0	96	48	3
NMSI_	34	240	0	96	48	4
NMSI_	34	240	0	96	48	4
NMSI_	34	240	0	96	48	5
NMTAP	34	336	0
NMTAP	35	48	3
NMTAP	35	96	4
NMTAP	35	144	5
NMTAP	35	192	6
NMTAP	35	192	7
NMTAP	35	240	0
NMTAP	35	288	6
NMTAP	35	288	7
NMTAP	35	336	5
NMSTR	36	0	6
NMSI_	36	0	6	96	48	3
NMSI_	36	0	6	96	48	4
NMTAP	36	24	7
NMTAP	36	48	6
NMTAP	36	72	7
NMTAP	36	96	6
NMSTR	36	192	1
NMSI_	36	192	1	96	48	3
NMSI_	36	192	1	96	48	4
NMTAP	36	216	0
NMTAP	36	240	1
NMTAP	36	264	0
NMTAP	36	288	1
NMTAP	37	0	5
NMTAP	37	0	7
NMTAP	37	96	0
NMTAP	37	96	2
NMTAP	37	192	2
NMTAP	37	192	3
NMTAP	37	192	4
NMTAP	37	192	5
NMTAP	37	212	1
NMTAP	37	216	6
NMTAP	37	236	0
NMTAP	37	240	7
BRTAP	37	288	1
BRTAP	37	288	6
NMTAP	38	0	1
NMTAP	38	0	5
NMSTR	38	48	7
NMSI_	38	48	7	96	48	3
NMSTR	38	144	7
NMSCL	38	144	7	96	48	5
NMSCR	38	144	7	96	48	1
NMSTR	38	240	7
NMSI_	38	240	7	96	48	2
NMSI_	38	240	7	96	48	3
NMSI_	38	240	7	96	48	3
NMSI_	38	240	7	96	48	4
NMTAP	38	336	7
NMTAP	39	48	4
NMTAP	39	96	3
NMTAP	39	144	2
NMTAP	39	192	0
NMTAP	39	192	1
NMTAP	39	240	7
NMTAP	39	288	0
NMTAP	39	288	1
NMTAP	39	336	2
NMTAP	40	0	0
NMTAP	40	0	1
NMTAP	40	48	2
NMTAP	40	96	3
NMTAP	40	144	4
NMTAP	40	192	6
NMTAP	40	192	7
NMTAP	40	240	5
NMTAP	40	288	4
NMTAP	40	336	3
NMTAP	41	0	0
NMTAP	41	0	7
NMTAP	41	192	3
NMTAP	41	192	4
BRTAP	41	288	0
BRTAP	41	288	1
BRTAP	41	288	6
BRTAP	41	288	7
NMTAP	42	0	3
NMSTR	42	0	7
NMSCL	42	0	7	96	48	4
NMTAP	42	96	3
NMSTR	42	96	7
NMSCR	42	96	7	96	48	2
NMTAP	42	192	3
NMSTR	42	192	7
NMSI_	42	192	7	96	48	4
NMTAP	42	288	3
NMSTR	42	288	7
NMSI_	42	288	7	96	48	2
NMTAP	43	0	3
NMSTR	43	0	7
NMSLL	43	0	7	96	64	3
NMTAP	43	96	3
NMSTR	43	96	7
NMSLR	43	96	7	96	64	3
NMTAP	43	192	4
NMTAP	43	192	7
NMTAP	43	240	5
NMTAP	43	288	6
NMTAP	43	336	7
NMSTR	44	0	0
NMSI_	44	0	0	96	48	4
NMSTR	44	0	1
NMSI_	44	0	1	96	48	3
NMSTR	44	96	0
NMSI_	44	96	0	96	48	6
NMSTR	44	96	1
NMSI_	44	96	1	96	48	5
NMSTR	44	192	0
NMSI_	44	192	0	96	48	4
NMSTR	44	192	1
NMSI_	44	192	1	96	48	3
NMSTR	44	288	0
NMSI_	44	288	0	96	48	6
NMSTR	44	288	1
NMSI_	44	288	1	96	48	5
NMTAP	45	0	0
NMTAP	45	0	1
NMTAP	45	96	3
NMTAP	45	144	3
NMTAP	45	192	4
NMTAP	45	240	1
NMTAP	45	240	7
NMTAP	45	288	3
NMTAP	45	336	0
NMTAP	45	336	6
NMSTR	46	0	0
NMSCR	46	0	0	96	48	3
NMTAP	46	0	4
NMSTR	46	96	0
NMSCL	46	96	0	96	48	5
NMTAP	46	96	4
NMSTR	46	192	0
NMSI_	46	192	0	96	48	3
NMTAP	46	192	4
NMSTR	46	288	0
NMSI_	46	288	0	96	48	5
NMTAP	46	288	4
NMSTR	47	0	0
NMSLR	47	0	0	96	64	4
NMTAP	47	0	4
NMSTR	47	96	0
NMSLL	47	96	0	96	64	4
NMTAP	47	96	4
NMTAP	47	192	0
NMTAP	47	192	3
NMTAP	47	240	2
NMTAP	47	288	1
NMTAP	47	336	0
NMTAP	48	0	6
NMTAP	48	0	7
NMTAP	48	48	5
NMTAP	48	96	3
NMTAP	48	96	4
NMTAP	48	144	2
NMTAP	48	192	0
NMTAP	48	192	1
NMTAP	48	240	2
NMTAP	48	288	3
NMTAP	48	288	4
NMTAP	48	336	5
NMTAP	49	0	0
NMTAP	49	0	1
NMTAP	49	0	6
NMTAP	49	0	7
NMTAP	49	192	3
NMTAP	49	192	4
BRTAP	49	288	0
BRTAP	49	288	1
BRTAP	49	288	2
BRTAP	49	288	5
BRTAP	49	288	6
BRTAP	49	288	7
NMSTR	50	0	0
NMSI_	50	0	0	96	48	3
NMSCR	50	0	0	96	48	3
NMTAP	50	0	4
NMSTR	50	96	0
NMSI_	50	96	0	96	48	5
NMSCL	50	96	0	96	48	5
NMTAP	50	96	4
NMSTR	50	192	0
NMSI_	50	192	0	96	48	3
NMSCR	50	192	0	96	48	3
NMTAP	50	192	4
NMSTR	50	288	0
NMSI_	50	288	0	96	48	5
NMSCL	50	288	0	96	48	5
NMTAP	50	288	4
NMSTR	51	0	0
NMSI_	51	0	0	96	48	3
NMSCR	51	0	0	96	48	3
NMTAP	51	0	4
NMSTR	51	96	0
NMSI_	51	96	0	96	48	5
NMSCL	51	96	0	96	48	5
NMTAP	51	96	4
NMTAP	51	192	0
NMTAP	51	192	3
NMTAP	51	240	2
NMTAP	51	288	1
NMTAP	51	336	0
NMSTR	52	0	0
NMSI_	52	0	0	96	48	5
NMSTR	52	0	1
NMSI_	52	0	1	96	48	5
NMSTR	52	0	6
NMSCL	52	0	6	96	48	5
NMSTR	52	0	7
NMSI_	52	0	7	96	48	5
NMSTR	52	96	0
NMSI_	52	96	0	96	48	3
NMSTR	52	96	1
NMSCR	52	96	1	96	48	3
NMSTR	52	96	6
NMSV_	52	96	6	96	48	3
NMSTR	52	96	7
NMSI_	52	96	7	96	48	3
NMSTR	52	192	0
NMSI_	52	192	0	96	48	5
NMSTR	52	192	1
NMSI_	52	192	1	96	48	5
NMSTR	52	192	6
NMSCL	52	192	6	96	48	5
NMSTR	52	192	7
NMSI_	52	192	7	96	48	5
NMSTR	52	288	0
NMSI_	52	288	0	96	48	3
NMSTR	52	288	1
NMSCR	52	288	1	96	48	3
NMSTR	52	288	6
NMSV_	52	288	6	96	48	3
NMSTR	52	288	7
NMSI_	52	288	7	96	48	3
NMTAP	53	0	0
NMTAP	53	0	1
NMTAP	53	0	6
NMTAP	53	0	7
NMTAP	53	96	2
NMTAP	53	96	4
NMTAP	53	144	2
NMTAP	53	144	4
NMTAP	53	192	3
NMTAP	53	240	0
NMTAP	53	240	6
NMTAP	53	288	4
NMTAP	53	336	1
NMTAP	53	336	7
NMTAP	54	0	3
NMSTR	54	0	7
NMSI_	54	0	7	96	48	4
NMSCL	54	0	7	96	48	4
NMTAP	54	96	3
NMSTR	54	96	7
NMSI_	54	96	7	96	48	2
NMSCR	54	96	7	96	48	2
NMTAP	54	192	3
NMSTR	54	192	7
NMSI_	54	192	7	96	48	4
NMSCL	54	192	7	96	48	4
NMTAP	54	288	3
NMSTR	54	288	7
NMSI_	54	288	7	96	48	2
NMSCR	54	288	7	96	48	2
NMTAP	55	0	3
NMSTR	55	0	7
NMSI_	55	0	7	96	48	4
NMSCL	55	0	7	96	48	4
NMTAP	55	96	3
NMSTR	55	96	7
NMSI_	55	96	7	96	48	2
NMSCR	55	96	7	96	48	2
NMTAP	55	192	3
NMTAP	55	192	7
NMTAP	55	240	4
NMTAP	55	288	5
NMTAP	55	336	6
NMTAP	56	0	7
NMTAP	56	24	0
NMTAP	56	48	6
NMTAP	56	72	1
NMTAP	56	96	7
NMTAP	56	120	0
NMTAP	56	144	6
NMTAP	56	168	1
NMTAP	56	192	7
NMTAP	56	204	6
NMTAP	56	216	5
NMTAP	56	228	4
NMTAP	56	240	3
NMTAP	56	252	2
NMTAP	56	264	1
NMTAP	56	276	0
NMTAP	56	288	7
NMTAP	56	300	6
NMTAP	56	312	5
NMTAP	56	324	4
NMTAP	56	336	3
NMTAP	56	348	2
NMTAP	56	360	1
NMTAP	56	372	0
BRTAP	57	0	7
NMTAP	57	96	2
NMTAP	57	128	3
NMTAP	57	160	1
NMTAP	57	192	5
NMTAP	57	224	4
NMTAP	57	256	6
NMTAP	57	288	0
NMTAP	57	288	1
NMTAP	57	288	4
NMTAP	57	288	5
NMTAP	57	308	6
NMTAP	57	312	2
NMTAP	57	332	7
NMTAP	57	336	3
NMTAP	57	356	0
NMTAP	57	360	4
BRTAP	58	0	1
BRTAP	58	0	5
NMTAP	58	96	6
NMTAP	58	144	4
NMHLD	58	192	7	96
NMHLD	58	288	0	96
NMHLD	59	0	3	384
NMTAP	59	96	1
NMTAP	59	192	2
NMTAP	59	288	3
NMTAP	60	0	2
NMTAP	60	96	1
NMTAP	60	144	3
NMHLD	60	192	0	96
NMHLD	60	288	7	96
NMHLD	61	0	4	384
NMTAP	61	96	6
NMTAP	61	192	5
NMTAP	61	288	4
NMTAP	62	0	5
NMTAP	62	96	6
NMTAP	62	144	4
NMHLD	62	192	7	96
NMHLD	62	288	1	96
NMHLD	63	0	5	96
NMTAP	63	96	2
NMTAP	63	96	3
NMHLD	63	192	2	96
NMTAP	63	288	4
NMTAP	63	288	5
NMHLD	64	0	5	96
NMHLD	64	0	6	96
NMTAP	64	96	3
NMTAP	64	96	4
NMHLD	64	192	1	96
NMHLD	64	192	2	96
NMTAP	64	288	3
NMTAP	64	288	4
NMTAP	65	0	0
NMTAP	65	0	7
NMSTR	65	96	0
NMSI_	65	96	0	96	48	4
NMSTR	65	96	1
NMSI_	65	96	1	96	48	4
NMSTR	65	96	6
NMSI_	65	96	6	96	48	3
NMSTR	65	96	7
NMSI_	65	96	7	96	48	3
NMTAP	65	192	0
NMTAP	65	192	1
NMTAP	65	192	6
NMTAP	65	192	7
BRTAP	66	0	2
BRTAP	66	0	5
NMTAP	66	96	1
NMTAP	66	144	3
NMHLD	66	192	0	96
NMHLD	66	288	7	96
NMHLD	67	0	4	384
NMHLD	67	0	5	384
NMTAP	67	96	6
NMTAP	67	192	5
NMTAP	67	288	4
NMTAP	68	0	5
NMTAP	68	96	6
NMTAP	68	144	4
NMHLD	68	192	7	96
NMHLD	68	288	0	96
NMHLD	69	0	2	384
NMHLD	69	0	3	384
NMTAP	69	96	1
NMTAP	69	192	2
NMTAP	69	288	3
NMTAP	70	0	2
NMTAP	70	96	1
NMTAP	70	144	3
NMHLD	70	192	0	96
NMHLD	70	288	6	96
NMHLD	71	0	4	384
NMHLD	71	0	5	384
NMTAP	71	96	5
NMTAP	71	192	4
NMTAP	71	288	5
NMHLD	72	0	6	192
NMHLD	72	0	7	192
NMTAP	72	96	0
NMTAP	72	192	5
NMTAP	72	288	0
NMTAP	72	288	7
NMTAP	72	336	0
NMTAP	72	336	7
NMTAP	73	48	0
NMTAP	73	96	0
NMTAP	73	144	1
NMTAP	73	192	2
NMTAP	73	192	3
NMTAP	73	240	1
NMTAP	73	288	4
NMTAP	73	288	5
NMTAP	73	336	6
NMSTR	74	0	3
NMSTR	74	0	4
NMSI_	74	0	4	96	240	0
NMSXL	74	0	4	96	240	0
NMSXR	74	0	4	96	240	0
NMSF_	74	0	4	96	240	0
NMTAP	75	0	1
NMTAP	75	0	6
NMTAP	75	48	3
NMTAP	75	72	4
NMTAP	75	96	3
NMTAP	75	144	3
NMTAP	75	144	4
NMTAP	75	192	5
NMTAP	75	192	6
NMTAP	75	288	1
NMTAP	75	288	2
NMSTR	76	0	3
NMSI_	76	0	3	96	240	7
NMSXL	76	0	3	96	240	7
NMSXR	76	0	3	96	240	7
NMSF_	76	0	3	96	240	7
NMTAP	77	0	1
NMTAP	77	0	6
NMTAP	77	48	3
NMTAP	77	72	4
NMTAP	77	96	3
NMTAP	77	120	4
NMTAP	77	144	3
NMTAP	77	168	4
NMTAP	77	192	2
NMTAP	77	192	3
BRTAP	77	288	7
BRTAP	77	312	7
BRTAP	77	336	7
BRTAP	77	360	7
BRTAP	78	0	7
NMTAP	78	72	4
NMTAP	78	72	6
NMTAP	78	144	1
NMHLD	78	144	3	144
NMHLD	78	144	4	144
BRTAP	78	240	0
BRTAP	78	288	0
NMTAP	79	0	0
NMTAP	79	0	7
NMTAP	79	72	1
NMTAP	79	72	3
NMHLD	79	144	3	144
NMHLD	79	144	4	144
NMTAP	79	144	6
BRTAP	79	240	7
BRTAP	79	288	7
NMTAP	80	0	0
NMTAP	80	0	7
NMTAP	80	72	4
NMTAP	80	72	6
NMTAP	80	144	1
NMHLD	80	144	3	144
NMHLD	80	144	4	144
BRTAP	80	240	0
BRTAP	80	288	0
NMTAP	81	0	0
NMTAP	81	0	7
NMTAP	81	72	1
NMTAP	81	72	2
NMTAP	81	144	3
NMTAP	81	144	4
NMTAP	81	144	6
BRTAP	81	192	7
BRTAP	81	240	3
BRTAP	81	264	4
BRTAP	81	288	3
BRTAP	81	312	4
BRTAP	81	336	3
BRTAP	81	360	4
NMHLD	82	0	3	96
NMTAP	82	48	0
NMHLD	82	96	4	96
NMTAP	82	144	7
NMHLD	82	192	3	96
NMTAP	82	240	0
NMHLD	82	288	4	96
NMTAP	82	336	7
NMHLD	83	0	3	96
NMTAP	83	48	0
NMTAP	83	48	7
NMHLD	83	96	4	96
NMTAP	83	144	0
NMTAP	83	144	7
NMHLD	83	192	3	96
NMTAP	83	240	0
NMTAP	83	240	7
NMHLD	83	288	4	96
NMTAP	83	336	0
NMTAP	83	336	7
NMTAP	84	0	3
NMTAP	84	0	7
NMTAP	84	48	3
NMTAP	84	48	7
NMTAP	84	96	2
NMTAP	84	96	6
NMTAP	84	144	2
NMTAP	84	144	6
NMTAP	84	192	1
NMTAP	84	192	5
NMTAP	84	240	1
NMTAP	84	240	5
NMTAP	84	288	0
NMTAP	84	288	4
NMTAP	84	336	0
NMTAP	84	336	4
NMTAP	85	0	1
NMTAP	85	24	6
NMTAP	85	48	1
NMTAP	85	72	6
NMTAP	85	96	1
NMTAP	85	120	6
NMTAP	85	144	1
NMTAP	85	168	6
NMTAP	85	192	1
NMTAP	85	192	2
NMTAP	85	216	5
NMTAP	85	216	6
NMTAP	85	240	1
NMTAP	85	240	2
NMTAP	85	264	5
NMTAP	85	264	6
NMTAP	85	288	1
NMTAP	85	288	2
NMTAP	85	312	5
NMTAP	85	312	6
NMTAP	85	336	1
NMTAP	85	336	2
NMTAP	85	360	5
NMTAP	85	360	6
NMSTR	86	0	0
NMSF_	86	0	0	96	1104	4
NMTAP	86	24	0
NMTAP	86	48	0
NMTAP	86	72	0
NMTAP	86	96	0
NMTAP	86	120	0
NMTAP	86	144	0
NMTAP	86	168	0
NMTAP	86	192	0
NMTAP	86	216	0
NMTAP	86	240	0
NMTAP	86	264	0
NMTAP	86	288	0
NMTAP	86	312	0
NMTAP	86	336	0
NMTAP	86	360	0
NMTAP	87	0	0
NMTAP	87	24	0
NMTAP	87	48	0
NMTAP	87	72	0
NMTAP	87	96	0
NMTAP	87	192	0
NMTAP	87	216	0
NMTAP	87	240	0
NMTAP	87	264	0
NMTAP	87	288	0
NMTAP	88	0	0
NMTAP	88	24	0
NMTAP	88	48	0
NMTAP	88	72	0
NMSTR	88	96	0
NMSI_	88	96	0	96	48	4
BRTAP	88	192	0
BRTAP	88	192	1
BRTAP	88	192	7
NMTAP	89	0	0
NMTAP	89	0	7
NMTAP	89	48	1
NMTAP	89	72	3
NMTAP	89	96	2
NMTAP	89	144	6
NMTAP	89	168	4
NMTAP	89	192	5
NMTAP	89	240	1
NMTAP	89	264	0
NMTAP	89	288	1
NMTAP	89	336	6
NMTAP	89	360	7
NMTAP	90	0	6
NMTAP	90	48	1
NMTAP	90	72	0
NMSTR	90	96	3
NMSI_	90	96	3	96	48	0
NMSI_	90	96	3	96	48	1
NMSI_	90	96	3	96	48	5
NMSI_	90	96	3	96	48	6
NMSI_	90	96	3	96	48	7
BRTAP	90	192	2
BRTAP	90	192	3
BRTAP	90	192	4
NMTAP	91	0	0
NMTAP	91	0	1
NMHLD	91	96	5	48
NMTAP	91	96	7
NMTAP	91	112	6
NMTAP	91	128	5
NMTAP	91	144	4
NMTAP	91	192	6
NMTAP	91	192	7
NMTAP	91	288	0
NMHLD	91	288	2	48
NMTAP	91	304	1
NMTAP	91	320	2
NMTAP	91	336	3
NMTAP	92	0	0
NMTAP	92	0	7
NMTAP	92	48	1
NMTAP	92	48	6
NMTAP	92	96	2
NMTAP	92	96	5
NMTAP	92	144	3
NMTAP	92	144	4
NMSTR	92	192	3
NMSI_	92	192	3	96	48	0
NMSI_	92	192	3	96	48	1
NMSI_	92	192	3	96	48	7
NMSCL	92	192	3	96	48	0
NMSCL	92	192	3	96	48	1
NMSV_	92	192	3	96	48	0
NMSTR	92	192	4
NMSI_	92	192	4	96	48	0
NMSI_	92	192	4	96	48	6
NMSI_	92	192	4	96	48	7
NMSCR	92	192	4	96	48	6
NMSCR	92	192	4	96	48	7
NMSV_	92	192	4	96	48	7
BRTAP	92	288	3
BRTAP	92	288	4
NMTAP	93	0	0
NMTAP	93	0	7
NMTAP	93	48	1
NMTAP	93	72	3
NMTAP	93	96	2
NMTAP	93	144	6
NMTAP	93	168	4
NMTAP	93	192	5
NMTAP	93	240	1
NMTAP	93	264	0
NMTAP	93	288	1
NMTAP	93	336	6
NMTAP	93	360	7
NMTAP	94	0	6
NMTAP	94	48	1
NMTAP	94	72	0
NMTAP	94	96	3
NMTAP	94	144	6
NMTAP	94	168	7
NMSTR	94	192	4
NMSI_	94	192	4	96	48	0
NMSI_	94	192	4	96	48	1
NMSI_	94	192	4	96	48	2
NMSI_	94	192	4	96	48	6
NMSI_	94	192	4	96	48	7
BRTAP	94	288	3
BRTAP	94	288	4
BRTAP	94	288	5
NMTAP	95	0	0
NMTAP	95	0	7
NMTAP	95	48	6
NMTAP	95	72	7
NMTAP	95	96	6
NMTAP	95	144	1
NMTAP	95	168	0
NMTAP	95	192	1
NMTAP	95	240	3
NMTAP	95	240	7
NMTAP	95	288	2
NMTAP	95	288	6
NMTAP	95	336	0
NMTAP	95	336	1
NMHLD	95	336	4	336
NMHLD	95	336	5	336
NMTAP	96	48	0
NMTAP	96	64	1
NMTAP	96	80	2
NMTAP	96	96	3
NMTAP	96	144	1
NMTAP	96	160	0
NMTAP	96	176	7
NMTAP	96	192	6
NMTAP	96	240	0
NMTAP	96	256	1
NMTAP	96	272	2
NMTAP	96	288	3
NMTAP	97	0	0
NMTAP	97	0	1
NMTAP	97	48	2
NMTAP	97	72	3
NMTAP	97	96	2
NMTAP	97	144	5
NMTAP	97	168	4
NMTAP	97	192	5
NMTAP	97	240	7
NMTAP	97	264	6
NMTAP	97	288	7
NMTAP	97	336	0
NMTAP	97	360	1
NMSTR	98	0	0
NMSCR	98	0	0	96	48	3
NMSTR	98	96	0
NMSCL	98	96	0	96	48	5
NMTAP	98	112	1
NMTAP	98	128	2
NMTAP	98	144	3
NMSTR	98	192	0
NMSI_	98	192	0	96	48	4
NMSSL	98	192	0	96	48	4
NMSSR	98	192	0	96	48	4
NMSF_	98	192	0	96	48	4
NMTAP	98	208	7
NMTAP	98	224	6
NMTAP	98	240	5
BRTAP	98	288	0
NMSTR	99	0	0
NMSCL	99	0	0	96	48	4
NMTAP	99	0	7
NMTAP	99	96	0
NMHLD	99	96	6	48
NMTAP	99	108	7
NMTAP	99	120	6
NMTAP	99	132	5
NMTAP	99	144	4
NMTAP	99	192	0
NMSTR	99	192	7
NMSCR	99	192	7	96	48	3
NMHLD	99	288	1	48
NMTAP	99	288	7
NMTAP	99	300	0
NMTAP	99	312	1
NMTAP	99	324	2
NMTAP	99	336	3
NMTAP	100	0	0
NMTAP	100	0	7
NMTAP	100	48	1
NMTAP	100	48	6
NMTAP	100	96	2
NMTAP	100	96	5
NMTAP	100	144	3
NMTAP	100	144	4
NMSTR	100	192	3
NMSI_	100	192	3	96	48	0
NMSI_	100	192	3	96	48	1
NMSI_	100	192	3	96	48	7
NMSCL	100	192	3	96	48	0
NMSCL	100	192	3	96	48	1
NMSV_	100	192	3	96	48	0
NMSF_	100	192	3	96	48	7
NMSTR	100	192	4
NMSI_	100	192	4	96	48	0
NMSI_	100	192	4	96	48	6
NMSI_	100	192	4	96	48	7
NMSCR	100	192	4	96	48	6
NMSCR	100	192	4	96	48	7
NMSV_	100	192	4	96	48	7
NMSF_	100	192	4	96	48	0
BRTAP	100	288	2
BRTAP	100	288	3
BRTAP	100	288	4
BRTAP	100	288	5
NMTAP	101	0	3
NMTAP	101	0	4
NMTAP	101	48	1
NMTAP	101	72	3
NMTAP	101	96	2
NMTAP	101	144	6
NMTAP	101	168	4
NMTAP	101	192	5
NMTAP	101	240	0
NMTAP	101	264	3
NMTAP	101	288	2
NMTAP	101	336	6
NMTAP	101	336	7
NMTAP	102	0	1
NMTAP	102	0	3
NMTAP	102	48	4
NMTAP	102	48	6
NMTAP	102	96	0
NMTAP	102	96	2
NMTAP	102	144	5
NMTAP	102	144	7
BRTAP	102	192	1
BRTAP	102	192	2
BRTAP	102	192	5
BRTAP	102	192	6
BRTAP	102	288	0
BRTAP	102	288	3
BRTAP	102	288	4
BRTAP	102	288	7
BRTAP	103	0	0
NMTAP	103	12	1
NMTAP	103	24	2
NMTAP	103	36	3
NMHLD	103	48	4	144
NMTAP	103	96	0
NMTAP	103	96	7
NMTAP	103	144	0
NMTAP	103	144	7
BRTAP	103	192	7
NMTAP	103	204	6
NMTAP	103	216	5
NMTAP	103	228	4
NMHLD	103	240	3	144
NMTAP	103	288	0
NMTAP	103	288	7
NMTAP	103	336	0
NMTAP	103	336	7
NMTAP	104	0	0
NMTAP	104	24	7
NMTAP	104	48	1
NMTAP	104	72	6
NMTAP	104	96	0
NMTAP	104	120	7
NMTAP	104	144	2
NMHLD	104	168	5	216
BRTAP	104	192	0
NMTAP	104	204	1
NMTAP	104	216	2
NMTAP	104	228	3
NMTAP	104	240	4
NMTAP	104	252	5
NMTAP	104	264	6
NMTAP	104	276	7
BRTAP	104	288	0
NMTAP	104	300	1
NMTAP	104	312	2
NMTAP	104	324	3
NMTAP	104	336	4
NMTAP	104	348	5
NMTAP	104	360	6
NMTAP	104	372	7
BRSTR	105	0	0
NMSCR	105	0	0	96	480	7
NMSTR	106	0	0
NMSCL	106	0	0	96	96	4
NMSTR	106	336	7
NMSSR	106	336	7	48	384	3
NMTAP	106	360	7
NMTAP	107	0	7
NMHLD	108	96	1	432
NMSI_	108	96	1	432	48	5
NMHLD	108	96	5	432

T_REC_TAP	712
T_REC_BRK	70
T_REC_XTP	0
T_REC_BXX	0
T_REC_HLD	66
T_REC_XHO	0
T_REC_BHO	0
T_REC_BXH	0
T_REC_STR	137
T_REC_BST	6
T_REC_XST	0
T_REC_XBS	0
T_REC_TTP	0
T_REC_THO	0
T_REC_SLD	210
T_REC_BSL	0
T_REC_ALL	1201
T_NUM_TAP	849
T_NUM_BRK	76
T_NUM_HLD	66
T_NUM_SLD	210
T_NUM_ALL	1201
T_JUDGE_TAP	925
T_JUDGE_HLD	319
T_JUDGE_SLD	210
T_JUDGE_ALL	1454
TTM_EACHPAIRS	223
TTM_SCR_TAP	424500
TTM_SCR_BRK	197600
TTM_SCR_HLD	66000
TTM_SCR_SLD	315000
TTM_SCR_ALL	1003100
TTM_SCR_S	965650
TTM_SCR_SS	995500
TTM_RAT_ACV	10076

