VERSION	0.00.00	1.04.00
FES_MODE	1
BPM_DEF	138.000	138.000	138.000	138.000
MET_DEF	4	4
RESOLUTION	384
CLK_DEF	384
COMPATIBLE_CODE	MA2

BPM	0	0	138.000
MET	0	0	4	4

NMHLD	2	0	4	192
NMHLD	2	192	3	96
NMHLD	3	0	7	120
NMHLD	3	72	0	48
NMHLD	3	144	1	48
NMHLD	3	144	6	48
NMHLD	3	240	0	24
NMHLD	3	240	7	24
NMHLD	3	288	1	24
NMHLD	3	288	6	24
NMHLD	3	336	2	24
NMHLD	3	336	5	24
NMHLD	4	0	1	168
NMHLD	4	96	5	72
NMHLD	4	192	2	96
NMHLD	4	192	6	96
NMHLD	5	0	6	168
NMHLD	5	96	2	72
NMHLD	5	192	1	96
NMHLD	5	192	5	96
NMHLD	6	0	5	72
NMHLD	6	72	4	72
NMHLD	6	144	3	96
NMHLD	6	240	4	48
NMHLD	6	288	3	48
NMHLD	6	336	4	48
NMHLD	7	0	3	48
NMHLD	7	48	2	72
NMHLD	7	96	3	24
NMHLD	7	168	1	72
NMHLD	7	168	4	120
NMHLD	7	336	0	96
NMHLD	8	48	1	48
NMHLD	8	96	2	24
NMHLD	8	120	3	48
NMHLD	8	168	4	72
NMHLD	8	240	5	48
NMHLD	8	288	6	48
NMHLD	8	336	7	240
NMHLD	9	48	3	240
NMHLD	10	48	2	48
NMHLD	10	96	3	24
NMHLD	10	120	4	48
NMHLD	10	168	5	72
NMHLD	10	240	4	96
NMHLD	10	336	3	48
NMHLD	11	0	0	48
NMHLD	11	48	3	48
NMHLD	11	96	0	24
NMHLD	11	120	3	48
NMHLD	11	168	0	120
NMHLD	11	336	1	96
NMHLD	11	336	5	96
NMHLD	12	96	2	48
NMHLD	12	96	6	48
NMHLD	12	192	1	48
NMHLD	12	192	5	48
NMHLD	12	288	7	144
NMHLD	13	48	5	240
NMHLD	13	96	2	192
NMHLD	14	0	1	24
NMHLD	14	0	5	72
NMHLD	14	48	1	120
NMHLD	14	96	5	24
NMHLD	14	144	5	120
NMHLD	14	192	1	24
NMHLD	14	240	1	120
NMHLD	14	288	5	24
NMHLD	14	336	5	120
NMHLD	15	0	1	24
NMHLD	15	48	1	120
NMHLD	15	96	5	24
NMHLD	15	144	5	120
NMHLD	15	192	1	24
NMHLD	15	240	1	120
NMHLD	15	288	5	24
NMHLD	15	336	5	120
NMHLD	16	0	2	24
NMHLD	16	48	2	120
NMHLD	16	96	6	24
NMHLD	16	144	6	120
NMHLD	16	192	2	24
NMHLD	16	240	2	120
NMHLD	16	288	6	24
NMHLD	16	336	6	120
NMHLD	17	0	2	24
NMHLD	17	48	2	120
NMHLD	17	96	6	24
NMHLD	17	144	6	120
NMHLD	17	192	2	24
NMHLD	17	240	2	120
NMHLD	17	288	6	24
NMHLD	17	336	6	120
NMHLD	18	0	1	24
NMHLD	18	48	0	120
NMHLD	18	96	5	24
NMHLD	18	144	4	120
NMHLD	18	192	1	24
NMHLD	18	240	2	120
NMHLD	18	288	5	24
NMHLD	18	336	6	120
NMHLD	19	0	3	24
NMHLD	19	48	4	120
NMHLD	19	96	7	24
NMHLD	19	144	0	120
NMHLD	19	192	3	24
NMHLD	19	240	2	120
NMHLD	19	288	7	24
NMHLD	19	336	6	120
NMHLD	20	0	1	24
NMHLD	20	48	0	120
NMHLD	20	96	5	24
NMHLD	20	144	4	120
NMHLD	20	192	1	24
NMHLD	20	240	2	120
NMHLD	20	288	5	24
NMHLD	20	336	6	336
NMHLD	21	0	1	288
NMHLD	22	0	0	72
NMHLD	22	0	5	72
NMHLD	22	96	1	24
NMHLD	22	96	5	24
NMHLD	22	144	2	120
NMHLD	22	144	5	24
NMHLD	22	192	5	72
NMHLD	22	288	1	24
NMHLD	22	288	5	24
NMHLD	22	336	1	72
NMHLD	22	336	5	24
NMHLD	23	0	5	72
NMHLD	23	48	0	24
NMHLD	23	96	0	24
NMHLD	23	96	5	24
NMHLD	23	144	0	24
NMHLD	23	144	5	24
NMHLD	23	192	0	24
NMHLD	23	192	5	72
BRTAP	23	240	7
NMHLD	23	288	5	24
BRTAP	23	288	7
NMHLD	23	336	5	24
NMHLD	24	0	0	72
NMHLD	24	0	4	72
NMHLD	24	96	1	24
NMHLD	24	96	4	24
NMHLD	24	144	2	72
NMHLD	24	144	4	24
NMHLD	24	192	4	72
NMHLD	24	240	1	24
NMHLD	24	288	1	24
NMHLD	24	288	4	24
NMHLD	24	336	0	72
NMHLD	24	336	4	24
NMHLD	25	0	4	72
NMHLD	25	48	1	24
NMHLD	25	96	2	24
NMHLD	25	96	4	24
NMSTR	25	144	3
NMSCL	25	144	3	96	48	0
NMHLD	25	144	4	24
NMHLD	25	192	3	24
NMHLD	25	192	4	72
NMHLD	25	288	4	24
NMHLD	25	336	0	24
NMHLD	25	336	4	24
NMHLD	26	0	1	48
NMHLD	26	0	5	72
NMHLD	26	72	2	48
NMHLD	26	96	5	24
NMHLD	26	144	3	24
NMHLD	26	144	5	24
NMHLD	26	192	3	24
NMHLD	26	192	5	72
NMHLD	26	240	2	24
NMHLD	26	288	1	24
NMHLD	26	288	5	24
NMHLD	26	336	0	336
NMHLD	26	336	5	24
NMHLD	27	0	5	72
NMHLD	27	96	5	24
NMHLD	27	144	5	24
NMHLD	27	192	5	72
NMHLD	27	288	5	24
NMHLD	27	336	5	24
NMHLD	28	0	6	168
NMHLD	28	96	2	72
NMHLD	28	192	1	96
NMHLD	28	192	5	96
NMHLD	29	0	7	72
NMHLD	29	72	0	72
NMHLD	29	144	6	96
NMHLD	29	240	1	48
NMHLD	29	288	6	72
NMHLD	29	360	2	72
NMHLD	30	48	5	48
NMHLD	30	96	2	24
NMHLD	30	120	4	168
NMHLD	30	168	3	72
NMHLD	30	360	7	48
NMHLD	31	24	6	48
NMHLD	31	72	5	48
NMHLD	31	120	4	24
NMHLD	31	144	3	24
NMHLD	31	168	2	96
NMHLD	31	264	1	72
NMHLD	31	336	2	12
NMHLD	31	348	1	12
NMHLD	31	360	2	12
NMHLD	31	372	1	12
NMHLD	32	0	2	12
NMHLD	32	12	1	12
NMHLD	32	24	2	12
NMHLD	32	36	1	12
NMHLD	32	48	2	12
NMHLD	32	60	1	12
NMHLD	32	72	2	12
NMHLD	32	84	1	12
NMHLD	32	96	2	12
NMHLD	32	108	1	12
NMHLD	32	120	2	12
NMHLD	32	132	1	12
NMHLD	32	144	2	12
NMHLD	32	192	6	12
NMHLD	32	204	5	12
NMHLD	32	216	6	12
NMHLD	32	228	5	12
NMHLD	32	240	6	12
NMHLD	32	252	5	12
NMHLD	32	264	6	12
NMHLD	32	276	5	12
NMHLD	32	288	6	12
NMHLD	32	300	5	12
NMHLD	32	312	6	12
NMHLD	32	324	5	12
NMHLD	32	336	6	12
NMHLD	32	348	5	12
NMHLD	32	360	6	12
NMHLD	33	72	3	72
NMHLD	33	144	2	24
NMHLD	33	168	1	24
NMHLD	33	192	0	240
NMHLD	34	0	7	144
NMHLD	34	96	0	192
NMHLD	34	192	7	96
NMHLD	35	0	5	96
NMHLD	35	96	3	96
NMHLD	35	192	1	384
NMHLD	35	288	6	288
NMHLD	37	0	3	48
NMHLD	37	24	4	48
NMHLD	37	96	2	48
NMHLD	37	120	5	48
NMHLD	37	192	1	48
NMHLD	37	216	6	48
NMHLD	37	288	0	48
NMHLD	37	312	7	48
NMHLD	38	0	3	48
NMHLD	38	24	4	48
NMHLD	38	96	2	48
NMHLD	38	120	5	48
NMHLD	38	192	1	48
NMHLD	38	216	6	48
NMHLD	38	288	0	48
NMHLD	38	312	7	48
NMHLD	39	0	0	48
NMHLD	39	24	7	48
NMHLD	39	96	1	48
NMHLD	39	120	6	48
NMHLD	39	192	2	48
NMHLD	39	216	5	48
NMHLD	39	288	3	48
NMHLD	39	312	4	48
NMHLD	40	0	0	48
NMHLD	40	24	7	48
NMHLD	40	96	1	48
NMHLD	40	120	6	48
NMHLD	40	192	2	48
NMHLD	40	216	5	48
NMHLD	40	288	3	48
NMHLD	40	312	4	48
NMHLD	41	0	1	48
NMHLD	41	24	0	48
NMHLD	41	96	2	48
NMHLD	41	120	7	48
NMHLD	41	192	3	48
NMHLD	41	216	6	48
NMHLD	41	288	4	48
NMHLD	41	312	5	48
NMHLD	42	0	4	48
NMHLD	42	24	5	48
NMHLD	42	96	3	48
NMHLD	42	120	6	48
NMHLD	42	192	2	48
NMHLD	42	216	7	48
NMHLD	42	288	1	48
NMHLD	42	312	0	48
NMHLD	43	0	7	36
NMHLD	43	48	7	12
NMHLD	43	72	7	12
NMHLD	43	96	7	12
NMHLD	43	156	0	48
NMHLD	43	216	0	12
NMHLD	43	240	0	12
NMHLD	43	264	0	12
NMHLD	43	288	0	12
NMHLD	43	336	0	24
NMHLD	43	336	7	24
NMHLD	44	0	0	72
NMHLD	44	0	7	72
NMHLD	44	96	7	12
NMHLD	44	108	6	12
NMHLD	44	120	5	12
NMHLD	44	132	4	12
NMHLD	44	144	3	12
NMHLD	44	156	2	12
NMHLD	44	168	1	12
NMHLD	44	180	0	12
NMHLD	44	192	7	12
NMHLD	44	204	6	12
NMHLD	44	216	5	12
NMHLD	44	228	4	12
NMHLD	44	240	3	12
NMHLD	44	252	2	12
NMHLD	44	264	1	12
NMHLD	44	276	0	12
NMHLD	44	288	7	12
NMHLD	44	300	6	12
NMHLD	44	312	5	12
NMHLD	44	324	4	12
NMHLD	44	336	3	12
NMHLD	44	348	2	12
NMHLD	44	360	1	12
NMHLD	44	372	0	12
NMHLD	45	0	7	96
NMHLD	45	96	0	12
NMHLD	45	108	1	12
NMHLD	45	120	2	12
NMHLD	45	132	3	12
NMHLD	45	144	4	12
NMHLD	45	156	5	12
NMHLD	45	168	6	12
NMHLD	45	180	7	12
NMHLD	45	192	0	12
NMHLD	45	204	1	12
NMHLD	45	216	2	12
NMHLD	45	228	3	12
NMHLD	45	240	4	12
NMHLD	45	252	5	12
NMHLD	45	264	6	12
NMHLD	45	276	7	12
NMHLD	45	288	0	12
NMHLD	45	300	1	12
NMHLD	45	312	2	12
NMHLD	45	324	3	12
NMHLD	45	336	4	12
NMHLD	45	348	5	12
NMHLD	45	360	6	12
NMHLD	45	372	7	12
NMHLD	46	0	0	672
NMHLD	46	96	2	48
NMHLD	46	96	6	48
NMHLD	46	192	1	48
NMHLD	46	192	5	48
NMHLD	46	288	2	48
NMHLD	46	288	6	48
NMHLD	47	0	1	24
NMHLD	47	0	5	24
NMHLD	47	48	2	24
NMHLD	47	48	6	24
NMHLD	47	96	1	24
NMHLD	47	96	5	24
NMHLD	47	144	2	24
NMHLD	47	144	6	24
NMHLD	47	192	1	96
NMHLD	47	192	5	96
NMHLD	48	0	7	672
NMHLD	48	96	5	96
NMHLD	48	144	1	96
NMHLD	48	240	5	96
NMHLD	48	288	1	96
NMHLD	49	0	5	48
NMHLD	49	24	1	48
NMHLD	49	96	6	48
NMHLD	49	120	2	48
NMHLD	49	192	1	96
NMHLD	49	192	5	96
NMHLD	50	0	0	672
NMHLD	50	96	1	576
NMHLD	50	192	2	480
NMHLD	50	288	3	384
NMHLD	51	0	4	288
NMHLD	51	96	5	192
NMHLD	51	192	6	96
NMHLD	52	0	7	672
NMHLD	52	96	6	576
NMHLD	52	192	5	480
NMHLD	52	288	4	384
NMHLD	53	0	3	288
NMHLD	53	96	2	192
NMHLD	53	192	1	96
NMHLD	54	0	0	672
NMHLD	54	0	7	672
NMHLD	54	96	1	576
NMHLD	54	96	6	576
NMHLD	54	192	2	480
NMHLD	54	192	5	480
BRTAP	55	0	0
BRTAP	55	0	7
BRTAP	55	96	2
BRTAP	55	96	5
BRTAP	55	192	1
BRTAP	55	192	6

T_REC_TAP	0
T_REC_BRK	8
T_REC_XTP	0
T_REC_BXX	0
T_REC_HLD	402
T_REC_XHO	0
T_REC_BHO	0
T_REC_BXH	0
T_REC_STR	1
T_REC_BST	0
T_REC_XST	0
T_REC_XBS	0
T_REC_TTP	0
T_REC_THO	0
T_REC_SLD	1
T_REC_BSL	0
T_REC_ALL	412
T_NUM_TAP	1
T_NUM_BRK	8
T_NUM_HLD	402
T_NUM_SLD	1
T_NUM_ALL	412
T_JUDGE_TAP	9
T_JUDGE_HLD	786
T_JUDGE_SLD	1
T_JUDGE_ALL	796
TTM_EACHPAIRS	52
TTM_SCR_TAP	500
TTM_SCR_BRK	20800
TTM_SCR_HLD	402000
TTM_SCR_SLD	1500
TTM_SCR_ALL	424800
TTM_SCR_S	411300
TTM_SCR_SS	424000
TTM_RAT_ACV	10018

