VERSION	0.00.00	1.04.00
FES_MODE	1
BPM_DEF	195.000	195.000	195.000	195.000
MET_DEF	4	4
RESOLUTION	384
CLK_DEF	384
COMPATIBLE_CODE	MA2

BPM	0	0	195.000
MET	0	0	4	4

NMHLD	2	0	0	2208
NMHLD	3	0	7	1824
NMHLD	4	0	5	1440
NMHLD	5	0	4	1056
NMHLD	6	0	3	672
NMHLD	7	0	2	288
NMTAP	8	0	0
NMTAP	8	0	2
NMTAP	8	0	3
NMTAP	8	0	4
NMTAP	8	0	5
NMTAP	8	0	7
NMTAP	8	192	0
NMTAP	8	192	2
NMTAP	8	192	3
NMTAP	8	192	4
NMTAP	8	192	5
NMTAP	8	192	7
NMTAP	9	0	0
NMTAP	9	0	2
NMTAP	9	0	3
NMTAP	9	0	4
NMTAP	9	0	5
NMTAP	9	0	7
NMTAP	9	96	0
NMTAP	9	96	2
NMTAP	9	96	3
NMTAP	9	96	4
NMTAP	9	96	5
NMTAP	9	96	7
BRTAP	9	192	0
BRTAP	9	192	2
BRTAP	9	192	3
BRTAP	9	192	4
BRTAP	9	192	5
BRTAP	9	192	7
NMTAP	10	0	0
NMHLD	10	0	2	1440
NMHLD	10	0	3	1440
NMHLD	10	0	4	672
NMHLD	10	0	5	672
NMTAP	10	48	0
NMTAP	10	96	7
NMTAP	10	144	7
NMTAP	10	192	0
NMTAP	10	240	0
NMTAP	10	288	7
NMTAP	10	336	7
NMTAP	11	0	0
NMTAP	11	48	0
NMTAP	11	96	7
NMTAP	11	144	7
NMTAP	11	192	0
NMTAP	11	240	0
NMTAP	11	288	7
NMTAP	11	336	7
NMHLD	12	0	0	1440
NMTAP	12	0	5
NMHLD	12	0	7	1440
NMTAP	12	48	5
NMTAP	12	96	4
NMTAP	12	144	4
NMTAP	12	192	5
NMTAP	12	240	5
NMTAP	12	288	4
NMTAP	12	336	4
NMTAP	13	0	5
NMTAP	13	48	5
NMTAP	13	96	4
NMTAP	13	144	4
NMTAP	13	192	5
NMTAP	13	240	5
NMTAP	13	288	4
NMTAP	13	336	4
NMTAP	14	0	2
NMHLD	14	0	4	672
NMHLD	14	0	5	672
NMTAP	14	48	2
NMTAP	14	96	3
NMTAP	14	144	3
NMTAP	14	192	2
NMTAP	14	240	2
NMTAP	14	288	3
NMTAP	14	336	3
NMTAP	15	0	2
NMTAP	15	48	2
NMTAP	15	96	3
NMTAP	15	144	3
NMTAP	15	192	2
NMTAP	15	240	2
NMTAP	15	288	3
NMTAP	15	336	3
NMTAP	16	0	0
NMTAP	16	0	2
NMTAP	16	0	5
NMTAP	16	48	0
NMTAP	16	48	2
NMTAP	16	48	5
NMTAP	16	96	3
NMTAP	16	96	4
NMTAP	16	96	7
NMTAP	16	144	3
NMTAP	16	144	4
NMTAP	16	144	7
NMTAP	16	192	0
NMTAP	16	192	2
NMTAP	16	192	5
NMTAP	16	240	0
NMTAP	16	240	2
NMTAP	16	240	5
NMTAP	16	288	3
NMTAP	16	288	4
NMTAP	16	288	7
NMTAP	16	336	3
NMTAP	16	336	4
NMTAP	16	336	7
NMTAP	17	0	0
NMTAP	17	0	2
NMTAP	17	0	5
NMTAP	17	48	0
NMTAP	17	48	2
NMTAP	17	48	5
NMTAP	17	96	3
NMTAP	17	96	4
NMTAP	17	96	7
NMTAP	17	144	3
NMTAP	17	144	4
NMTAP	17	144	7
NMTAP	17	192	0
NMTAP	17	192	2
NMTAP	17	192	5
NMTAP	17	240	0
NMTAP	17	240	2
NMTAP	17	240	5
NMTAP	17	288	3
NMTAP	17	288	4
NMTAP	17	288	7
NMTAP	17	336	3
NMTAP	17	336	4
NMTAP	17	336	7
NMHLD	18	0	2	672
NMHLD	18	0	3	672
NMHLD	18	0	4	1440
NMHLD	18	0	5	1440
NMTAP	18	0	7
NMTAP	18	48	7
NMTAP	18	96	0
NMTAP	18	144	0
NMTAP	18	192	7
NMTAP	18	240	7
NMTAP	18	288	0
NMTAP	18	336	0
NMTAP	19	0	7
NMTAP	19	48	7
NMTAP	19	96	0
NMTAP	19	144	0
NMTAP	19	192	7
NMTAP	19	240	7
NMTAP	19	288	0
NMTAP	19	336	0
NMHLD	20	0	0	1440
NMTAP	20	0	2
NMHLD	20	0	7	1440
NMTAP	20	48	2
NMTAP	20	96	3
NMTAP	20	144	3
NMTAP	20	192	2
NMTAP	20	240	2
NMTAP	20	288	3
NMTAP	20	336	3
NMTAP	21	0	2
NMTAP	21	48	2
NMTAP	21	96	3
NMTAP	21	144	3
NMTAP	21	192	2
NMTAP	21	240	2
NMTAP	21	288	3
NMTAP	21	336	3
NMHLD	22	0	2	672
NMHLD	22	0	3	672
NMTAP	22	0	5
NMTAP	22	48	5
NMTAP	22	96	4
NMTAP	22	144	4
NMTAP	22	192	5
NMTAP	22	240	5
NMTAP	22	288	4
NMTAP	22	336	4
NMTAP	23	0	5
NMTAP	23	48	5
NMTAP	23	96	4
NMTAP	23	144	4
NMTAP	23	192	5
NMTAP	23	240	5
NMTAP	23	288	4
NMTAP	23	336	4
NMTAP	24	0	2
NMTAP	24	0	5
NMTAP	24	0	7
NMTAP	24	48	2
NMTAP	24	48	5
NMTAP	24	48	7
NMTAP	24	96	0
NMTAP	24	96	3
NMTAP	24	96	4
NMTAP	24	144	0
NMTAP	24	144	3
NMTAP	24	144	4
NMTAP	24	192	2
NMTAP	24	192	5
NMTAP	24	192	7
NMTAP	24	240	2
NMTAP	24	240	5
NMTAP	24	240	7
NMTAP	24	288	0
NMTAP	24	288	3
NMTAP	24	288	4
NMTAP	24	336	0
NMTAP	24	336	3
NMTAP	24	336	4
NMTAP	25	0	2
NMTAP	25	0	5
NMTAP	25	0	7
NMTAP	25	48	2
NMTAP	25	48	5
NMTAP	25	48	7
NMTAP	25	96	0
NMTAP	25	96	3
NMTAP	25	96	4
NMTAP	25	144	0
NMTAP	25	144	3
NMTAP	25	144	4
NMTAP	25	192	2
NMTAP	25	192	5
NMTAP	25	192	7
NMTAP	25	240	2
NMTAP	25	240	5
NMTAP	25	240	7
NMTAP	25	288	0
NMTAP	25	288	3
NMTAP	25	288	4
NMTAP	25	336	0
NMTAP	25	336	3
NMTAP	25	336	4
NMHLD	26	0	4	288
NMHLD	26	0	5	288
NMHLD	26	96	2	192
NMHLD	26	96	3	192
NMHLD	26	192	0	96
NMHLD	26	192	7	96
NMHLD	27	0	2	288
NMHLD	27	0	3	288
NMHLD	27	96	4	192
NMHLD	27	96	5	192
NMHLD	27	192	0	96
NMHLD	27	192	7	96
NMHLD	28	0	4	288
NMHLD	28	0	5	288
NMHLD	28	96	2	192
NMHLD	28	96	3	192
NMHLD	28	192	0	96
NMHLD	28	192	7	96
NMHLD	29	0	2	288
NMHLD	29	0	3	288
NMHLD	29	96	4	192
NMHLD	29	96	5	192
NMHLD	29	192	0	96
NMHLD	29	192	7	96
NMTAP	30	0	0
NMTAP	30	0	7
NMHLD	30	48	0	240
NMHLD	30	48	7	240
NMTAP	30	96	4
NMTAP	30	96	5
NMHLD	30	144	4	144
NMHLD	30	144	5	144
NMTAP	30	192	2
NMTAP	30	192	3
NMHLD	30	240	2	48
NMHLD	30	240	3	48
NMTAP	31	0	0
NMTAP	31	0	7
NMHLD	31	48	0	240
NMHLD	31	48	7	240
NMTAP	31	96	2
NMTAP	31	96	3
NMHLD	31	144	2	144
NMHLD	31	144	3	144
NMTAP	31	192	4
NMTAP	31	192	5
NMHLD	31	240	4	48
NMHLD	31	240	5	48
NMTAP	32	0	0
NMTAP	32	0	7
NMHLD	32	48	0	240
NMHLD	32	48	7	240
NMTAP	32	96	4
NMTAP	32	96	5
NMHLD	32	144	4	144
NMHLD	32	144	5	144
NMTAP	32	192	2
NMTAP	32	192	3
NMHLD	32	240	2	48
NMHLD	32	240	3	48
NMTAP	33	0	0
NMTAP	33	0	7
NMHLD	33	48	0	240
NMHLD	33	48	7	240
NMTAP	33	96	2
NMTAP	33	96	3
NMHLD	33	144	2	144
NMHLD	33	144	3	144
NMTAP	33	192	4
NMTAP	33	192	5
NMHLD	33	240	4	48
NMHLD	33	240	5	48
NMHLD	34	0	4	48
NMHLD	34	0	5	48
NMHLD	34	0	7	48
NMHLD	34	96	4	48
NMHLD	34	96	5	48
NMHLD	34	96	7	48
NMHLD	34	192	0	48
NMHLD	34	192	2	48
NMHLD	34	192	3	48
NMHLD	34	288	0	48
NMHLD	34	288	2	48
NMHLD	34	288	3	48
NMHLD	35	0	4	48
NMHLD	35	0	5	48
NMHLD	35	0	7	48
NMHLD	35	96	4	48
NMHLD	35	96	5	48
NMHLD	35	96	7	48
NMHLD	35	192	0	48
NMHLD	35	192	2	48
NMHLD	35	192	3	48
NMHLD	35	288	0	48
NMHLD	35	288	2	48
NMHLD	35	288	3	48
NMHLD	36	0	4	48
NMHLD	36	0	5	48
NMHLD	36	0	7	48
NMHLD	36	96	0	48
NMHLD	36	96	2	48
NMHLD	36	96	3	48
NMHLD	36	192	4	48
NMHLD	36	192	5	48
NMHLD	36	192	7	48
NMHLD	36	288	0	48
NMHLD	36	288	2	48
NMHLD	36	288	3	48
NMHLD	37	0	4	48
NMHLD	37	0	5	48
NMHLD	37	0	7	48
NMHLD	37	96	0	48
NMHLD	37	96	2	48
NMHLD	37	96	3	48
NMHLD	37	192	4	48
NMHLD	37	192	5	48
NMHLD	37	192	7	48
NMHLD	37	288	0	48
NMHLD	37	288	2	48
NMHLD	37	288	3	48
NMHLD	38	0	2	168
NMHLD	38	0	3	168
NMTAP	38	0	5
NMTAP	38	24	4
NMTAP	38	48	5
NMTAP	38	72	4
NMTAP	38	96	5
NMTAP	38	120	4
NMTAP	38	144	5
NMTAP	38	168	4
NMTAP	38	192	2
NMHLD	38	192	4	360
NMHLD	38	192	5	360
NMTAP	38	216	3
NMTAP	38	240	2
NMTAP	38	264	3
NMTAP	38	288	2
NMTAP	38	312	3
NMTAP	38	336	2
NMTAP	38	360	3
NMTAP	39	0	0
NMHLD	39	0	2	168
NMHLD	39	0	3	168
NMTAP	39	24	7
NMTAP	39	48	0
NMTAP	39	72	7
NMTAP	39	96	0
NMTAP	39	120	7
NMTAP	39	144	0
NMTAP	39	168	7
NMHLD	39	192	0	168
NMTAP	39	192	2
NMTAP	39	192	5
NMHLD	39	192	7	168
NMTAP	39	216	3
NMTAP	39	216	4
NMTAP	39	240	2
NMTAP	39	240	5
NMTAP	39	264	3
NMTAP	39	264	4
NMTAP	39	288	2
NMTAP	39	288	5
NMTAP	39	312	3
NMTAP	39	312	4
NMTAP	39	336	2
NMTAP	39	336	5
NMTAP	39	360	3
NMTAP	39	360	4
NMHLD	40	0	0	48
NMHLD	40	0	7	48
NMHLD	40	96	0	48
NMHLD	40	96	7	48
NMHLD	40	192	2	48
NMHLD	40	192	5	48
NMHLD	40	288	2	48
NMHLD	40	288	5	48
NMHLD	41	0	0	48
NMHLD	41	0	3	48
NMHLD	41	0	4	48
NMHLD	41	0	7	48
NMHLD	41	96	0	48
NMHLD	41	96	3	48
NMHLD	41	96	4	48
NMHLD	41	96	7	48
NMTAP	41	192	0
NMTAP	41	192	2
NMTAP	41	192	3
NMTAP	41	192	4
NMTAP	41	192	5
NMTAP	41	192	7
NMTAP	42	0	0
NMHLD	42	0	2	2976
NMHLD	42	0	3	1632
NMHLD	42	0	4	1440
NMHLD	42	0	5	1440
NMTAP	42	24	7
NMTAP	42	48	0
NMTAP	42	72	7
NMTAP	42	96	0
NMTAP	42	120	7
NMTAP	42	144	0
NMTAP	42	168	7
NMTAP	42	192	0
NMTAP	42	216	7
NMTAP	42	240	0
NMTAP	42	264	7
NMTAP	42	288	0
NMTAP	42	312	7
NMTAP	42	336	0
NMTAP	42	360	7
NMTAP	43	0	1
NMTAP	43	24	6
NMTAP	43	48	1
NMTAP	43	72	6
NMTAP	43	96	1
NMTAP	43	120	6
NMTAP	43	144	1
NMTAP	43	168	6
NMTAP	43	192	1
NMTAP	43	216	6
NMTAP	43	240	1
NMTAP	43	264	6
NMTAP	43	288	1
NMTAP	43	312	6
NMTAP	43	336	1
NMTAP	43	360	6
NMTAP	44	0	0
NMTAP	44	24	7
NMTAP	44	48	0
NMTAP	44	72	7
NMTAP	44	96	0
NMTAP	44	120	7
NMTAP	44	144	0
NMTAP	44	168	7
NMTAP	44	192	1
NMTAP	44	216	6
NMTAP	44	240	1
NMTAP	44	264	6
NMTAP	44	288	1
NMTAP	44	312	6
NMTAP	44	336	1
NMTAP	44	360	6
NMTAP	45	0	0
NMTAP	45	24	7
NMTAP	45	48	0
NMTAP	45	72	7
NMTAP	45	96	1
NMTAP	45	120	6
NMTAP	45	144	1
NMTAP	45	168	6
NMTAP	45	192	0
NMTAP	45	216	7
NMTAP	45	240	1
NMTAP	45	264	6
NMTAP	45	288	0
NMHLD	46	0	0	2976
NMTAP	46	0	5
NMHLD	46	0	7	2976
NMTAP	46	24	4
NMTAP	46	48	5
NMTAP	46	72	4
NMTAP	46	96	5
NMTAP	46	120	4
NMTAP	46	144	5
NMTAP	46	168	4
NMHLD	46	192	1	1248
NMTAP	46	192	5
NMTAP	46	216	4
NMTAP	46	240	5
NMTAP	46	264	4
NMTAP	46	288	5
NMTAP	46	312	4
NMTAP	46	336	5
NMTAP	46	360	4
NMTAP	47	0	6
NMTAP	47	24	3
NMTAP	47	48	6
NMTAP	47	72	3
NMTAP	47	96	6
NMTAP	47	120	3
NMTAP	47	144	6
NMTAP	47	168	3
NMTAP	47	192	6
NMTAP	47	216	3
NMTAP	47	240	6
NMTAP	47	264	3
NMTAP	47	288	6
NMTAP	47	312	3
NMTAP	47	336	6
NMTAP	47	360	3
NMTAP	48	0	5
NMTAP	48	24	4
NMTAP	48	48	5
NMTAP	48	72	4
NMTAP	48	96	5
NMTAP	48	120	4
NMTAP	48	144	5
NMTAP	48	168	4
NMTAP	48	192	6
NMTAP	48	216	3
NMTAP	48	240	6
NMTAP	48	264	3
NMTAP	48	288	6
NMTAP	48	312	3
NMTAP	48	336	6
NMTAP	48	360	3
NMTAP	49	0	5
NMTAP	49	24	4
NMTAP	49	48	5
NMTAP	49	72	4
NMTAP	49	96	6
NMTAP	49	120	3
NMTAP	49	144	6
NMTAP	49	168	3
NMTAP	49	192	5
NMTAP	49	216	4
NMTAP	49	240	6
NMTAP	49	264	3
NMTAP	49	288	5
NMTAP	50	0	2
NMHLD	50	0	4	96
NMHLD	50	0	5	1440
NMTAP	50	24	3
NMTAP	50	48	2
NMTAP	50	72	3
NMTAP	50	96	2
NMTAP	50	120	3
NMTAP	50	144	2
NMTAP	50	168	3
NMTAP	50	192	2
NMHLD	50	192	6	1248
NMTAP	50	216	3
NMTAP	50	240	2
NMTAP	50	264	3
NMTAP	50	288	2
NMTAP	50	312	3
NMTAP	50	336	2
NMTAP	50	360	3
NMTAP	51	0	1
NMTAP	51	24	4
NMTAP	51	48	1
NMTAP	51	72	4
NMTAP	51	96	1
NMTAP	51	120	4
NMTAP	51	144	1
NMTAP	51	168	4
NMTAP	51	192	1
NMTAP	51	216	4
NMTAP	51	240	1
NMTAP	51	264	4
NMTAP	51	288	1
NMTAP	51	312	4
NMTAP	51	336	1
NMTAP	51	360	4
NMTAP	52	0	2
NMTAP	52	24	3
NMTAP	52	48	2
NMTAP	52	72	3
NMTAP	52	96	2
NMTAP	52	120	3
NMTAP	52	144	2
NMTAP	52	168	3
NMTAP	52	192	1
NMTAP	52	216	4
NMTAP	52	240	1
NMTAP	52	264	4
NMTAP	52	288	1
NMTAP	52	312	4
NMTAP	52	336	1
NMTAP	52	360	4
NMTAP	53	0	2
NMTAP	53	24	3
NMTAP	53	48	2
NMTAP	53	72	3
NMTAP	53	96	1
NMTAP	53	120	4
NMTAP	53	144	1
NMTAP	53	168	4
NMTAP	53	192	2
NMTAP	53	216	3
NMTAP	53	240	1
NMTAP	53	264	4
NMTAP	53	288	2
NMTAP	54	0	0
NMTAP	54	0	2
NMTAP	54	0	3
NMTAP	54	0	4
NMTAP	54	0	5
NMTAP	54	0	7
NMTAP	54	96	0
NMTAP	54	96	2
NMTAP	54	96	3
NMTAP	54	96	4
NMTAP	54	96	5
NMTAP	54	96	7
NMTAP	54	192	0
NMTAP	54	192	2
NMTAP	54	192	3
NMTAP	54	192	4
NMTAP	54	192	5
NMTAP	54	192	7
NMTAP	54	288	0
NMTAP	54	288	2
NMTAP	54	288	3
NMTAP	54	288	4
NMTAP	54	288	5
NMTAP	54	288	7
NMTAP	55	0	0
NMTAP	55	0	2
NMTAP	55	0	3
NMTAP	55	0	4
NMTAP	55	0	5
NMTAP	55	0	7
NMTAP	55	48	0
NMTAP	55	48	2
NMTAP	55	48	3
NMTAP	55	48	4
NMTAP	55	48	5
NMTAP	55	48	7
NMTAP	55	96	0
NMTAP	55	96	2
NMTAP	55	96	3
NMTAP	55	96	4
NMTAP	55	96	5
NMTAP	55	96	7
NMTAP	55	144	0
NMTAP	55	144	2
NMTAP	55	144	3
NMTAP	55	144	4
NMTAP	55	144	5
NMTAP	55	144	7
NMTAP	55	192	0
NMTAP	55	192	2
NMTAP	55	192	3
NMTAP	55	192	4
NMTAP	55	192	5
NMTAP	55	192	7
NMTAP	55	288	0
NMTAP	55	288	2
NMTAP	55	288	3
NMTAP	55	288	4
NMTAP	55	288	5
NMTAP	55	288	7
NMHLD	56	0	0	96
NMHLD	56	0	2	96
NMHLD	56	0	3	96
NMHLD	56	0	4	96
NMHLD	56	0	5	96
NMHLD	56	0	7	96
NMHLD	56	192	0	96
NMHLD	56	192	2	96
NMHLD	56	192	3	96
NMHLD	56	192	4	96
NMHLD	56	192	5	96
NMHLD	56	192	7	96
BRTAP	57	0	0
BRTAP	57	0	2
BRTAP	57	0	3
BRTAP	57	0	4
BRTAP	57	0	5
BRTAP	57	0	7
BRTAP	57	96	0
BRTAP	57	96	2
BRTAP	57	96	3
BRTAP	57	96	4
BRTAP	57	96	5
BRTAP	57	96	7
BRTAP	57	192	0
BRTAP	57	192	2
BRTAP	57	192	3
BRTAP	57	192	4
BRTAP	57	192	5
BRTAP	57	192	7
NMHLD	58	0	0	2208
NMHLD	58	0	2	672
NMTAP	58	0	3
NMTAP	58	0	4
NMHLD	58	0	5	2208
NMHLD	58	0	7	672
NMTAP	58	96	3
NMTAP	58	96	4
NMTAP	58	192	1
NMTAP	58	192	6
NMTAP	58	288	1
NMTAP	58	288	6
NMTAP	59	0	3
NMTAP	59	0	4
NMTAP	59	96	1
NMTAP	59	96	6
NMTAP	59	192	3
NMTAP	59	192	4
NMHLD	59	288	3	768
NMHLD	59	288	4	768
NMTAP	60	0	2
NMTAP	60	0	7
NMTAP	60	96	2
NMTAP	60	96	7
NMTAP	60	192	1
NMTAP	60	192	6
NMTAP	60	288	1
NMTAP	60	288	6
NMTAP	61	0	2
NMTAP	61	0	7
NMTAP	61	96	1
NMTAP	61	96	6
NMTAP	61	192	2
NMTAP	61	192	7
NMHLD	61	288	2	1536
NMHLD	61	288	7	1536
NMTAP	62	0	3
NMTAP	62	0	4
NMTAP	62	96	1
NMTAP	62	96	6
NMTAP	62	192	3
NMTAP	62	192	4
NMTAP	62	288	1
NMTAP	62	288	6
NMTAP	63	0	3
NMTAP	63	0	4
NMTAP	63	96	1
NMTAP	63	96	6
NMTAP	63	192	3
NMTAP	63	192	4
NMHLD	63	288	3	768
NMHLD	63	288	4	768
NMTAP	64	0	0
NMTAP	64	0	5
NMTAP	64	96	0
NMTAP	64	96	5
NMTAP	64	192	1
NMTAP	64	192	6
NMTAP	64	288	1
NMTAP	64	288	6
NMTAP	65	0	0
NMTAP	65	0	5
NMTAP	65	96	1
NMTAP	65	96	6
NMTAP	65	192	0
NMTAP	65	192	5
NMTAP	65	288	0
NMTAP	65	288	5
NMHLD	66	0	0	672
NMHLD	66	0	2	2208
NMTAP	66	0	3
NMTAP	66	0	4
NMHLD	66	0	5	672
NMHLD	66	0	7	2208
NMTAP	66	48	3
NMTAP	66	48	4
NMTAP	66	96	3
NMTAP	66	96	4
NMTAP	66	192	1
NMTAP	66	192	6
NMTAP	66	240	1
NMTAP	66	240	6
NMTAP	66	288	1
NMTAP	66	288	6
NMTAP	67	0	3
NMTAP	67	0	4
NMTAP	67	96	1
NMTAP	67	96	6
NMTAP	67	192	3
NMTAP	67	192	4
NMTAP	67	240	3
NMTAP	67	240	4
NMHLD	67	288	3	768
NMHLD	67	288	4	768
NMTAP	68	0	0
NMTAP	68	0	5
NMTAP	68	48	0
NMTAP	68	48	5
NMTAP	68	96	0
NMTAP	68	96	5
NMTAP	68	192	1
NMTAP	68	192	6
NMTAP	68	240	1
NMTAP	68	240	6
NMTAP	68	288	1
NMTAP	68	288	6
NMTAP	69	0	0
NMTAP	69	0	5
NMTAP	69	48	1
NMTAP	69	48	6
NMTAP	69	96	0
NMTAP	69	96	5
NMTAP	69	144	1
NMTAP	69	144	6
NMTAP	69	192	0
NMTAP	69	192	5
NMHLD	69	288	0	1440
NMHLD	69	288	5	1440
NMTAP	70	0	3
NMTAP	70	0	4
NMTAP	70	48	3
NMTAP	70	48	4
NMTAP	70	96	1
NMTAP	70	96	6
NMTAP	70	192	3
NMTAP	70	192	4
NMTAP	70	240	3
NMTAP	70	240	4
NMTAP	70	288	1
NMTAP	70	288	6
NMTAP	71	0	3
NMTAP	71	0	4
NMTAP	71	48	3
NMTAP	71	48	4
NMTAP	71	96	1
NMTAP	71	96	6
NMTAP	71	144	1
NMTAP	71	144	6
NMTAP	71	192	3
NMTAP	71	192	4
NMHLD	71	288	3	672
NMHLD	71	288	4	672
NMTAP	72	0	2
NMTAP	72	0	7
NMTAP	72	48	2
NMTAP	72	48	7
NMTAP	72	96	2
NMTAP	72	96	7
NMTAP	72	192	1
NMTAP	72	192	6
NMTAP	72	240	1
NMTAP	72	240	6
NMTAP	72	288	1
NMTAP	72	288	6
NMTAP	73	0	2
NMTAP	73	0	7
NMTAP	73	48	1
NMTAP	73	48	6
NMTAP	73	96	2
NMTAP	73	96	7
NMTAP	73	144	1
NMTAP	73	144	6
NMTAP	73	192	2
NMTAP	73	192	7
BRTAP	73	288	0
BRTAP	73	288	2
BRTAP	73	288	3
BRTAP	73	288	4
BRTAP	73	288	5
BRTAP	73	288	7
NMSTR	74	0	0
NMSI_	74	0	0	96	384	4
NMTAP	74	0	2
NMHLD	74	0	3	192
NMHLD	74	0	4	192
NMTAP	74	0	5
NMSTR	74	0	7
NMSI_	74	0	7	96	384	3
NMHLD	74	192	1	288
NMHLD	74	192	6	288
NMHLD	75	0	0	96
NMHLD	75	0	7	96
BRTAP	75	192	0
BRTAP	75	192	1
BRTAP	75	192	3
BRTAP	75	192	4
BRTAP	75	192	6
BRTAP	75	192	7
NMHLD	76	0	0	864
NMHLD	76	0	1	2208
NMTAP	76	0	3
NMHLD	76	0	6	672
NMHLD	76	0	7	672
NMTAP	76	24	4
NMTAP	76	48	3
NMTAP	76	72	4
NMTAP	76	96	3
NMTAP	76	120	4
NMTAP	76	144	3
NMTAP	76	168	4
NMTAP	76	192	2
NMTAP	76	216	5
NMTAP	76	240	2
NMTAP	76	264	5
NMTAP	76	288	2
NMTAP	76	312	5
NMTAP	76	336	2
NMTAP	76	360	5
NMTAP	77	0	3
NMTAP	77	24	4
NMTAP	77	48	3
NMTAP	77	72	4
NMTAP	77	96	2
NMTAP	77	120	5
NMTAP	77	144	2
NMTAP	77	168	5
NMTAP	77	192	3
NMTAP	77	216	4
NMTAP	77	240	2
NMTAP	77	264	5
NMTAP	77	288	3
NMTAP	77	312	4
NMTAP	77	336	3
NMHLD	78	0	3	2976
NMHLD	78	0	4	2976
NMTAP	78	0	6
NMTAP	78	24	7
NMTAP	78	48	6
NMTAP	78	72	7
NMTAP	78	96	6
NMTAP	78	120	7
NMTAP	78	144	6
NMTAP	78	168	7
NMHLD	78	192	2	1248
NMTAP	78	192	6
NMTAP	78	216	7
NMTAP	78	240	6
NMTAP	78	264	7
NMTAP	78	288	6
NMTAP	78	312	7
NMTAP	78	336	6
NMTAP	78	360	7
NMTAP	79	0	5
NMTAP	79	24	0
NMTAP	79	48	5
NMTAP	79	72	0
NMTAP	79	96	5
NMTAP	79	120	0
NMTAP	79	144	5
NMTAP	79	168	0
NMTAP	79	192	5
NMTAP	79	216	0
NMTAP	79	240	5
NMTAP	79	264	0
NMTAP	79	288	5
NMTAP	79	312	0
NMTAP	79	336	5
NMTAP	79	360	0
NMTAP	80	0	6
NMTAP	80	24	7
NMTAP	80	48	6
NMTAP	80	72	7
NMTAP	80	96	6
NMTAP	80	120	7
NMTAP	80	144	6
NMTAP	80	168	7
NMTAP	80	192	5
NMTAP	80	216	0
NMTAP	80	240	5
NMTAP	80	264	0
NMTAP	80	288	5
NMTAP	80	312	0
NMTAP	80	336	5
NMTAP	80	360	0
NMTAP	81	0	6
NMTAP	81	24	7
NMTAP	81	48	6
NMTAP	81	72	7
NMTAP	81	96	5
NMTAP	81	120	0
NMTAP	81	144	5
NMTAP	81	168	0
NMTAP	81	192	6
NMTAP	81	216	7
NMTAP	81	240	0
NMTAP	81	264	5
NMTAP	81	288	6
NMTAP	82	0	1
NMHLD	82	0	6	1440
NMHLD	82	0	7	96
NMTAP	82	24	0
NMTAP	82	48	1
NMTAP	82	72	0
NMTAP	82	96	1
NMTAP	82	120	0
NMTAP	82	144	1
NMTAP	82	168	0
NMTAP	82	192	1
NMHLD	82	192	5	1248
NMTAP	82	216	0
NMTAP	82	240	1
NMTAP	82	264	0
NMTAP	82	288	1
NMTAP	82	312	0
NMTAP	82	336	1
NMTAP	82	360	0
NMTAP	83	0	2
NMTAP	83	24	7
NMTAP	83	48	2
NMTAP	83	72	7
NMTAP	83	96	2
NMTAP	83	120	7
NMTAP	83	144	2
NMTAP	83	168	7
NMTAP	83	192	2
NMTAP	83	216	7
NMTAP	83	240	2
NMTAP	83	264	7
NMTAP	83	288	2
NMTAP	83	312	7
NMTAP	83	336	2
NMTAP	83	360	7
NMTAP	84	0	1
NMTAP	84	24	0
NMTAP	84	48	1
NMTAP	84	72	0
NMTAP	84	96	1
NMTAP	84	120	0
NMTAP	84	144	1
NMTAP	84	168	0
NMTAP	84	192	2
NMTAP	84	216	7
NMTAP	84	240	2
NMTAP	84	264	7
NMTAP	84	288	2
NMTAP	84	312	7
NMTAP	84	336	2
NMTAP	84	360	7
NMTAP	85	0	1
NMTAP	85	24	0
NMTAP	85	48	1
NMTAP	85	72	0
NMTAP	85	96	2
NMTAP	85	120	7
NMTAP	85	144	2
NMTAP	85	168	7
NMTAP	85	192	1
NMTAP	85	216	0
NMTAP	85	240	2
NMTAP	85	264	7
NMTAP	85	288	1
NMTAP	86	0	0
NMHLD	86	0	1	672
NMHLD	86	0	3	2208
NMHLD	86	0	4	672
NMHLD	86	0	6	2208
NMTAP	86	0	7
NMTAP	86	48	0
NMTAP	86	48	7
NMTAP	86	96	0
NMTAP	86	96	7
NMTAP	86	192	2
NMTAP	86	192	5
NMTAP	86	240	2
NMTAP	86	240	5
NMTAP	86	288	2
NMTAP	86	288	5
NMTAP	87	0	0
NMTAP	87	0	7
NMTAP	87	48	0
NMTAP	87	48	7
NMTAP	87	96	2
NMTAP	87	96	5
NMTAP	87	144	2
NMTAP	87	144	5
NMTAP	87	192	0
NMTAP	87	192	7
NMHLD	87	288	0	768
NMHLD	87	288	7	768
NMTAP	88	0	1
NMTAP	88	0	4
NMTAP	88	48	1
NMTAP	88	48	4
NMTAP	88	96	1
NMTAP	88	96	4
NMTAP	88	192	2
NMTAP	88	192	5
NMTAP	88	240	2
NMTAP	88	240	5
NMTAP	88	288	2
NMTAP	88	288	5
NMTAP	89	0	1
NMTAP	89	0	4
NMTAP	89	48	2
NMTAP	89	48	5
NMTAP	89	96	1
NMTAP	89	96	4
NMTAP	89	144	2
NMTAP	89	144	5
NMTAP	89	192	1
NMTAP	89	192	4
NMHLD	89	288	1	1536
NMHLD	89	288	4	1536
NMTAP	90	0	0
NMTAP	90	0	7
NMTAP	90	48	0
NMTAP	90	48	7
NMTAP	90	96	2
NMTAP	90	96	5
NMTAP	90	144	2
NMTAP	90	144	5
NMTAP	90	192	0
NMTAP	90	192	7
NMTAP	90	240	0
NMTAP	90	240	7
NMTAP	90	288	2
NMTAP	90	288	5
NMTAP	90	336	2
NMTAP	90	336	5
NMTAP	91	0	0
NMTAP	91	0	7
NMTAP	91	48	2
NMTAP	91	48	5
NMTAP	91	96	0
NMTAP	91	96	7
NMTAP	91	144	2
NMTAP	91	144	5
NMTAP	91	192	0
NMTAP	91	192	7
NMHLD	91	288	0	768
NMHLD	91	288	7	768
NMTAP	92	0	3
NMTAP	92	0	6
NMTAP	92	48	3
NMTAP	92	48	6
NMTAP	92	96	3
NMTAP	92	96	6
NMTAP	92	192	2
NMTAP	92	192	5
NMTAP	92	240	2
NMTAP	92	240	5
NMTAP	92	288	2
NMTAP	92	288	5
NMTAP	93	0	3
NMTAP	93	0	6
NMTAP	93	48	2
NMTAP	93	48	5
NMTAP	93	96	3
NMTAP	93	96	6
NMTAP	93	144	2
NMTAP	93	144	5
NMTAP	93	192	3
NMTAP	93	192	6
NMTAP	93	288	3
NMTAP	93	288	6
NMTAP	94	0	0
NMHLD	94	0	1	2208
NMHLD	94	0	3	672
NMHLD	94	0	4	2208
NMHLD	94	0	6	672
NMTAP	94	0	7
NMTAP	94	48	0
NMTAP	94	48	7
NMTAP	94	96	0
NMTAP	94	96	7
NMTAP	94	144	0
NMTAP	94	144	7
NMTAP	94	192	2
NMTAP	94	192	5
NMTAP	94	240	2
NMTAP	94	240	5
NMTAP	94	288	2
NMTAP	94	288	5
NMTAP	94	336	2
NMTAP	94	336	5
NMTAP	95	0	0
NMTAP	95	0	7
NMTAP	95	48	0
NMTAP	95	48	7
NMTAP	95	96	2
NMTAP	95	96	5
NMTAP	95	144	2
NMTAP	95	144	5
NMTAP	95	192	0
NMTAP	95	192	7
NMTAP	95	240	0
NMTAP	95	240	7
NMHLD	95	288	0	768
NMHLD	95	288	7	768
NMTAP	96	0	3
NMTAP	96	0	6
NMTAP	96	48	3
NMTAP	96	48	6
NMTAP	96	96	2
NMTAP	96	96	5
NMTAP	96	144	2
NMTAP	96	144	5
NMTAP	96	192	3
NMTAP	96	192	6
NMTAP	96	240	3
NMTAP	96	240	6
NMTAP	96	288	2
NMTAP	96	288	5
NMTAP	97	0	3
NMTAP	97	0	6
NMTAP	97	48	2
NMTAP	97	48	5
NMTAP	97	96	3
NMTAP	97	96	6
NMTAP	97	144	2
NMTAP	97	144	5
NMTAP	97	192	3
NMTAP	97	192	6
NMHLD	97	288	3	1440
NMHLD	97	288	6	1440
NMTAP	98	0	0
NMTAP	98	0	7
NMTAP	98	48	0
NMTAP	98	48	7
NMTAP	98	96	2
NMTAP	98	96	5
NMTAP	98	144	2
NMTAP	98	144	5
NMTAP	98	192	0
NMTAP	98	192	7
NMTAP	98	240	0
NMTAP	98	240	7
NMTAP	98	288	2
NMTAP	98	288	5
NMTAP	98	336	2
NMTAP	98	336	5
NMTAP	99	0	0
NMTAP	99	0	7
NMTAP	99	48	0
NMTAP	99	48	7
NMTAP	99	96	2
NMTAP	99	96	5
NMTAP	99	144	2
NMTAP	99	144	5
NMTAP	99	192	0
NMTAP	99	192	7
NMHLD	99	288	0	672
NMHLD	99	288	7	672
NMTAP	100	0	1
NMTAP	100	0	4
NMTAP	100	48	1
NMTAP	100	48	4
NMTAP	100	96	1
NMTAP	100	96	4
NMTAP	100	144	1
NMTAP	100	144	4
NMTAP	100	192	2
NMTAP	100	192	5
NMTAP	100	240	2
NMTAP	100	240	5
NMTAP	100	288	2
NMTAP	100	288	5
NMTAP	100	336	2
NMTAP	100	336	5
NMTAP	101	0	1
NMTAP	101	0	4
NMTAP	101	48	2
NMTAP	101	48	5
NMTAP	101	96	1
NMTAP	101	96	4
NMTAP	101	144	2
NMTAP	101	144	5
NMTAP	101	192	1
NMTAP	101	192	4
BRTAP	101	288	0
BRTAP	101	288	1
BRTAP	101	288	3
BRTAP	101	288	4
BRTAP	101	288	6
BRTAP	101	288	7
NMTAP	102	0	3
NMTAP	102	24	4
NMTAP	102	48	3
NMTAP	102	72	4
NMTAP	102	96	6
NMTAP	102	120	7
NMTAP	102	144	6
NMTAP	102	168	7
NMTAP	102	192	1
NMTAP	102	216	0
NMTAP	102	240	1
NMTAP	102	264	0
NMTAP	102	288	3
NMTAP	102	312	4
NMTAP	102	336	3
NMTAP	102	360	4
NMTAP	103	0	1
NMTAP	103	24	0
NMTAP	103	48	1
NMTAP	103	72	0
NMTAP	103	96	6
NMTAP	103	120	7
NMTAP	103	144	6
NMTAP	103	168	7
NMTAP	103	192	3
NMTAP	103	216	4
NMTAP	103	240	3
NMTAP	103	264	4
NMTAP	103	288	1
NMTAP	103	288	6
NMTAP	103	312	0
NMTAP	103	312	7
NMTAP	103	336	1
NMTAP	103	336	6
NMTAP	103	360	0
NMTAP	103	360	7
NMTAP	104	0	3
NMTAP	104	24	4
NMTAP	104	48	3
NMTAP	104	72	4
NMTAP	104	96	1
NMTAP	104	96	6
NMTAP	104	120	0
NMTAP	104	120	7
NMTAP	104	144	1
NMTAP	104	144	6
NMTAP	104	168	0
NMTAP	104	168	7
NMTAP	104	192	3
NMTAP	104	216	4
NMTAP	104	240	3
NMTAP	104	264	4
NMTAP	104	288	1
NMTAP	104	288	3
NMTAP	104	288	6
NMTAP	104	312	0
NMTAP	104	312	4
NMTAP	104	312	7
NMTAP	104	336	1
NMTAP	104	336	3
NMTAP	104	336	6
NMTAP	104	360	0
NMTAP	104	360	4
NMTAP	104	360	7
BRTAP	105	0	1
BRTAP	105	0	3
BRTAP	105	0	6
BRTAP	105	96	0
BRTAP	105	96	1
BRTAP	105	96	3
BRTAP	105	96	4
BRTAP	105	96	6
BRTAP	105	96	7

T_REC_TAP	1090
T_REC_BRK	51
T_REC_XTP	0
T_REC_BXX	0
T_REC_HLD	220
T_REC_XHO	0
T_REC_BHO	0
T_REC_BXH	0
T_REC_STR	2
T_REC_BST	0
T_REC_XST	0
T_REC_XBS	0
T_REC_TTP	0
T_REC_THO	0
T_REC_SLD	2
T_REC_BSL	0
T_REC_ALL	1365
T_NUM_TAP	1092
T_NUM_BRK	51
T_NUM_HLD	220
T_NUM_SLD	2
T_NUM_ALL	1365
T_JUDGE_TAP	1143
T_JUDGE_HLD	2468
T_JUDGE_SLD	2
T_JUDGE_ALL	3613
TTM_EACHPAIRS	341
TTM_SCR_TAP	546000
TTM_SCR_BRK	132600
TTM_SCR_HLD	220000
TTM_SCR_SLD	3000
TTM_SCR_ALL	901600
TTM_SCR_S	869650
TTM_SCR_SS	896500
TTM_RAT_ACV	10056

