VERSION	0.00.00	1.04.00
FES_MODE	0
BPM_DEF	140.000	140.000	178.000	140.000
MET_DEF	8	6
RESOLUTION	384
CLK_DEF	384
COMPATIBLE_CODE	MA2

BPM	0	0	140.000
BPM	43	192	141.892
BPM	43	288	145.692
BPM	44	0	149.492
BPM	44	96	153.292
BPM	44	192	157.092
BPM	44	288	160.893
BPM	45	0	164.693
BPM	45	96	168.493
BPM	45	192	172.293
BPM	45	288	176.094
BPM	46	0	178.000
MET	0	0	4	4

NMSTR	1	0	4
NMSCR	1	0	4	384	288	3
NMTAP	2	0	4
NMSTR	3	0	7
NMSCL	3	0	7	192	96	4
NMTAP	3	192	7
NMSTR	4	0	0
NMSCR	4	0	0	192	96	3
NMTAP	4	192	0
BRSTR	5	0	4
NMSI_	5	0	4	0	192	7
BRSTR	6	0	3
NMSI_	6	0	3	0	192	0
NMTAP	7	0	6
NMTAP	7	96	6
BRSTR	7	192	6
NMSI_	7	192	6	0	48	3
NMTAP	8	0	1
NMTAP	8	96	1
BRSTR	8	192	1
NMSI_	8	192	1	0	48	4
NMSTR	9	0	6
NMSI_	9	0	6	192	48	1
NMSTR	9	192	2
NMSI_	9	192	2	192	48	5
NMTAP	9	192	6
NMTAP	10	0	2
NMSTR	10	0	6
NMSI_	10	0	6	192	48	1
NMTAP	10	192	2
NMTAP	10	192	6
NMSTR	11	0	1
NMSI_	11	0	1	192	48	6
NMTAP	11	192	1
NMSTR	11	192	5
NMSI_	11	192	5	192	48	2
NMSTR	12	0	1
NMSI_	12	0	1	192	48	6
NMTAP	12	0	5
NMTAP	12	192	1
NMTAP	12	192	5
NMSTR	13	0	6
NMSI_	13	0	6	192	48	1
NMSTR	13	192	2
NMSI_	13	192	2	384	48	5
NMTAP	13	192	6
NMSTR	14	0	6
NMSI_	14	0	6	192	48	1
NMTAP	14	192	2
NMTAP	14	192	6
NMSTR	15	0	1
NMSI_	15	0	1	192	48	6
NMTAP	15	192	1
NMSTR	15	192	5
NMSI_	15	192	5	384	48	2
NMSTR	16	0	1
NMSI_	16	0	1	192	48	6
NMTAP	16	192	1
NMTAP	16	192	5
BRSTR	17	0	0
NMSI_	17	0	0	0	48	3
BRSTR	17	0	7
NMSI_	17	0	7	0	48	4
NMSTR	18	0	3
NMSI_	18	0	3	192	96	0
NMSTR	18	0	4
NMSI_	18	0	4	48	96	7
NMTAP	18	48	4
NMTAP	18	192	3
NMSTR	19	0	6
NMSI_	19	0	6	576	48	4
NMSTR	19	96	7
NMSI_	19	96	7	384	48	3
NMSTR	19	192	0
NMSI_	19	192	0	192	48	2
NMTAP	20	0	0
NMTAP	20	96	7
NMTAP	20	192	6
NMSTR	21	0	1
NMSI_	21	0	1	576	48	3
NMSTR	21	96	0
NMSI_	21	96	0	384	48	4
NMSTR	21	192	7
NMSI_	21	192	7	192	48	5
NMTAP	22	0	7
NMTAP	22	96	0
NMTAP	22	192	1
NMSTR	23	0	6
NMSI_	23	0	6	672	48	2
NMSTR	23	96	7
NMSI_	23	96	7	480	48	3
NMSTR	23	192	0
NMSI_	23	192	0	288	48	4
NMSTR	23	288	1
NMSI_	23	288	1	96	48	5
NMTAP	24	0	1
NMTAP	24	96	0
NMTAP	24	192	7
NMTAP	24	288	6
NMSTR	25	0	1
NMSI_	25	0	1	672	48	5
NMSTR	25	96	0
NMSI_	25	96	0	480	48	4
NMSTR	25	192	7
NMSI_	25	192	7	288	48	3
NMSTR	25	288	6
NMSI_	25	288	6	96	48	2
NMTAP	26	0	6
NMTAP	26	96	7
NMTAP	26	192	0
NMTAP	26	288	1
NMSTR	27	0	6
NMSI_	27	0	6	384	48	2
NMSTR	27	0	7
NMSI_	27	0	7	384	48	3
NMSTR	27	96	0
NMSI_	27	96	0	384	48	4
NMSTR	27	96	1
NMSI_	27	96	1	384	48	5
NMTAP	27	192	2
NMTAP	27	192	3
NMTAP	27	288	4
NMTAP	27	288	5
NMTAP	28	0	6
NMTAP	28	0	7
NMTAP	28	96	0
NMTAP	28	96	1
NMTAP	28	192	3
NMTAP	28	192	4
NMTAP	28	288	1
NMTAP	28	288	6
NMSTR	29	0	7
NMSI_	29	0	7	336	96	3
NMSTR	29	96	6
NMSI_	29	96	6	432	48	2
NMSTR	29	192	5
NMSI_	29	192	5	336	48	1
NMSTR	29	288	4
NMSI_	29	288	4	48	96	0
NMTAP	29	336	4
NMTAP	29	336	7
NMTAP	30	144	5
NMTAP	30	144	6
BRSTR	30	288	0
NMSI_	30	288	0	0	24	4
BRSTR	30	288	7
NMSI_	30	288	7	0	24	3
NMSTR	31	0	0
NMSI_	31	0	0	384	48	4
NMSTR	31	0	1
NMSI_	31	0	1	384	48	5
NMSTR	31	96	6
NMSI_	31	96	6	384	48	2
NMSTR	31	96	7
NMSI_	31	96	7	384	48	3
NMTAP	31	192	4
NMTAP	31	192	5
NMTAP	31	288	2
NMTAP	31	288	3
NMTAP	32	0	0
NMTAP	32	0	1
NMTAP	32	96	6
NMTAP	32	96	7
NMTAP	32	192	3
NMTAP	32	192	4
NMTAP	32	288	1
NMTAP	32	288	6
NMSTR	33	0	0
NMSI_	33	0	0	672	48	4
NMSTR	33	96	1
NMSI_	33	96	1	480	48	5
NMSTR	33	192	2
NMSI_	33	192	2	288	48	6
NMSTR	33	288	3
NMSI_	33	288	3	96	48	7
NMTAP	34	0	3
NMTAP	34	96	2
NMTAP	34	192	1
NMTAP	34	288	0
NMSTR	35	0	4
NMSI_	35	0	4	384	48	0
NMSTR	35	0	5
NMSI_	35	0	5	384	48	1
NMSTR	35	96	2
NMSI_	35	96	2	384	48	6
NMSTR	35	96	3
NMSI_	35	96	3	384	48	7
NMTAP	35	192	0
NMTAP	35	192	1
NMTAP	35	288	6
NMTAP	35	288	7
NMTAP	36	0	4
NMTAP	36	0	5
NMTAP	36	96	2
NMTAP	36	96	3
BRSTR	36	192	4
NMSI_	36	192	4	0	48	7
BRSTR	36	288	3
NMSI_	36	288	3	0	48	0
NMSTR	37	0	2
NMSI_	37	0	2	384	48	6
NMSTR	37	0	3
NMSI_	37	0	3	384	48	7
NMSTR	37	96	4
NMSI_	37	96	4	384	48	0
NMSTR	37	96	5
NMSI_	37	96	5	384	48	1
NMTAP	37	192	6
NMTAP	37	192	7
NMTAP	37	288	0
NMTAP	37	288	1
NMTAP	38	0	2
NMTAP	38	0	3
NMTAP	38	96	4
NMTAP	38	96	5
BRSTR	38	192	3
NMSI_	38	192	3	0	48	0
BRSTR	38	288	4
NMSI_	38	288	4	0	48	7
NMSTR	39	48	4
NMSI_	39	48	4	672	48	0
NMSTR	39	144	3
NMSI_	39	144	3	480	48	7
NMSTR	39	240	2
NMSI_	39	240	2	288	48	6
NMSTR	39	336	1
NMSI_	39	336	1	96	48	5
NMTAP	40	48	1
NMTAP	40	144	2
NMTAP	40	240	3
NMTAP	40	336	4
NMSTR	41	0	7
NMSF_	41	0	7	192	96	3
NMTAP	41	192	7
BRSTR	42	0	1
NMSI_	42	0	1	0	24	5
BRSTR	42	0	6
NMSI_	42	0	6	0	24	2
NMSTR	42	192	3
NMSXR	42	192	3	912	240	0
NMSTR	42	192	4
NMSI_	42	192	4	576	48	7
NMTAP	44	0	4
NMSTR	44	96	7
NMSXR	44	96	7	72	120	4
NMTAP	44	168	7
NMTAP	44	336	3
NMSTR	46	0	0
NMSI_	46	0	0	672	48	4
NMSTR	46	0	1
NMSI_	46	0	1	672	48	5
NMTAP	46	96	2
NMTAP	46	96	3
NMTAP	46	192	4
NMTAP	46	192	5
NMTAP	46	288	6
NMTAP	46	288	7
NMTAP	47	0	6
NMTAP	47	0	7
NMTAP	47	96	4
NMTAP	47	96	5
NMTAP	47	192	2
NMTAP	47	192	3
NMTAP	47	288	0
NMTAP	47	288	1
NMSTR	48	0	6
NMSI_	48	0	6	672	48	2
NMSTR	48	0	7
NMSI_	48	0	7	672	48	3
NMTAP	48	96	4
NMTAP	48	96	5
NMTAP	48	192	2
NMTAP	48	192	3
NMTAP	48	288	0
NMTAP	48	288	1
NMTAP	49	0	0
NMTAP	49	0	1
NMTAP	49	96	2
NMTAP	49	96	3
NMTAP	49	192	4
NMTAP	49	192	5
NMTAP	49	288	6
NMTAP	49	288	7
NMSTR	50	0	0
NMSI_	50	0	0	576	48	4
NMSTR	50	0	7
NMSI_	50	0	7	576	48	3
NMTAP	50	96	1
NMTAP	50	96	2
NMTAP	50	192	3
NMTAP	50	192	4
NMTAP	50	288	5
NMTAP	50	288	6
NMTAP	51	0	5
NMTAP	51	0	6
NMTAP	51	96	3
NMTAP	51	96	4
NMTAP	51	192	0
NMTAP	51	192	7
NMSTR	52	0	3
NMSI_	52	0	3	576	48	7
NMSTR	52	0	4
NMSI_	52	0	4	576	48	0
NMTAP	52	96	1
NMTAP	52	96	2
NMTAP	52	192	0
NMTAP	52	192	7
NMTAP	52	288	5
NMTAP	52	288	6
NMTAP	53	0	5
NMTAP	53	0	6
NMTAP	53	96	0
NMTAP	53	96	7
NMTAP	53	192	3
NMTAP	53	192	4
NMTAP	54	0	0
NMSTR	54	0	4
NMSI_	54	0	4	672	48	0
NMTAP	54	192	1
NMSTR	54	192	5
NMSI_	54	192	5	480	48	1
NMTAP	54	336	6
NMTAP	55	0	6
NMTAP	55	48	6
NMTAP	55	144	7
NMTAP	55	192	7
NMTAP	55	288	4
NMTAP	55	288	5
NMSTR	56	0	1
NMSI_	56	0	1	576	48	5
NMSTR	56	0	2
NMSI_	56	0	2	576	48	6
NMTAP	56	96	0
NMTAP	56	96	3
NMTAP	56	192	4
NMTAP	56	192	7
NMTAP	56	288	5
NMTAP	56	288	6
NMTAP	57	0	3
NMTAP	57	0	4
NMTAP	57	96	0
NMTAP	57	96	7
NMTAP	57	192	1
NMTAP	57	192	2
NMSTR	58	0	3
NMSI_	58	0	3	576	48	7
NMTAP	58	0	7
NMSTR	58	192	2
NMSI_	58	192	2	384	48	6
NMTAP	58	192	6
NMSTR	58	336	0
NMSI_	58	336	0	96	48	4
NMSTR	58	336	1
NMSI_	58	336	1	96	48	5
NMTAP	59	48	0
NMTAP	59	48	1
NMTAP	59	192	2
NMTAP	59	192	3
NMSTR	60	0	3
NMSI_	60	0	3	528	48	1
NMTAP	60	0	6
NMSTR	60	96	5
NMSI_	60	96	5	336	48	7
NMTAP	60	192	1
NMSTR	60	192	4
NMSI_	60	192	4	144	48	0
NMTAP	60	336	4
NMTAP	61	48	5
NMTAP	61	144	3
NMSTR	61	288	3
NMSI_	61	288	3	768	48	0
NMSTR	61	288	4
NMSI_	61	288	4	672	48	7
NMTAP	62	0	5
NMTAP	62	48	5
NMTAP	62	96	6
NMTAP	62	144	6
NMTAP	62	192	2
NMTAP	62	240	2
NMTAP	62	288	1
NMTAP	62	336	1
NMTAP	63	0	5
NMTAP	63	48	5
NMTAP	63	96	2
NMTAP	63	144	2
NMTAP	63	192	4
NMTAP	63	288	3
NMSTR	64	0	2
NMSI_	64	0	2	624	24	0
NMSTR	64	48	3
NMSI_	64	48	3	624	48	7
NMSTR	64	96	4
NMSI_	64	96	4	480	24	6
NMTAP	64	192	7
NMTAP	64	240	7
NMTAP	64	288	7
NMTAP	65	0	7
NMTAP	65	48	7
NMTAP	65	96	7
NMTAP	65	192	4
NMTAP	65	240	2
NMTAP	65	288	3
NMSTR	66	0	5
NMSI_	66	0	5	288	48	0
NMTAP	66	48	6
NMSTR	66	144	4
NMSI_	66	144	4	144	48	1
NMTAP	66	192	3
NMTAP	66	288	4
NMTAP	66	288	5
NMSTR	67	0	2
NMSI_	67	0	2	288	48	7
NMTAP	67	48	1
NMSTR	67	144	3
NMSI_	67	144	3	144	48	6
NMTAP	67	192	4
NMTAP	67	288	2
NMTAP	67	288	3
NMSTR	68	0	3
NMSXR	68	0	3	384	144	0
NMSTR	68	0	4
NMSXL	68	0	4	384	144	7
NMTAP	68	48	5
NMTAP	68	96	2
NMTAP	68	144	6
NMTAP	68	192	1
NMTAP	68	240	5
NMTAP	68	288	2
NMTAP	68	336	5
NMTAP	69	0	3
NMTAP	69	0	4
NMSTR	69	240	0
NMSI_	69	240	0	144	48	5
NMSTR	69	240	1
NMSI_	69	240	1	240	48	4
NMTAP	69	288	2
NMTAP	69	288	7
NMTAP	69	336	3
NMTAP	69	336	6
NMTAP	70	0	0
NMTAP	70	0	5
NMTAP	70	96	1
NMTAP	70	96	4
NMSTR	70	240	6
NMSI_	70	240	6	240	48	3
NMSTR	70	240	7
NMSI_	70	240	7	144	48	2
NMTAP	70	288	0
NMTAP	70	288	5
NMTAP	70	336	1
NMTAP	70	336	4
NMTAP	71	0	2
NMTAP	71	0	7
NMTAP	71	96	3
NMTAP	71	96	6
NMTAP	71	240	3
NMTAP	71	240	4
NMTAP	71	288	3
NMTAP	71	288	4
NMSTR	72	0	6
NMSXL	72	0	6	288	192	1
NMTAP	72	0	7
NMTAP	72	96	0
NMTAP	72	96	1
NMSTR	72	192	2
NMSXL	72	192	2	96	192	5
NMTAP	72	192	3
NMTAP	72	288	2
NMTAP	72	288	6
NMTAP	73	144	0
NMTAP	73	144	7
NMSTR	73	240	6
NMSI_	73	240	6	240	48	3
NMSTR	73	240	7
NMSI_	73	240	7	144	48	2
NMTAP	73	288	0
NMTAP	73	288	5
NMTAP	73	336	1
NMTAP	73	336	4
NMTAP	74	0	2
NMTAP	74	0	7
NMTAP	74	96	3
NMTAP	74	96	6
NMSTR	74	240	0
NMSI_	74	240	0	144	48	5
NMSTR	74	240	1
NMSI_	74	240	1	240	48	4
NMTAP	74	288	2
NMTAP	74	288	7
NMTAP	74	336	3
NMTAP	74	336	6
NMTAP	75	0	0
NMTAP	75	0	5
NMTAP	75	96	1
NMTAP	75	96	4
NMTAP	75	240	3
NMTAP	75	240	4
NMTAP	75	288	3
NMTAP	75	288	4
NMTAP	76	0	0
NMTAP	76	0	7
NMSTR	76	96	7
NMSI_	76	96	7	576	48	3
NMSTR	76	192	6
NMSCL	76	192	6	384	24	4
NMSTR	76	288	0
NMSI_	76	288	0	384	48	4
NMSTR	77	0	1
NMSCR	77	0	1	96	24	3
NMTAP	77	96	1
NMTAP	77	192	6
NMTAP	77	288	0
NMTAP	77	288	7
NMSTR	78	0	4
NMSI_	78	0	4	480	48	0
NMTAP	78	0	6
NMTAP	78	96	1
NMSTR	78	96	3
NMSI_	78	96	3	288	48	7
NMTAP	78	240	0
NMTAP	78	240	7
NMTAP	78	288	0
NMTAP	78	288	7
NMTAP	79	0	1
NMTAP	79	0	3
NMTAP	79	96	4
NMTAP	79	96	6
BRSTR	79	192	4
NMSI_	79	192	4	0	48	7
BRSTR	79	288	3
NMSI_	79	288	3	0	48	0
NMTAP	80	0	1
NMSTR	80	0	3
NMSI_	80	0	3	480	48	7
NMSTR	80	96	4
NMSI_	80	96	4	288	48	0
NMTAP	80	96	6
NMTAP	80	240	0
NMTAP	80	240	7
NMTAP	80	288	0
NMTAP	80	288	7
NMTAP	81	0	4
NMTAP	81	0	6
NMTAP	81	96	1
NMTAP	81	96	3
BRSTR	81	192	3
NMSI_	81	192	3	0	48	0
BRSTR	81	288	4
NMSI_	81	288	4	0	48	7
NMSTR	82	0	0
NMSCR	82	0	0	192	48	3
NMSTR	82	0	7
NMSCL	82	0	7	192	48	4
NMSTR	82	96	3
NMSI_	82	96	3	192	48	7
NMSTR	82	96	4
NMSI_	82	96	4	192	48	0
NMTAP	82	192	0
NMTAP	82	192	7
NMTAP	82	288	3
NMTAP	82	288	4
NMSTR	83	0	0
NMSCR	83	0	0	192	48	3
NMSTR	83	0	7
NMSCL	83	0	7	192	48	4
NMSTR	83	96	3
NMSI_	83	96	3	192	48	7
NMSTR	83	96	4
NMSI_	83	96	4	192	48	0
NMTAP	83	192	0
NMTAP	83	192	7
NMTAP	83	288	3
NMTAP	83	288	4
NMSTR	84	0	3
NMSCL	84	0	3	192	48	0
NMSTR	84	0	4
NMSCR	84	0	4	192	48	7
NMSTR	84	96	0
NMSI_	84	96	0	192	48	4
NMSTR	84	96	7
NMSI_	84	96	7	192	48	3
NMTAP	84	192	3
NMTAP	84	192	4
NMTAP	84	288	0
NMTAP	84	288	7
NMTAP	85	0	1
NMTAP	85	0	6
BRSTR	85	96	5
NMSI_	85	96	5	0	24	7
BRSTR	85	192	3
NMSI_	85	192	3	0	24	1
BRSTR	85	288	4
NMSI_	85	288	4	0	24	0
NMSTR	86	0	1
NMSI_	86	0	1	1440	48	6
NMSTR	86	0	5
NMSI_	86	0	5	1344	48	2
NMTAP	86	96	3
NMTAP	86	96	4
NMTAP	86	192	4
NMTAP	86	240	4
NMTAP	86	288	3
NMTAP	86	336	3
NMTAP	87	0	7
NMTAP	87	48	7
NMTAP	87	96	0
NMTAP	87	144	0
NMTAP	87	192	7
NMTAP	87	240	7
NMTAP	87	288	0
NMTAP	87	288	7
NMHLD	88	0	3	48
NMHLD	88	0	4	48
NMHLD	88	96	0	48
NMHLD	88	96	7	48
NMHLD	88	192	3	48
NMHLD	88	192	4	48
NMHLD	88	288	0	48
NMHLD	88	288	7	48
NMTAP	89	0	3
NMTAP	89	0	4
NMTAP	89	96	3
NMTAP	89	96	7
NMTAP	89	192	5
NMTAP	89	288	1
NMSTR	90	0	2
NMSI_	90	0	2	1248	48	5
NMSTR	90	0	6
NMSI_	90	0	6	1248	48	1
NMTAP	90	96	3
NMTAP	90	96	4
NMTAP	90	192	3
NMTAP	90	240	3
NMTAP	90	288	4
NMTAP	90	336	4
NMTAP	91	0	0
NMTAP	91	48	0
NMTAP	91	96	7
NMTAP	91	144	7
NMTAP	91	192	0
NMTAP	91	192	7
NMTAP	91	288	3
NMTAP	91	288	4
NMHLD	92	0	0	48
NMHLD	92	0	4	48
NMHLD	92	96	3	48
NMHLD	92	96	7	48
NMHLD	92	192	0	48
NMHLD	92	192	4	48
NMHLD	92	288	3	48
NMHLD	92	288	7	48
NMTAP	93	0	3
NMTAP	93	0	4
NMTAP	93	96	2
NMTAP	93	96	6
NMTAP	93	192	3
NMTAP	93	192	4
NMTAP	93	288	1
NMSTR	93	288	6
NMSI_	93	288	6	432	24	2
BRSTR	94	336	5
NMSI_	94	336	5	0	24	0
NMTAP	94	336	6

T_REC_TAP	347
T_REC_BRK	0
T_REC_XTP	0
T_REC_BXX	0
T_REC_HLD	16
T_REC_XHO	0
T_REC_BHO	0
T_REC_BXH	0
T_REC_STR	128
T_REC_BST	22
T_REC_XST	0
T_REC_XBS	0
T_REC_TTP	0
T_REC_THO	0
T_REC_SLD	150
T_REC_BSL	0
T_REC_ALL	663
T_NUM_TAP	475
T_NUM_BRK	22
T_NUM_HLD	16
T_NUM_SLD	150
T_NUM_ALL	663
T_JUDGE_TAP	497
T_JUDGE_HLD	16
T_JUDGE_SLD	150
T_JUDGE_ALL	663
TTM_EACHPAIRS	175
TTM_SCR_TAP	237500
TTM_SCR_BRK	57200
TTM_SCR_HLD	16000
TTM_SCR_SLD	225000
TTM_SCR_ALL	535700
TTM_SCR_S	517500
TTM_SCR_SS	533500
TTM_RAT_ACV	10041

