VERSION	0.00.00	1.04.00
FES_MODE	1
BPM_DEF	128.000	128.000	128.000	128.000
MET_DEF	4	4
RESOLUTION	384
CLK_DEF	384
COMPATIBLE_CODE	MA2

BPM	0	0	128.000
MET	0	0	4	4

NMTAP	1	0	3
NMTAP	1	96	3
NMTAP	1	192	3
NMTAP	1	288	3
NMTAP	2	0	3
NMTAP	2	0	4
NMTAP	2	96	3
NMTAP	2	96	4
NMTAP	2	192	3
NMTAP	2	192	4
NMTAP	2	288	3
NMTAP	2	288	4
NMTAP	3	0	2
NMTAP	3	0	3
NMTAP	3	0	4
NMTAP	3	96	2
NMTAP	3	96	3
NMTAP	3	96	4
NMTAP	3	192	2
NMTAP	3	192	3
NMTAP	3	192	4
NMTAP	3	288	2
NMTAP	3	288	3
NMTAP	3	288	4
NMTAP	4	0	2
NMTAP	4	0	3
NMTAP	4	0	4
NMTAP	4	0	5
NMTAP	4	96	2
NMTAP	4	96	3
NMTAP	4	96	4
NMTAP	4	96	5
NMTAP	4	192	2
NMTAP	4	192	3
NMTAP	4	192	4
NMTAP	4	192	5
NMTAP	4	288	2
NMTAP	4	288	3
NMTAP	4	288	4
NMTAP	4	288	5
NMTAP	5	0	1
NMTAP	5	0	2
NMTAP	5	0	3
NMTAP	5	0	4
NMTAP	5	0	5
NMTAP	5	96	1
NMTAP	5	96	2
NMTAP	5	96	3
NMTAP	5	96	4
NMTAP	5	96	5
NMTAP	5	192	1
NMTAP	5	192	2
NMTAP	5	192	3
NMTAP	5	192	4
NMTAP	5	192	5
NMTAP	5	288	1
NMTAP	5	288	2
NMTAP	5	288	3
NMTAP	5	288	4
NMTAP	5	288	5
NMTAP	6	0	1
NMTAP	6	0	2
NMTAP	6	0	3
NMTAP	6	0	4
NMTAP	6	0	5
NMTAP	6	0	6
NMTAP	6	96	1
NMTAP	6	96	2
NMTAP	6	96	3
NMTAP	6	96	4
NMTAP	6	96	5
NMTAP	6	96	6
NMTAP	6	192	1
NMTAP	6	192	2
NMTAP	6	192	3
NMTAP	6	192	4
NMTAP	6	192	5
NMTAP	6	192	6
NMTAP	6	288	1
NMTAP	6	288	2
NMTAP	6	288	3
NMTAP	6	288	4
NMTAP	6	288	5
NMTAP	6	288	6
NMTAP	7	0	0
NMTAP	7	0	1
NMTAP	7	0	2
NMTAP	7	0	3
NMTAP	7	0	4
NMTAP	7	0	5
NMTAP	7	0	6
NMTAP	7	96	0
NMTAP	7	96	1
NMTAP	7	96	2
NMTAP	7	96	3
NMTAP	7	96	4
NMTAP	7	96	5
NMTAP	7	96	6
NMTAP	7	192	0
NMTAP	7	192	1
NMTAP	7	192	2
NMTAP	7	192	3
NMTAP	7	192	4
NMTAP	7	192	5
NMTAP	7	192	6
NMTAP	7	288	0
NMTAP	7	288	1
NMTAP	7	288	2
NMTAP	7	288	3
NMTAP	7	288	4
NMTAP	7	288	5
NMTAP	7	288	6
NMHLD	8	0	0	480
NMHLD	8	0	1	864
NMHLD	8	0	2	1248
NMHLD	8	0	3	1632
NMHLD	8	0	4	1440
NMHLD	8	0	5	1056
NMHLD	8	0	6	672
NMTAP	8	0	7
NMTAP	8	96	7
NMTAP	8	192	7
BRTAP	8	288	7
NMTAP	9	0	7
NMTAP	9	96	7
NMTAP	9	192	0
NMTAP	9	192	7
NMTAP	9	288	0
NMTAP	9	288	7
NMTAP	10	0	0
NMTAP	10	0	6
NMTAP	10	0	7
NMTAP	10	96	0
NMTAP	10	96	6
NMTAP	10	96	7
NMTAP	10	192	0
NMTAP	10	192	1
NMTAP	10	192	6
NMTAP	10	192	7
NMTAP	10	288	0
NMTAP	10	288	1
NMTAP	10	288	6
NMTAP	10	288	7
NMTAP	11	0	0
NMTAP	11	0	1
NMTAP	11	0	5
NMTAP	11	0	6
NMTAP	11	0	7
NMTAP	11	96	0
NMTAP	11	96	1
NMTAP	11	96	5
NMTAP	11	96	6
NMTAP	11	96	7
NMTAP	11	192	0
NMTAP	11	192	1
NMTAP	11	192	2
NMTAP	11	192	5
NMTAP	11	192	6
NMTAP	11	192	7
NMTAP	11	288	0
NMTAP	11	288	1
NMTAP	11	288	2
NMTAP	11	288	5
NMTAP	11	288	6
NMTAP	11	288	7
NMTAP	12	0	0
NMTAP	12	0	1
NMTAP	12	0	2
NMTAP	12	0	4
NMTAP	12	0	5
NMTAP	12	0	6
NMTAP	12	0	7
NMTAP	12	96	0
NMTAP	12	96	1
NMTAP	12	96	2
NMTAP	12	96	4
NMTAP	12	96	5
NMTAP	12	96	6
NMTAP	12	96	7
NMTAP	12	192	0
NMTAP	12	192	1
NMTAP	12	192	2
NMTAP	12	192	3
NMTAP	12	192	4
NMTAP	12	192	5
NMTAP	12	192	6
NMTAP	12	192	7
NMTAP	12	288	0
NMTAP	12	288	1
NMTAP	12	288	2
NMTAP	12	288	3
NMTAP	12	288	4
NMTAP	12	288	5
NMTAP	12	288	6
NMTAP	12	288	7
NMTAP	13	0	0
NMTAP	13	0	2
NMTAP	13	0	4
NMTAP	13	0	6
NMTAP	13	48	0
NMTAP	13	48	2
NMTAP	13	48	4
NMTAP	13	48	6
NMTAP	13	96	0
NMTAP	13	96	2
NMTAP	13	96	4
NMTAP	13	96	6
NMTAP	13	192	1
NMTAP	13	192	3
NMTAP	13	192	5
NMTAP	13	192	7
NMTAP	13	240	1
NMTAP	13	240	3
NMTAP	13	240	5
NMTAP	13	240	7
NMTAP	13	288	1
NMTAP	13	288	3
NMTAP	13	288	5
NMTAP	13	288	7
NMTAP	14	0	0
NMTAP	14	0	2
NMTAP	14	0	4
NMTAP	14	0	6
NMTAP	14	48	0
NMTAP	14	48	2
NMTAP	14	48	4
NMTAP	14	48	6
NMTAP	14	96	0
NMTAP	14	96	2
NMTAP	14	96	4
NMTAP	14	96	6
NMTAP	14	144	0
NMTAP	14	144	2
NMTAP	14	144	4
NMTAP	14	144	6
NMTAP	14	192	1
NMTAP	14	192	3
NMTAP	14	192	5
NMTAP	14	192	7
NMTAP	14	240	1
NMTAP	14	240	3
NMTAP	14	240	5
NMTAP	14	240	7
NMTAP	14	288	1
NMTAP	14	288	3
NMTAP	14	288	5
NMTAP	14	288	7
NMTAP	14	336	1
NMTAP	14	336	3
NMTAP	14	336	5
NMTAP	14	336	7
NMTAP	15	0	0
NMTAP	15	0	2
NMTAP	15	0	4
NMTAP	15	0	6
NMTAP	15	48	0
NMTAP	15	48	2
NMTAP	15	48	4
NMTAP	15	48	6
NMTAP	15	96	1
NMTAP	15	96	3
NMTAP	15	96	5
NMTAP	15	96	7
NMTAP	15	144	1
NMTAP	15	144	3
NMTAP	15	144	5
NMTAP	15	144	7
NMTAP	15	192	0
NMTAP	15	192	2
NMTAP	15	192	4
NMTAP	15	192	6
NMTAP	15	240	0
NMTAP	15	240	2
NMTAP	15	240	4
NMTAP	15	240	6
NMTAP	15	288	1
NMTAP	15	288	3
NMTAP	15	288	5
NMTAP	15	288	7
NMTAP	15	336	1
NMTAP	15	336	3
NMTAP	15	336	5
NMTAP	15	336	7
NMHLD	16	0	0	72
BRTAP	16	0	1
NMHLD	16	0	2	72
BRTAP	16	0	3
NMHLD	16	0	4	72
BRTAP	16	0	5
NMHLD	16	0	6	72
BRTAP	16	0	7
BRTAP	16	96	0
NMHLD	16	96	1	72
BRTAP	16	96	2
NMHLD	16	96	3	72
BRTAP	16	96	4
NMHLD	16	96	5	72
BRTAP	16	96	6
NMHLD	16	96	7	72
NMHLD	16	192	0	72
BRTAP	16	192	1
NMHLD	16	192	2	72
BRTAP	16	192	3
NMHLD	16	192	4	72
BRTAP	16	192	5
NMHLD	16	192	6	72
BRTAP	16	192	7
BRTAP	16	288	0
BRTAP	16	288	1
BRTAP	16	288	2
BRTAP	16	288	3
BRTAP	16	288	4
BRTAP	16	288	5
BRTAP	16	288	6
BRTAP	16	288	7
NMHLD	17	0	0	288
NMTAP	17	0	2
NMTAP	17	0	4
NMTAP	17	0	6
NMHLD	17	96	1	288
NMTAP	17	96	3
NMTAP	17	96	5
NMTAP	17	96	7
NMHLD	17	192	2	288
NMTAP	17	192	4
NMTAP	17	192	6
NMHLD	17	288	3	288
NMTAP	17	288	5
NMTAP	17	288	7
NMTAP	18	0	0
NMHLD	18	0	4	288
NMTAP	18	0	6
NMTAP	18	96	1
NMHLD	18	96	5	192
NMTAP	18	96	7
NMTAP	18	192	0
NMTAP	18	192	2
NMHLD	18	192	6	96
NMTAP	18	288	1
NMTAP	18	288	3
NMTAP	18	288	7
NMTAP	19	0	1
NMTAP	19	0	3
NMTAP	19	0	5
NMHLD	19	0	7	288
NMTAP	19	96	0
NMTAP	19	96	2
NMTAP	19	96	4
NMHLD	19	96	6	288
NMTAP	19	192	1
NMTAP	19	192	3
NMHLD	19	192	5	288
NMTAP	19	288	0
NMTAP	19	288	2
NMHLD	19	288	4	288
NMTAP	20	0	1
NMHLD	20	0	3	288
NMTAP	20	0	7
NMTAP	20	96	0
NMHLD	20	96	2	192
NMTAP	20	96	6
NMHLD	20	192	1	96
NMTAP	20	192	5
NMTAP	20	192	7
NMTAP	20	288	0
NMTAP	20	288	4
NMTAP	20	288	6
NMHLD	21	0	0	288
NMTAP	21	0	3
NMTAP	21	0	4
NMTAP	21	0	7
NMTAP	21	96	1
NMHLD	21	96	2	288
NMTAP	21	96	5
NMTAP	21	96	6
NMTAP	21	192	3
NMHLD	21	192	4	288
NMTAP	21	192	7
NMTAP	21	288	1
NMTAP	21	288	5
NMHLD	21	288	6	288
NMTAP	22	0	0
NMTAP	22	0	3
NMHLD	22	0	7	288
NMTAP	22	96	1
NMTAP	22	96	2
NMHLD	22	96	5	192
NMTAP	22	192	0
NMHLD	22	192	3	96
NMTAP	22	192	4
NMTAP	22	288	1
NMTAP	22	288	2
NMTAP	22	288	6
NMTAP	23	0	0
NMTAP	23	0	3
NMTAP	23	0	4
NMHLD	23	0	7	288
NMTAP	23	96	1
NMTAP	23	96	2
NMHLD	23	96	5	288
NMTAP	23	96	6
NMTAP	23	192	0
NMHLD	23	192	3	288
NMTAP	23	192	4
NMHLD	23	288	1	288
NMTAP	23	288	2
NMTAP	23	288	6
NMHLD	24	0	0	288
NMTAP	24	0	4
NMTAP	24	0	7
NMHLD	24	96	2	192
NMTAP	24	96	5
NMTAP	24	96	6
NMTAP	24	192	3
NMHLD	24	192	4	96
NMTAP	24	192	7
NMTAP	24	288	1
NMTAP	24	288	5
BRTAP	24	288	6
NMTAP	25	0	0
NMHLD	25	0	1	336
NMTAP	25	0	2
NMHLD	25	0	3	96
NMTAP	25	0	4
NMHLD	25	0	5	336
NMTAP	25	0	6
NMHLD	25	0	7	96
NMTAP	25	96	0
NMTAP	25	96	2
NMTAP	25	96	4
NMTAP	25	96	6
NMTAP	25	144	3
NMTAP	25	144	7
NMTAP	25	192	0
NMTAP	25	192	2
NMTAP	25	192	3
NMTAP	25	192	4
NMTAP	25	192	6
NMTAP	25	192	7
NMTAP	25	264	3
NMTAP	25	264	7
NMTAP	25	288	0
NMTAP	25	288	2
NMTAP	25	288	4
NMTAP	25	288	6
NMTAP	25	336	3
NMTAP	25	336	7
NMTAP	26	0	0
NMHLD	26	0	1	336
NMTAP	26	0	2
NMHLD	26	0	3	192
NMTAP	26	0	4
NMHLD	26	0	5	336
NMTAP	26	0	6
NMHLD	26	0	7	192
NMTAP	26	96	0
NMTAP	26	96	2
NMTAP	26	96	4
NMTAP	26	96	6
NMTAP	26	192	0
NMTAP	26	192	2
NMTAP	26	192	4
NMTAP	26	192	6
NMTAP	26	240	2
NMTAP	26	240	6
NMTAP	26	288	0
NMTAP	26	288	2
NMTAP	26	288	3
NMTAP	26	288	4
NMTAP	26	288	6
NMTAP	26	288	7
NMTAP	26	336	2
NMTAP	26	336	6
NMHLD	27	0	0	336
NMTAP	27	0	1
NMHLD	27	0	2	96
NMTAP	27	0	3
NMHLD	27	0	4	336
NMTAP	27	0	5
NMHLD	27	0	6	96
NMTAP	27	0	7
NMTAP	27	96	1
NMTAP	27	96	3
NMTAP	27	96	5
NMTAP	27	96	7
NMTAP	27	144	2
NMTAP	27	144	6
NMTAP	27	192	1
NMTAP	27	192	2
NMTAP	27	192	3
NMTAP	27	192	5
NMTAP	27	192	6
NMTAP	27	192	7
NMTAP	27	264	2
NMTAP	27	264	6
NMTAP	27	288	1
NMTAP	27	288	3
NMTAP	27	288	5
NMTAP	27	288	7
NMTAP	27	336	2
NMTAP	27	336	6
NMHLD	28	0	0	336
NMTAP	28	0	1
NMHLD	28	0	2	192
NMTAP	28	0	3
NMHLD	28	0	4	336
NMTAP	28	0	5
NMHLD	28	0	6	192
NMTAP	28	0	7
NMTAP	28	96	1
NMTAP	28	96	3
NMTAP	28	96	5
NMTAP	28	96	7
NMTAP	28	192	1
NMTAP	28	192	3
NMTAP	28	192	5
NMTAP	28	192	7
NMTAP	28	288	1
NMTAP	28	288	2
NMTAP	28	288	3
NMTAP	28	288	5
NMTAP	28	288	6
NMTAP	28	288	7
NMTAP	29	0	0
NMHLD	29	0	1	96
NMTAP	29	0	2
NMHLD	29	0	3	336
NMTAP	29	0	4
NMHLD	29	0	5	96
NMTAP	29	0	6
NMHLD	29	0	7	336
NMTAP	29	96	0
NMTAP	29	96	2
NMTAP	29	96	4
NMTAP	29	96	6
NMTAP	29	144	1
NMTAP	29	144	5
NMTAP	29	192	0
NMTAP	29	192	1
NMTAP	29	192	2
NMTAP	29	192	4
NMTAP	29	192	5
NMTAP	29	192	6
NMTAP	29	264	1
NMTAP	29	264	5
NMTAP	29	288	0
NMTAP	29	288	2
NMTAP	29	288	4
NMTAP	29	288	6
NMTAP	29	336	1
NMTAP	29	336	5
NMTAP	30	0	0
NMHLD	30	0	1	192
NMTAP	30	0	2
NMHLD	30	0	3	336
NMTAP	30	0	4
NMHLD	30	0	5	192
NMTAP	30	0	6
NMHLD	30	0	7	336
NMTAP	30	96	0
NMTAP	30	96	2
NMTAP	30	96	4
NMTAP	30	96	6
NMTAP	30	192	0
NMTAP	30	192	2
NMTAP	30	192	4
NMTAP	30	192	6
NMTAP	30	240	0
NMTAP	30	240	4
NMTAP	30	288	0
NMTAP	30	288	1
NMTAP	30	288	2
NMTAP	30	288	4
NMTAP	30	288	5
NMTAP	30	288	6
NMTAP	30	336	0
NMTAP	30	336	4
NMHLD	31	0	0	96
NMTAP	31	0	1
NMHLD	31	0	2	336
NMTAP	31	0	3
NMHLD	31	0	4	96
NMTAP	31	0	5
NMHLD	31	0	6	336
NMTAP	31	0	7
NMTAP	31	96	1
NMTAP	31	96	3
NMTAP	31	96	5
NMTAP	31	96	7
NMTAP	31	144	0
NMTAP	31	144	4
NMHLD	31	192	0	96
NMTAP	31	192	1
NMTAP	31	192	3
NMHLD	31	192	4	96
NMTAP	31	192	5
NMTAP	31	192	7
NMTAP	31	288	1
NMTAP	31	288	3
NMTAP	31	288	5
NMTAP	31	288	7
NMTAP	31	336	0
NMTAP	31	336	4
NMHLD	32	0	0	192
NMTAP	32	0	1
NMHLD	32	0	2	288
NMTAP	32	0	3
NMHLD	32	0	4	192
NMTAP	32	0	5
NMHLD	32	0	6	288
NMTAP	32	0	7
NMTAP	32	96	1
NMTAP	32	96	3
NMTAP	32	96	5
NMTAP	32	96	7
NMTAP	32	192	1
NMTAP	32	192	3
NMTAP	32	192	5
NMTAP	32	192	7
NMTAP	32	288	0
NMTAP	32	288	1
NMTAP	32	288	3
NMTAP	32	288	4
NMTAP	32	288	5
NMTAP	32	288	7
NMHLD	33	0	0	1344
NMTAP	33	0	1
NMTAP	33	0	2
NMTAP	33	0	3
NMTAP	33	0	4
NMTAP	33	0	5
NMTAP	33	0	6
NMTAP	33	0	7
NMHLD	33	96	1	1248
NMTAP	33	96	2
NMTAP	33	96	3
NMTAP	33	96	4
NMTAP	33	96	5
NMTAP	33	96	6
NMTAP	33	96	7
NMHLD	33	192	2	1152
NMTAP	33	192	3
NMTAP	33	192	4
NMTAP	33	192	5
NMTAP	33	192	6
NMTAP	33	192	7
NMHLD	33	288	3	1056
NMTAP	33	288	4
NMTAP	33	288	5
NMTAP	33	288	6
NMTAP	33	288	7
NMHLD	34	0	4	960
NMTAP	34	0	5
NMTAP	34	0	6
NMTAP	34	0	7
NMHLD	34	96	5	864
NMTAP	34	96	6
NMTAP	34	96	7
NMHLD	34	192	6	768
NMTAP	34	192	7
NMHLD	34	288	7	672
NMTAP	35	0	0
NMTAP	35	0	2
NMTAP	35	0	4
NMTAP	35	0	6
NMTAP	35	96	1
NMTAP	35	96	3
NMTAP	35	96	5
NMTAP	35	96	7
NMTAP	35	192	0
NMTAP	35	192	2
NMTAP	35	192	4
NMTAP	35	192	6
NMTAP	35	288	1
NMTAP	35	288	3
NMTAP	35	288	5
NMTAP	35	288	7
NMTAP	36	0	0
NMTAP	36	0	2
NMTAP	36	0	4
NMTAP	36	0	6
NMTAP	36	96	1
NMTAP	36	96	3
NMTAP	36	96	5
NMTAP	36	96	7
NMHLD	36	288	0	864
NMHLD	36	288	1	912
NMHLD	36	288	2	960
NMHLD	36	288	3	1008
NMHLD	36	288	4	1056
NMHLD	36	288	5	1104
NMHLD	36	288	6	1152
NMHLD	36	288	7	1200
NMTAP	37	0	1
NMTAP	37	0	3
NMTAP	37	0	5
NMTAP	37	0	7
NMTAP	37	48	1
NMTAP	37	48	3
NMTAP	37	48	5
NMTAP	37	48	7
NMTAP	37	96	1
NMTAP	37	96	3
NMTAP	37	96	5
NMTAP	37	96	7
NMTAP	37	144	1
NMTAP	37	144	3
NMTAP	37	144	5
NMTAP	37	144	7
NMTAP	37	192	0
NMTAP	37	192	2
NMTAP	37	192	4
NMTAP	37	192	6
NMTAP	37	240	0
NMTAP	37	240	2
NMTAP	37	240	4
NMTAP	37	240	6
NMTAP	37	288	0
NMTAP	37	288	2
NMTAP	37	288	4
NMTAP	37	288	6
NMTAP	37	336	0
NMTAP	37	336	2
NMTAP	37	336	4
NMTAP	37	336	6
NMTAP	38	0	1
NMTAP	38	0	3
NMTAP	38	0	5
NMTAP	38	0	7
NMTAP	38	48	1
NMTAP	38	48	3
NMTAP	38	48	5
NMTAP	38	48	7
NMTAP	38	96	0
NMTAP	38	96	2
NMTAP	38	96	4
NMTAP	38	96	6
NMTAP	38	144	0
NMTAP	38	144	2
NMTAP	38	144	4
NMTAP	38	144	6
NMTAP	38	192	1
NMTAP	38	192	3
NMTAP	38	192	5
NMTAP	38	192	7
NMTAP	38	240	1
NMTAP	38	240	3
NMTAP	38	240	5
NMTAP	38	240	7
NMTAP	38	288	0
NMTAP	38	288	2
NMTAP	38	288	4
NMTAP	38	288	6
NMTAP	38	336	0
NMTAP	38	336	2
NMTAP	38	336	4
NMTAP	38	336	6
NMTAP	39	0	1
NMTAP	39	0	3
NMTAP	39	0	5
NMTAP	39	0	7
NMTAP	39	48	0
NMTAP	39	48	2
NMTAP	39	48	4
NMTAP	39	48	6
NMTAP	39	96	1
NMTAP	39	96	3
NMTAP	39	96	5
NMTAP	39	96	7
NMTAP	39	144	0
NMTAP	39	144	2
NMTAP	39	144	4
NMTAP	39	144	6
NMTAP	39	192	1
NMTAP	39	192	3
NMTAP	39	192	5
NMTAP	39	192	7
NMTAP	39	240	0
NMTAP	39	240	2
NMTAP	39	240	4
NMTAP	39	240	6
NMTAP	39	288	1
NMTAP	39	288	3
NMTAP	39	288	5
NMTAP	39	288	7
NMTAP	39	336	0
NMTAP	39	336	2
NMTAP	39	336	4
NMTAP	39	336	6
BRTAP	40	0	0
NMHLD	40	0	1	72
BRTAP	40	0	2
NMHLD	40	0	3	72
BRTAP	40	0	4
NMHLD	40	0	5	72
BRTAP	40	0	6
NMHLD	40	0	7	72
NMHLD	40	96	0	72
BRTAP	40	96	1
NMHLD	40	96	2	72
BRTAP	40	96	3
NMHLD	40	96	4	72
BRTAP	40	96	5
NMHLD	40	96	6	72
BRTAP	40	96	7
BRTAP	40	192	0
NMHLD	40	192	1	72
BRTAP	40	192	2
NMHLD	40	192	3	72
BRTAP	40	192	4
NMHLD	40	192	5	72
BRTAP	40	192	6
NMHLD	40	192	7	72
BRTAP	40	288	0
BRTAP	40	288	1
BRTAP	40	288	2
BRTAP	40	288	3
BRTAP	40	288	4
BRTAP	40	288	5
BRTAP	40	288	6
BRTAP	40	288	7
NMHLD	41	0	0	672
NMTAP	41	0	2
NMTAP	41	0	4
NMTAP	41	0	6
NMHLD	41	96	2	576
NMTAP	41	96	4
NMTAP	41	96	6
NMHLD	41	192	4	480
NMTAP	41	192	6
NMHLD	41	288	6	384
NMTAP	42	0	1
NMTAP	42	0	3
NMTAP	42	0	5
NMSTR	42	0	7
NMSI_	42	0	7	96	192	3
NMSV_	42	0	7	96	192	1
NMSV_	42	0	7	96	192	5
NMTAP	42	96	7
NMTAP	42	192	7
NMTAP	42	288	7
NMTAP	43	0	1
NMTAP	43	0	3
NMTAP	43	0	5
NMHLD	43	0	7	672
NMTAP	43	96	1
NMTAP	43	96	3
NMHLD	43	96	5	576
NMTAP	43	192	1
NMHLD	43	192	3	480
NMHLD	43	288	1	384
NMSTR	44	0	0
NMSI_	44	0	0	96	192	4
NMSV_	44	0	0	96	192	2
NMSV_	44	0	0	96	192	6
NMTAP	44	0	2
NMTAP	44	0	4
NMTAP	44	0	6
NMTAP	44	96	0
NMTAP	44	192	0
NMTAP	44	288	0
NMTAP	45	0	0
NMTAP	45	0	2
NMHLD	45	0	4	672
NMTAP	45	0	6
NMTAP	45	96	0
NMTAP	45	96	2
NMHLD	45	96	6	576
NMHLD	45	192	0	480
NMTAP	45	192	2
NMHLD	45	288	2	384
NMTAP	46	0	1
NMSTR	46	0	3
NMSI_	46	0	3	96	192	7
NMSV_	46	0	3	96	192	1
NMSV_	46	0	3	96	192	5
NMTAP	46	0	5
NMTAP	46	0	7
NMTAP	46	96	3
NMTAP	46	192	3
NMTAP	46	288	3
NMTAP	47	0	1
NMHLD	47	0	3	672
NMTAP	47	0	5
NMTAP	47	0	7
NMHLD	47	96	1	576
NMTAP	47	96	5
NMTAP	47	96	7
NMTAP	47	192	5
NMHLD	47	192	7	480
NMHLD	47	288	5	384
NMTAP	48	0	0
NMTAP	48	0	2
NMSTR	48	0	4
NMSI_	48	0	4	96	192	0
NMSV_	48	0	4	96	192	2
NMSV_	48	0	4	96	192	6
NMTAP	48	0	6
NMTAP	48	96	4
NMTAP	48	192	4
BRTAP	48	288	4
NMTAP	49	0	0
NMTAP	49	0	2
NMTAP	49	0	4
NMHLD	49	0	6	288
NMHLD	49	96	0	288
NMTAP	49	96	2
NMTAP	49	96	4
NMHLD	49	192	2	192
NMTAP	49	192	4
NMHLD	49	288	4	96
NMTAP	50	0	1
NMTAP	50	0	3
NMTAP	50	0	5
NMSTR	50	0	6
NMSV_	50	0	6	96	192	1
NMSV_	50	0	6	96	192	3
NMSV_	50	0	6	96	192	5
NMSV_	50	0	6	96	192	7
NMTAP	50	0	7
NMTAP	50	96	0
NMTAP	50	96	2
NMTAP	50	96	4
NMTAP	50	96	6
NMTAP	50	192	0
NMTAP	50	192	2
NMTAP	50	192	4
NMTAP	50	192	6
NMTAP	50	288	0
NMTAP	50	288	2
NMTAP	50	288	4
NMTAP	50	288	6
NMHLD	51	0	1	288
NMTAP	51	0	3
NMTAP	51	0	5
NMTAP	51	0	7
NMTAP	51	96	3
NMTAP	51	96	5
NMHLD	51	96	7	288
NMTAP	51	192	3
NMHLD	51	192	5	192
NMHLD	51	288	3	96
NMTAP	52	0	0
NMSTR	52	0	1
NMSV_	52	0	1	96	192	0
NMSV_	52	0	1	96	192	2
NMSV_	52	0	1	96	192	4
NMSV_	52	0	1	96	192	6
NMTAP	52	0	2
NMTAP	52	0	4
NMTAP	52	0	6
NMTAP	52	96	1
NMTAP	52	96	3
NMTAP	52	96	5
NMTAP	52	96	7
NMTAP	52	192	1
NMTAP	52	192	3
NMTAP	52	192	5
NMTAP	52	192	7
NMTAP	52	288	1
NMTAP	52	288	3
NMTAP	52	288	5
NMTAP	52	288	7
NMTAP	53	0	1
NMTAP	53	0	3
NMHLD	53	0	5	288
NMTAP	53	0	7
NMTAP	53	96	1
NMTAP	53	96	3
NMHLD	53	96	7	288
NMHLD	53	192	1	192
NMTAP	53	192	3
NMHLD	53	288	3	96
NMTAP	54	0	0
NMTAP	54	0	2
NMTAP	54	0	4
NMSTR	54	0	5
NMSV_	54	0	5	96	192	0
NMSV_	54	0	5	96	192	2
NMSV_	54	0	5	96	192	4
NMSV_	54	0	5	96	192	6
NMTAP	54	0	6
NMTAP	54	96	1
NMTAP	54	96	3
NMTAP	54	96	5
NMTAP	54	96	7
NMTAP	54	192	1
NMTAP	54	192	3
NMTAP	54	192	5
NMTAP	54	192	7
NMTAP	54	288	1
NMTAP	54	288	3
NMTAP	54	288	5
NMTAP	54	288	7
NMTAP	55	0	0
NMHLD	55	0	2	288
NMTAP	55	0	4
NMTAP	55	0	6
NMHLD	55	96	0	288
NMTAP	55	96	4
NMTAP	55	96	6
NMTAP	55	192	4
NMHLD	55	192	6	192
NMHLD	55	288	4	96
NMHLD	56	0	1	72
NMSTR	56	0	2
NMSV_	56	0	2	96	192	1
NMSV_	56	0	2	96	192	3
NMSV_	56	0	2	96	192	5
NMSV_	56	0	2	96	192	7
NMHLD	56	0	3	72
NMHLD	56	0	5	72
NMHLD	56	0	7	72
NMHLD	56	96	0	72
NMTAP	56	96	2
NMHLD	56	96	4	72
NMHLD	56	96	6	72
NMHLD	56	192	0	72
NMTAP	56	192	2
NMHLD	56	192	4	72
NMHLD	56	192	6	72
BRTAP	56	288	0
BRTAP	56	288	2
BRTAP	56	288	4
BRTAP	56	288	6
NMSTR	57	0	0
NMSCR	57	0	0	96	24	1
NMSTR	57	0	2
NMSCR	57	0	2	96	24	3
NMSTR	57	0	4
NMSCR	57	0	4	96	24	5
NMSTR	57	0	6
NMSCR	57	0	6	96	24	7
NMSTR	57	192	1
NMSCR	57	192	1	96	24	2
NMSTR	57	192	3
NMSCR	57	192	3	96	24	4
NMSTR	57	192	5
NMSCR	57	192	5	96	24	6
NMSTR	57	192	7
NMSCR	57	192	7	96	24	0
NMSTR	58	0	0
NMSCR	58	0	0	96	24	1
NMSTR	58	0	2
NMSCR	58	0	2	96	24	3
NMSTR	58	0	4
NMSCR	58	0	4	96	24	5
NMSTR	58	0	6
NMSCR	58	0	6	96	24	7
NMSTR	58	192	1
NMSCR	58	192	1	96	24	2
NMSTR	58	192	3
NMSCR	58	192	3	96	24	4
NMSTR	58	192	5
NMSCR	58	192	5	96	24	6
NMSTR	58	192	7
NMSCR	58	192	7	96	24	0
NMSTR	59	0	1
NMSCL	59	0	1	96	24	0
NMSTR	59	0	3
NMSCL	59	0	3	96	24	2
NMSTR	59	0	5
NMSCL	59	0	5	96	24	4
NMSTR	59	0	7
NMSCL	59	0	7	96	24	6
NMSTR	59	192	0
NMSCL	59	192	0	96	24	7
NMSTR	59	192	2
NMSCL	59	192	2	96	24	1
NMSTR	59	192	4
NMSCL	59	192	4	96	24	3
NMSTR	59	192	6
NMSCL	59	192	6	96	24	5
NMSTR	60	0	1
NMSCL	60	0	1	96	24	0
NMSTR	60	0	3
NMSCL	60	0	3	96	24	2
NMSTR	60	0	5
NMSCL	60	0	5	96	24	4
NMSTR	60	0	7
NMSCL	60	0	7	96	24	6
NMSTR	60	192	0
NMSCL	60	192	0	96	24	7
NMSTR	60	192	2
NMSCL	60	192	2	96	24	1
NMSTR	60	192	4
NMSCL	60	192	4	96	24	3
NMSTR	60	192	6
NMSCL	60	192	6	96	24	5
NMSTR	61	0	0
NMSCR	61	0	0	96	24	1
NMSTR	61	0	4
NMSCR	61	0	4	96	24	5
NMSTR	61	48	2
NMSCR	61	48	2	96	24	3
NMSTR	61	48	6
NMSCR	61	48	6	96	24	7
NMSTR	61	192	1
NMSCR	61	192	1	96	24	2
NMSTR	61	192	5
NMSCR	61	192	5	96	24	6
NMSTR	61	240	3
NMSCR	61	240	3	96	24	4
NMSTR	61	240	7
NMSCR	61	240	7	96	24	0
NMSTR	62	0	2
NMSCL	62	0	2	96	24	1
NMSTR	62	0	6
NMSCL	62	0	6	96	24	5
NMSTR	62	48	0
NMSCL	62	48	0	96	24	7
NMSTR	62	48	4
NMSCL	62	48	4	96	24	3
NMSTR	62	192	1
NMSCL	62	192	1	96	24	0
NMSTR	62	192	5
NMSCL	62	192	5	96	24	4
NMSTR	62	240	3
NMSCL	62	240	3	96	24	2
NMSTR	62	240	7
NMSCL	62	240	7	96	24	6
NMTAP	63	0	0
NMTAP	63	0	4
NMTAP	63	24	1
NMTAP	63	24	5
NMTAP	63	48	2
NMTAP	63	48	6
NMTAP	63	72	3
NMTAP	63	72	7
NMTAP	63	96	0
NMTAP	63	96	4
NMTAP	63	120	1
NMTAP	63	120	5
NMTAP	63	144	2
NMTAP	63	144	6
NMTAP	63	168	3
NMTAP	63	168	7
NMTAP	63	192	0
NMTAP	63	192	4
NMTAP	63	204	1
NMTAP	63	204	5
NMTAP	63	216	2
NMTAP	63	216	6
NMTAP	63	228	3
NMTAP	63	228	7
NMTAP	63	240	0
NMTAP	63	240	4
NMTAP	63	252	1
NMTAP	63	252	5
NMTAP	63	264	2
NMTAP	63	264	6
NMTAP	63	276	3
NMTAP	63	276	7
NMTAP	63	288	0
NMTAP	63	288	4
NMTAP	63	300	1
NMTAP	63	300	5
NMTAP	63	312	2
NMTAP	63	312	6
NMTAP	63	324	3
NMTAP	63	324	7
NMTAP	63	336	0
NMTAP	63	336	4
NMTAP	63	348	1
NMTAP	63	348	5
NMTAP	63	360	2
NMTAP	63	360	6
NMTAP	63	372	3
NMTAP	63	372	7
NMHLD	64	0	0	72
NMHLD	64	0	4	72
NMHLD	64	96	0	72
NMHLD	64	96	2	72
NMHLD	64	96	4	72
NMHLD	64	96	6	72
NMHLD	64	192	0	72
NMHLD	64	192	1	72
NMHLD	64	192	2	72
NMHLD	64	192	3	72
NMHLD	64	192	4	72
NMHLD	64	192	5	72
NMHLD	64	192	6	72
NMHLD	64	192	7	72
NMSTR	64	288	0
NMSV_	64	288	0	96	1536	2
NMSTR	64	288	1
NMSV_	64	288	1	96	1536	3
NMSTR	64	288	2
NMSV_	64	288	2	96	1536	4
NMSTR	64	288	3
NMSV_	64	288	3	96	1536	5
NMSTR	64	288	4
NMSV_	64	288	4	96	1536	6
NMSTR	64	288	5
NMSV_	64	288	5	96	1536	7
NMSTR	64	288	6
NMSV_	64	288	6	96	1536	0
NMSTR	64	288	7
NMSV_	64	288	7	96	1536	1
BRTAP	65	0	0
BRTAP	65	0	1
BRTAP	65	0	2
BRTAP	65	0	3
BRTAP	65	0	4
BRTAP	65	0	5
BRTAP	65	0	6
BRTAP	65	0	7

T_REC_TAP	839
T_REC_BRK	55
T_REC_XTP	0
T_REC_BXX	0
T_REC_HLD	165
T_REC_XHO	0
T_REC_BHO	0
T_REC_BXH	0
T_REC_STR	64
T_REC_BST	0
T_REC_XST	0
T_REC_XBS	0
T_REC_TTP	0
T_REC_THO	0
T_REC_SLD	84
T_REC_BSL	0
T_REC_ALL	1207
T_NUM_TAP	903
T_NUM_BRK	55
T_NUM_HLD	165
T_NUM_SLD	84
T_NUM_ALL	1207
T_JUDGE_TAP	958
T_JUDGE_HLD	1144
T_JUDGE_SLD	84
T_JUDGE_ALL	2186
TTM_EACHPAIRS	275
TTM_SCR_TAP	451500
TTM_SCR_BRK	143000
TTM_SCR_HLD	165000
TTM_SCR_SLD	126000
TTM_SCR_ALL	885500
TTM_SCR_S	853600
TTM_SCR_SS	880000
TTM_RAT_ACV	10062

