VERSION	0.00.00	1.04.00
FES_MODE	0
BPM_DEF	150.000	150.000	150.000	150.000
MET_DEF	4	4
RESOLUTION	384
CLK_DEF	384
COMPATIBLE_CODE	MA2

BPM	0	0	150.000
MET	0	0	4	4

BRSTR	3	0	1
NMSI_	3	0	1	96	48	3
NMHLD	3	0	6	576
NMSTR	3	192	0
NMSI_	3	192	0	96	48	4
NMSTR	4	0	7
NMSI_	4	0	7	96	48	5
NMSI_	5	0	0	288	48	4
BRSTR	5	0	1
NMSI_	5	0	1	96	48	3
NMHLD	5	0	6	576
NMSI_	5	0	7	480	48	5
NMSTR	5	192	0
NMSTR	6	0	7
NMHLD	7	0	1	576
BRSTR	7	0	6
NMSI_	7	0	6	96	48	4
NMSTR	7	192	7
NMSI_	7	192	7	96	48	3
NMSTR	8	0	0
NMSI_	8	0	0	96	48	2
NMSI_	9	0	0	480	48	2
NMHLD	9	0	1	576
BRSTR	9	0	6
NMSI_	9	0	6	96	48	4
NMSI_	9	0	7	288	48	3
NMSTR	9	192	7
NMSTR	10	0	0
BRSTR	11	0	0
NMSI_	11	0	0	96	48	2
NMHLD	11	0	7	672
NMSTR	11	192	0
NMSI_	11	192	0	96	48	3
NMSTR	12	0	0
NMSI_	12	0	0	96	48	4
NMSTR	12	192	0
NMSI_	12	192	0	96	48	5
BRSTR	13	0	0
NMSI_	13	0	0	96	48	2
NMSI_	13	0	0	288	48	3
NMSI_	13	0	0	480	48	4
NMSI_	13	0	0	672	48	5
NMHLD	13	0	7	672
NMSTR	13	192	0
NMSTR	14	0	0
NMSTR	14	192	0
NMHLD	15	0	0	672
BRSTR	15	0	7
NMSI_	15	0	7	96	48	5
NMSTR	15	192	7
NMSI_	15	192	7	96	48	3
NMSTR	16	0	7
NMSI_	16	0	7	96	48	4
NMSTR	16	192	7
NMSI_	16	192	7	96	48	2
NMHLD	17	0	0	672
BRSTR	17	0	7
NMSI_	17	0	7	96	48	5
NMSI_	17	0	7	288	48	3
NMSI_	17	0	7	480	48	4
NMSI_	17	0	7	672	48	2
NMSTR	17	192	7
NMSTR	18	0	7
NMSTR	18	192	7
BRSTR	19	0	1
NMSV_	19	0	1	96	48	7
NMHLD	19	0	6	672
NMSTR	19	192	1
NMSI_	19	192	1	96	48	5
NMSTR	20	0	1
NMSV_	20	0	1	96	48	4
NMSTR	20	192	1
NMSV_	20	192	1	96	48	3
BRSTR	21	0	1
NMSV_	21	0	1	96	48	7
NMSI_	21	0	1	288	48	5
NMSV_	21	0	1	480	48	4
NMSV_	21	0	1	672	48	3
NMHLD	21	0	6	672
NMSTR	21	192	1
NMSTR	22	0	1
NMSTR	22	192	1
NMHLD	23	0	1	672
BRSTR	23	0	6
NMSV_	23	0	6	96	48	4
NMSTR	23	192	6
NMSV_	23	192	6	96	48	0
NMSTR	24	0	6
NMSI_	24	0	6	96	48	2
NMSTR	24	192	6
NMSV_	24	192	6	96	48	3
NMHLD	25	0	1	672
BRSTR	25	0	6
NMSV_	25	0	6	96	48	4
NMSV_	25	0	6	288	48	0
NMSI_	25	0	6	480	48	2
NMSV_	25	0	6	672	48	3
NMSTR	25	192	6
NMSTR	26	0	6
NMSTR	26	192	6
NMSTR	27	0	3
NMSI_	27	0	3	96	48	1
NMHLD	27	0	4	288
NMSTR	27	192	3
NMSI_	27	192	3	96	48	7
NMSTR	28	0	3
NMSI_	28	0	3	96	48	1
NMSI_	28	0	3	288	48	7
NMHLD	28	0	4	288
NMSTR	28	192	3
NMHLD	29	0	3	288
NMSTR	29	0	4
NMSI_	29	0	4	96	48	1
NMSTR	29	192	4
NMSI_	29	192	4	96	48	7
NMHLD	30	0	3	288
NMSTR	30	0	4
NMSI_	30	0	4	96	48	1
NMSI_	30	0	4	288	48	7
NMSTR	30	192	4
NMSTR	31	0	3
NMSXR	31	0	3	96	48	1
NMHLD	31	0	4	288
NMSTR	31	192	3
NMSXL	31	192	3	96	48	5
NMSTR	32	0	3
NMSXR	32	0	3	96	48	1
NMSXL	32	0	3	288	48	5
NMHLD	32	0	4	288
NMSTR	32	192	3
NMHLD	33	0	3	288
NMSTR	33	0	4
NMSXR	33	0	4	96	48	2
NMSTR	33	192	4
NMSXL	33	192	4	96	48	6
NMHLD	34	0	3	288
NMSTR	34	0	4
NMSXR	34	0	4	96	48	2
NMSXL	34	0	4	288	48	6
NMSTR	34	192	4
NMSTR	35	0	3
NMSI_	35	0	3	96	48	1
NMHLD	35	0	4	576
NMSTR	35	192	5
NMSI_	35	192	5	96	48	7
NMSTR	36	0	0
NMSI_	36	0	0	96	48	3
NMSTR	36	96	0
NMSI_	36	96	0	96	48	5
NMSI_	37	0	0	480	48	3
NMSI_	37	0	0	576	48	5
NMSTR	37	0	3
NMSI_	37	0	3	96	48	1
NMHLD	37	0	4	576
NMSI_	37	0	5	288	48	7
NMSTR	37	192	5
NMSTR	38	0	0
NMSTR	38	96	0
NMHLD	39	0	3	576
NMSTR	39	0	4
NMSI_	39	0	4	96	48	6
NMSTR	39	192	2
NMSI_	39	192	2	96	48	0
NMSTR	40	0	7
NMSI_	40	0	7	96	48	4
NMSTR	40	96	7
NMSI_	40	96	7	96	48	2
NMSI_	41	0	2	288	48	0
NMHLD	41	0	3	576
NMSTR	41	0	4
NMSI_	41	0	4	96	48	6
NMSI_	41	0	7	480	48	4
NMSI_	41	0	7	576	48	2
NMSTR	41	192	2
NMSTR	42	0	7
NMSTR	42	96	7
NMSTR	43	0	4
NMSI_	43	0	4	96	48	2
NMHLD	43	0	5	1344
NMSTR	43	192	4
NMSI_	43	192	4	96	48	6
NMSTR	44	0	4
NMSI_	44	0	4	96	48	1
NMSTR	44	192	4
NMSI_	44	192	4	96	48	7
NMSTR	45	0	4
NMSI_	45	0	4	96	48	0
NMSTR	45	192	4
NMSI_	45	192	4	96	48	7
NMSTR	46	0	4
NMSI_	46	0	4	96	48	1
NMTAP	46	192	4
NMSTR	47	0	4
NMSI_	47	0	4	96	48	2
NMSI_	47	0	4	288	48	6
NMSI_	47	0	4	480	48	1
NMSI_	47	0	4	672	48	7
NMSI_	47	0	4	864	48	0
NMHLD	47	0	5	1344
NMSTR	47	192	4
NMSTR	48	0	4
NMSTR	48	192	4
NMSI_	48	192	4	672	48	1
NMSTR	49	0	4
NMSI_	49	0	4	288	48	7
NMSTR	49	192	4
NMSTR	50	0	4
NMTAP	50	192	4
NMSTR	51	0	4
NMSXR	51	0	4	96	240	1
NMHLD	51	0	5	672
NMSTR	52	0	1
NMSXR	52	0	1	96	240	6
NMSXR	53	0	1	480	240	6
NMSTR	53	0	4
NMSXR	53	0	4	96	240	1
NMHLD	53	0	5	672
NMSTR	54	0	1
NMHLD	55	0	2	672
NMSTR	55	0	3
NMSXR	55	0	3	96	240	0
NMSTR	56	0	0
NMSXR	56	0	0	96	240	5
NMSXR	57	0	0	480	240	5
NMHLD	57	0	2	672
NMSTR	57	0	3
NMSXR	57	0	3	96	240	0
NMSTR	58	0	0
NMTAP	59	0	3
NMTAP	59	0	4
NMSTR	60	0	3
NMSI_	60	0	3	96	48	5
NMHLD	60	0	7	672
NMSTR	60	192	2
NMSI_	60	192	2	96	48	6
NMSTR	61	0	3
NMSXR	61	0	3	96	192	0
NMSI_	62	0	2	288	48	6
NMSTR	62	0	3
NMSI_	62	0	3	96	48	5
NMSXR	62	0	3	480	192	0
NMHLD	62	0	7	672
NMSTR	62	192	2
NMSTR	63	0	3
NMHLD	64	0	0	672
NMSTR	64	0	5
NMSI_	64	0	5	96	48	1
NMSTR	64	192	4
NMSI_	64	192	4	96	48	6
NMSTR	65	0	4
NMSXL	65	0	4	96	192	7
NMHLD	66	0	0	672
NMSI_	66	0	4	288	48	6
NMSXL	66	0	4	480	192	7
NMSTR	66	0	5
NMSI_	66	0	5	96	48	1
NMSTR	66	192	4
NMSTR	67	0	4
NMSTR	68	0	0
NMSI_	68	0	0	96	48	5
NMHLD	68	0	4	576
NMSTR	68	192	5
NMSI_	68	192	5	96	48	2
NMSTR	69	0	0
NMSI_	69	0	0	96	48	5
NMSTR	69	96	0
NMSI_	69	96	0	96	48	3
NMSTR	70	0	0
NMSI_	70	0	0	96	48	5
NMSI_	70	0	0	576	48	3
NMHLD	70	0	4	576
NMSI_	70	0	5	288	48	2
NMSI_	70	192	0	288	48	5
NMSTR	70	192	5
NMSTR	71	0	0
NMSTR	71	96	0
NMHLD	72	0	3	576
NMSTR	72	0	7
NMSI_	72	0	7	96	48	2
NMSTR	72	192	2
NMSI_	72	192	2	96	48	5
NMSTR	73	0	7
NMSI_	73	0	7	96	48	4
NMSTR	73	96	7
NMSI_	73	96	7	96	48	2
NMSI_	74	0	2	288	48	5
NMHLD	74	0	3	576
NMSTR	74	0	7
NMSI_	74	0	7	96	48	2
NMSI_	74	0	7	480	48	4
NMSTR	74	192	2
NMSI_	74	192	7	384	48	2
NMSTR	75	0	7
NMSTR	75	96	7
NMHLD	76	0	6	672
NMSTR	76	0	7
NMSI_	76	0	7	96	48	3
NMSTR	76	192	3
NMSI_	76	192	3	96	48	7
NMSTR	77	0	0
NMSI_	77	0	0	96	48	2
NMSTR	77	96	0
NMSI_	77	96	0	96	48	4
NMSTR	77	192	0
NMSI_	77	192	0	96	48	5
NMSI_	78	0	0	480	48	2
NMSI_	78	0	0	576	48	4
NMSI_	78	0	0	672	48	5
NMSI_	78	0	3	288	48	7
NMHLD	78	0	6	672
NMSTR	78	0	7
NMSI_	78	0	7	96	48	3
NMSTR	78	192	3
NMSTR	79	0	0
NMSTR	79	96	0
NMSTR	79	192	0
NMSTR	80	0	0
NMSI_	80	0	0	96	48	4
NMHLD	80	0	1	672
NMSTR	80	192	4
NMSI_	80	192	4	96	48	0
NMSTR	81	0	7
NMSI_	81	0	7	96	48	2
NMSTR	81	96	7
NMSI_	81	96	7	96	48	3
NMSTR	81	192	7
NMSI_	81	192	7	96	48	5
NMSTR	82	0	0
NMSI_	82	0	0	96	48	4
NMHLD	82	0	1	672
NMSI_	82	0	4	288	48	0
NMSI_	82	0	7	480	48	2
NMSI_	82	0	7	576	48	3
NMSI_	82	0	7	672	48	5
NMSTR	82	192	4
NMSTR	83	0	7
NMSTR	83	96	7
NMSTR	83	192	7
NMSTR	84	0	3
NMSI_	84	0	3	96	48	6
NMHLD	84	0	4	288
NMSTR	84	192	2
NMSI_	84	192	2	96	48	7
NMSI_	85	0	2	288	48	7
NMSTR	85	0	3
NMSI_	85	0	3	96	48	6
NMHLD	85	0	4	288
NMSTR	85	192	2
NMHLD	86	0	3	288
NMSTR	86	0	4
NMSI_	86	0	4	96	48	1
NMSTR	86	192	5
NMSI_	86	192	5	96	48	0
NMHLD	87	0	3	288
NMSTR	87	0	4
NMSI_	87	0	4	96	48	1
NMSI_	87	0	5	288	48	0
NMSTR	87	192	5

T_REC_TAP	4
T_REC_BRK	0
T_REC_XTP	0
T_REC_BXX	0
T_REC_HLD	46
T_REC_XHO	0
T_REC_BHO	0
T_REC_BXH	0
T_REC_STR	142
T_REC_BST	12
T_REC_XST	0
T_REC_XBS	0
T_REC_TTP	0
T_REC_THO	0
T_REC_SLD	154
T_REC_BSL	0
T_REC_ALL	358
T_NUM_TAP	146
T_NUM_BRK	12
T_NUM_HLD	46
T_NUM_SLD	154
T_NUM_ALL	358
T_JUDGE_TAP	158
T_JUDGE_HLD	552
T_JUDGE_SLD	154
T_JUDGE_ALL	864
TTM_EACHPAIRS	47
TTM_SCR_TAP	73000
TTM_SCR_BRK	31200
TTM_SCR_HLD	46000
TTM_SCR_SLD	231000
TTM_SCR_ALL	381200
TTM_SCR_S	368600
TTM_SCR_SS	380000
TTM_RAT_ACV	10031

