VERSION	0.00.00	1.04.00
FES_MODE	1
BPM_DEF	134.000	134.000	134.000	134.000
MET_DEF	4	4
RESOLUTION	384
CLK_DEF	384
COMPATIBLE_CODE	MA2

BPM	0	0	134.000
MET	0	0	4	4

NMTAP	2	0	6
NMSLL	2	0	6	96	480	7
NMTAP	2	0	7
NMSTR	3	0	0
NMSTR	3	0	1
NMSLR	3	0	1	96	480	0
NMTAP	4	0	6
NMSLL	4	0	6	96	480	7
NMTAP	4	0	7
NMSTR	4	288	0
NMSTR	4	288	1
NMSTR	5	0	1
NMSTR	5	24	0
NMSTR	5	72	2
NMSTR	5	72	3
NMSTR	5	120	2
NMSTR	5	144	3
NMSTR	5	240	0
NMSTR	5	240	3
NMSTR	6	0	0
NMSTR	6	0	1
NMSLR	6	0	1	96	480	0
NMTAP	6	0	4
NMTAP	6	96	4
NMTAP	6	192	5
NMTAP	6	288	5
NMSTR	7	0	1
NMTAP	7	0	6
NMSLL	7	0	6	96	480	7
NMTAP	7	0	7
NMSTR	7	96	3
NMSTR	7	192	2
NMSTR	7	288	2
NMSTR	8	0	0
NMSTR	8	0	1
NMSLR	8	0	1	96	480	0
NMTAP	8	0	6
NMTAP	8	96	4
NMTAP	8	192	5
NMTAP	8	288	6
NMTAP	8	288	7
NMTAP	9	0	6
NMTAP	9	24	7
NMTAP	9	72	4
NMTAP	9	72	5
NMTAP	9	120	5
NMTAP	9	144	4
NMTAP	9	240	4
NMTAP	9	240	7
NMHLD	10	0	3	72
NMHLD	10	0	4	72
NMHLD	10	72	2	72
NMHLD	10	72	5	72
NMSTR	10	144	1
NMTAP	10	144	6
NMSTR	10	240	1
NMSTR	10	240	2
NMTAP	10	288	5
NMTAP	10	288	6
NMSTR	10	336	1
NMSTR	10	336	2
NMHLD	11	0	3	72
NMHLD	11	0	4	72
NMHLD	11	72	2	72
NMHLD	11	72	5	72
NMSTR	11	144	1
NMTAP	11	144	6
NMTAP	11	240	6
NMTAP	11	240	7
NMSTR	11	264	0
NMTAP	11	264	7
NMSTR	11	288	0
NMSTR	11	288	1
NMSTR	11	336	1
NMSTR	11	336	2
NMTAP	11	336	5
NMTAP	11	336	6
NMHLD	12	0	3	72
NMHLD	12	0	4	72
NMHLD	12	72	2	72
NMHLD	12	72	5	72
NMSTR	12	144	1
NMTAP	12	144	6
NMHLD	12	192	0	72
NMHLD	12	192	7	72
NMHLD	12	264	1	72
NMHLD	12	264	6	72
NMSTR	12	336	2
NMTAP	12	336	5
NMHLD	13	0	2	72
NMSTR	13	0	3
NMTAP	13	0	4
NMHLD	13	0	5	72
NMHLD	13	72	0	72
NMHLD	13	72	7	72
BRSTR	13	144	3
NMSI_	13	144	3	96	48	0
NMSI_	13	144	3	96	48	1
BRTAP	13	144	4
NMSI_	13	144	4	96	48	6
NMSI_	13	144	4	96	48	7
NMHLD	14	0	0	264
NMHLD	14	0	3	264
NMTAP	14	96	5
NMTAP	14	96	6
NMTAP	14	144	5
NMTAP	14	144	6
NMTAP	14	192	5
NMTAP	14	192	6
NMHLD	14	264	4	312
NMHLD	14	264	7	312
NMHLD	14	336	0	144
NMSTR	15	48	1
NMHLD	15	96	3	96
NMSTR	15	144	2
NMSTR	15	192	0
NMSI_	15	192	0	96	48	3
NMTAP	15	240	6
NMTAP	15	264	5
NMTAP	15	336	4
NMTAP	15	336	7
NMHLD	16	0	4	264
NMHLD	16	0	7	264
NMSTR	16	96	1
NMSTR	16	96	2
NMSTR	16	144	1
NMSTR	16	144	2
NMSTR	16	192	1
NMSTR	16	192	2
NMHLD	16	264	0	312
NMHLD	16	264	3	312
NMTAP	16	336	7
NMHLD	17	0	7	96
NMTAP	17	48	6
NMHLD	17	96	4	72
NMTAP	17	144	5
NMTAP	17	168	5
NMSI_	17	168	5	96	48	7
NMSTR	17	240	1
NMSTR	17	240	2
NMSTR	17	288	1
NMSTR	17	288	2
NMSTR	17	336	0
NMSTR	17	336	3
NMHLD	18	0	0	264
NMHLD	18	0	3	264
NMTAP	18	96	5
NMTAP	18	96	6
NMTAP	18	192	5
NMTAP	18	192	6
NMHLD	18	264	4	312
NMHLD	18	264	7	312
NMSTR	18	336	0
NMHLD	19	0	0	96
NMSTR	19	48	1
NMHLD	19	96	3	96
NMSTR	19	144	2
NMSTR	19	192	0
NMSI_	19	192	0	96	48	3
NMTAP	19	264	5
NMTAP	19	264	6
NMTAP	19	336	4
NMTAP	19	336	7
NMSTR	20	0	3
NMTAP	20	0	7
NMSCL	20	0	7	96	48	4
NMSTR	20	48	2
NMSTR	20	96	1
NMSTR	20	144	0
NMSTR	20	192	3
NMSCL	20	192	3	96	48	0
NMTAP	20	192	7
NMTAP	20	240	6
NMTAP	20	288	5
NMTAP	20	336	4
NMSTR	21	0	3
NMTAP	21	0	7
NMSCL	21	0	7	96	48	4
NMSTR	21	48	2
NMSTR	21	96	1
NMSTR	21	144	0
NMSTR	21	192	0
NMSI_	21	192	0	96	48	2
NMSTR	21	192	3
NMSI_	21	192	3	96	48	1
NMTAP	21	192	4
NMSI_	21	192	4	96	48	6
NMTAP	21	192	7
NMSI_	21	192	7	96	48	5
NMHLD	22	0	4	264
NMHLD	22	0	7	264
NMSTR	22	96	1
NMSTR	22	96	2
NMSTR	22	192	1
NMSTR	22	192	2
NMHLD	22	264	0	312
NMHLD	22	264	3	312
NMHLD	22	336	7	144
NMTAP	23	48	6
NMHLD	23	96	4	96
NMTAP	23	144	5
NMTAP	23	192	7
NMSI_	23	192	7	96	48	4
NMSTR	23	240	1
NMSTR	23	264	2
NMSTR	23	336	0
NMSTR	23	336	3
NMHLD	24	0	0	264
NMHLD	24	0	3	264
NMTAP	24	96	5
NMTAP	24	96	6
NMTAP	24	144	4
NMTAP	24	144	6
NMTAP	24	192	5
NMTAP	24	192	7
NMHLD	24	264	4	312
NMHLD	24	264	7	312
NMSTR	24	336	0
NMHLD	25	0	0	96
NMSTR	25	48	1
NMHLD	25	96	3	72
NMSTR	25	144	2
NMSTR	25	168	2
NMSI_	25	168	2	96	48	0
NMTAP	25	240	5
NMTAP	25	240	6
NMTAP	25	288	5
NMTAP	25	288	6
NMTAP	25	336	4
NMTAP	25	336	7
NMHLD	26	0	4	264
NMHLD	26	0	7	264
NMSTR	26	96	1
NMSTR	26	96	2
NMSTR	26	144	1
NMSTR	26	144	3
NMSTR	26	192	0
NMSTR	26	192	2
NMHLD	26	264	0	312
NMHLD	26	264	3	312
NMTAP	26	336	7
NMHLD	27	0	7	96
NMTAP	27	48	6
NMHLD	27	96	4	96
NMTAP	27	144	5
NMTAP	27	192	7
NMSI_	27	192	7	96	48	4
NMSTR	27	264	1
NMSTR	27	264	2
NMSTR	27	336	0
NMSTR	27	336	3
NMSTR	28	0	0
NMSCR	28	0	0	96	48	3
NMTAP	28	0	4
NMTAP	28	48	5
NMTAP	28	96	6
NMTAP	28	144	7
NMSTR	28	192	0
NMTAP	28	192	4
NMSCR	28	192	4	96	48	7
NMSTR	28	240	1
NMSTR	28	288	2
NMSTR	28	336	3
NMSTR	29	0	0
NMSF_	29	0	0	96	144	4
NMTAP	29	0	7
NMSF_	29	0	7	96	144	3
NMTAP	29	336	4
NMSTR	30	0	0
NMHLD	30	0	3	528
NMHLD	30	0	4	72
NMSTR	30	72	0
NMHLD	30	72	5	72
NMSTR	30	144	0
NMTAP	30	144	6
NMSTR	30	240	1
NMTAP	30	240	4
NMTAP	30	240	7
NMSTR	30	288	1
NMTAP	30	336	7
NMSTR	31	0	0
NMHLD	31	0	7	72
NMSTR	31	72	0
NMHLD	31	72	6	72
NMSTR	31	144	0
NMTAP	31	144	5
NMTAP	31	240	4
NMTAP	31	240	7
NMTAP	31	288	4
NMTAP	31	288	7
NMHLD	31	312	4	600
NMTAP	31	312	7
NMSTR	31	336	3
NMHLD	32	0	3	72
NMTAP	32	0	7
NMHLD	32	72	2	72
NMTAP	32	72	7
NMSTR	32	144	1
NMTAP	32	144	7
NMSTR	32	240	0
NMSTR	32	240	3
NMTAP	32	240	6
NMSTR	32	288	0
NMSTR	32	288	3
NMTAP	32	288	6
NMSTR	32	336	1
NMSTR	33	0	1
NMTAP	33	0	7
NMSTR	33	48	2
NMTAP	33	72	7
NMSTR	33	96	2
NMHLD	33	144	0	168
NMSTR	33	144	3
NMTAP	33	144	7
NMTAP	33	240	4
NMSTR	33	264	3
NMTAP	33	288	4
NMHLD	33	312	3	600
NMTAP	33	336	4
NMSTR	34	0	0
NMHLD	34	0	4	72
NMSTR	34	72	0
NMHLD	34	72	5	72
NMSTR	34	144	0
NMTAP	34	144	6
NMSTR	34	240	1
NMTAP	34	240	4
NMTAP	34	240	7
NMSTR	34	288	1
NMTAP	34	336	6
NMSTR	35	0	0
NMTAP	35	0	6
NMTAP	35	48	5
NMSTR	35	72	0
NMTAP	35	96	5
NMSTR	35	144	0
NMTAP	35	144	4
NMTAP	35	144	7
NMTAP	35	240	7
NMSTR	35	264	0
NMTAP	35	288	6
NMSTR	35	312	1
NMTAP	35	336	5
NMSTR	35	360	2
NMSTR	36	0	3
NMTAP	36	0	4
NMSTR	36	48	3
NMTAP	36	72	4
NMTAP	36	120	4
NMSTR	36	144	3
NMSTR	36	240	0
NMTAP	36	240	7
NMSTR	36	288	1
NMTAP	36	288	6
NMSTR	36	336	2
NMTAP	36	336	5
BRTAP	37	0	4
BRTAP	37	0	6
BRSTR	37	72	1
BRSTR	37	72	3
BRSTR	37	144	0
BRTAP	37	144	7
NMTAP	37	240	7
NMSTR	37	288	1
NMTAP	37	288	6
NMSTR	37	312	2
NMTAP	37	336	5
NMHLD	38	0	3	72
NMHLD	38	0	4	72
NMHLD	38	72	0	72
NMHLD	38	72	7	72
NMSTR	38	144	3
NMTAP	38	144	6
NMSCL	38	144	6	96	48	4
NMSTR	38	240	1
NMTAP	38	240	7
NMSTR	38	288	2
NMSTR	38	336	1
NMTAP	38	336	7
NMHLD	39	0	0	72
NMHLD	39	0	7	72
NMHLD	39	72	3	72
NMHLD	39	72	4	72
NMSTR	39	144	0
NMTAP	39	144	5
NMSCR	39	144	5	96	48	7
NMSTR	39	240	1
NMTAP	39	240	4
NMSTR	39	264	2
NMSTR	39	288	1
NMSTR	39	336	0
NMSTR	39	336	3
NMTAP	39	336	7
NMSTR	40	0	2
NMSI_	40	0	2	96	48	0
NMSTR	40	0	3
NMSI_	40	0	3	96	48	0
NMHLD	40	0	7	72
NMHLD	40	72	6	72
NMTAP	40	144	5
NMSTR	40	192	0
NMSI_	40	192	0	96	48	3
NMSTR	40	192	1
NMSI_	40	192	1	96	48	3
NMHLD	40	192	4	72
NMHLD	40	264	5	72
NMTAP	40	336	6
NMHLD	41	0	0	72
NMHLD	41	0	7	72
NMHLD	41	72	2	72
NMHLD	41	72	6	72
NMSTR	41	144	1
NMTAP	41	144	5
NMSTR	41	192	1
NMTAP	41	192	4
NMTAP	41	192	7
NMSTR	41	216	2
NMSTR	41	264	0
NMSTR	41	264	3
NMSTR	41	312	1
NMSTR	41	312	2
NMHLD	42	0	3	72
NMHLD	42	0	4	72
NMHLD	42	72	0	72
NMHLD	42	72	7	72
NMSTR	42	144	1
NMSCR	42	144	1	96	48	3
NMTAP	42	144	4
NMSTR	42	240	0
NMTAP	42	240	6
NMTAP	42	288	5
NMSTR	42	336	0
NMTAP	42	336	6
NMHLD	43	0	0	72
NMHLD	43	0	7	72
NMHLD	43	72	3	72
NMHLD	43	72	4	72
NMSTR	43	144	2
NMTAP	43	144	7
NMSTR	43	192	0
NMSTR	43	192	3
NMSTR	43	240	1
NMTAP	43	240	6
NMSTR	43	264	2
NMTAP	43	264	5
NMTAP	43	288	6
NMSTR	43	336	0
NMTAP	43	336	4
NMTAP	43	336	7
NMHLD	44	0	0	72
NMTAP	44	0	4
NMSXL	44	0	4	96	96	7
NMHLD	44	72	1	72
NMSTR	44	144	2
NMSTR	44	240	3
NMTAP	44	240	4
NMSTR	44	288	2
NMTAP	44	288	5
NMSTR	44	336	1
NMTAP	44	336	6
NMSTR	45	0	0
NMTAP	45	0	7
NMSTR	45	72	2
NMTAP	45	72	5
NMTAP	45	264	4
NMSTR	45	288	3
NMTAP	46	0	6
NMTAP	46	0	7
NMHLD	46	72	6	264
NMHLD	46	72	7	264
NMSTR	46	144	2
NMSTR	46	168	3
NMSTR	46	192	1
NMSTR	46	240	2
NMSTR	46	240	4
NMSTR	46	288	2
NMSTR	46	288	4
NMSTR	46	336	1
NMSTR	46	336	3
NMSTR	47	0	1
NMSTR	47	0	3
NMTAP	47	0	6
NMTAP	47	0	7
NMSTR	47	72	2
NMSTR	47	72	3
NMHLD	47	72	6	264
NMHLD	47	72	7	264
NMSTR	47	144	1
NMSTR	47	144	3
NMSTR	47	192	1
NMSTR	47	192	2
NMSTR	47	240	3
NMSTR	47	240	4
NMSTR	47	288	2
NMSTR	47	288	4
NMSTR	47	336	1
NMSTR	47	336	3
NMSTR	48	0	1
NMSTR	48	0	2
NMTAP	48	0	6
NMTAP	48	0	7
NMSTR	48	72	1
NMSTR	48	72	2
NMHLD	48	72	6	264
NMHLD	48	72	7	264
NMSTR	48	128	2
NMSTR	48	144	3
NMSTR	48	160	2
NMSTR	48	176	3
NMSTR	48	192	1
NMSTR	48	240	1
NMSTR	48	264	2
NMSTR	48	288	3
NMSTR	48	312	2
NMSTR	48	336	1
NMSTR	49	0	2
NMSTR	49	0	3
NMTAP	49	0	6
NMTAP	49	0	7
NMSTR	49	72	2
NMSTR	49	72	3
NMHLD	49	72	6	264
NMHLD	49	72	7	264
NMSTR	49	144	0
NMSTR	49	144	1
NMSTR	49	240	1
NMSTR	49	240	4
NMSTR	50	0	0
NMSTR	50	0	1
NMHLD	50	72	0	264
NMHLD	50	72	1	264
NMTAP	50	144	5
NMTAP	50	144	6
NMTAP	50	192	3
NMTAP	50	192	5
NMTAP	50	264	3
NMTAP	50	264	5
NMTAP	50	312	6
NMTAP	50	336	5
NMTAP	50	360	6
NMSTR	51	0	0
NMSTR	51	0	1
NMTAP	51	0	4
NMHLD	51	72	0	264
NMHLD	51	72	1	264
NMTAP	51	72	4
NMTAP	51	72	5
NMTAP	51	96	4
NMTAP	51	96	5
NMTAP	51	168	3
NMTAP	51	168	4
NMTAP	51	240	5
NMTAP	51	240	6
NMTAP	51	288	6
NMTAP	51	312	5
NMTAP	51	336	4
NMSTR	52	0	0
NMSTR	52	0	1
NMTAP	52	0	4
NMTAP	52	0	5
NMHLD	52	72	0	384
NMHLD	52	72	1	384
NMTAP	52	72	4
NMTAP	52	72	5
NMTAP	52	144	3
NMTAP	52	144	6
NMTAP	52	192	4
NMTAP	52	240	4
NMTAP	52	264	5
NMTAP	52	312	5
NMTAP	52	336	4
NMTAP	53	0	3
NMTAP	53	0	4
NMHLD	53	72	3	264
NMHLD	53	72	4	264
NMSTR	53	144	0
NMSTR	53	144	7
NMHLD	53	240	0	96
NMHLD	53	240	7	96
NMSTR	54	0	0
NMTAP	54	0	3
NMTAP	54	0	4
NMSTR	54	0	7
NMSTR	54	72	0
NMTAP	54	72	3
NMTAP	54	72	4
NMSTR	54	72	7
NMSTR	54	144	0
NMSTR	54	144	1
NMTAP	54	144	4
NMSCL	54	144	4	96	48	2
NMTAP	54	144	5
NMTAP	54	240	5
NMSTR	54	240	7
NMSTR	54	288	0
NMTAP	54	336	5
NMSTR	54	336	7
NMSTR	55	0	0
NMTAP	55	0	2
NMTAP	55	0	5
NMSTR	55	0	7
NMSTR	55	72	0
NMTAP	55	72	2
NMTAP	55	72	5
NMSTR	55	72	7
NMTAP	55	144	2
NMTAP	55	144	3
NMSCR	55	144	3	96	48	5
NMSTR	55	144	6
NMSTR	55	144	7
NMTAP	55	240	2
NMSTR	55	240	7
NMSTR	55	264	0
NMSTR	55	288	7
NMSTR	55	336	1
NMTAP	55	336	5
NMSTR	55	336	6
NMSTR	56	0	0
NMSI_	56	0	0	96	48	6
NMSTR	56	0	1
NMSI_	56	0	1	96	48	6
NMTAP	56	0	2
NMHLD	56	0	5	72
NMHLD	56	72	4	72
NMTAP	56	144	3
NMHLD	56	192	2	72
NMTAP	56	192	5
NMSTR	56	192	6
NMSI_	56	192	6	96	48	1
NMSTR	56	192	7
NMSI_	56	192	7	96	48	1
NMHLD	56	264	3	72
NMTAP	56	336	4
NMTAP	57	0	2
NMHLD	57	0	5	72
NMHLD	57	0	6	72
NMHLD	57	72	0	72
NMHLD	57	72	4	72
NMTAP	57	144	3
NMSTR	57	144	7
NMTAP	57	192	2
NMTAP	57	192	5
NMSTR	57	192	7
NMSTR	57	216	0
NMSTR	57	264	1
NMSTR	57	264	6
NMSTR	57	312	0
NMSTR	57	312	7
NMHLD	58	0	1	72
NMHLD	58	0	2	72
NMTAP	58	0	5
NMSTR	58	0	6
NMHLD	58	72	5	72
NMHLD	58	72	6	72
NMTAP	58	144	2
NMSTR	58	144	7
NMSCR	58	144	7	96	48	1
NMTAP	58	240	4
NMSTR	58	240	6
NMTAP	58	288	3
NMTAP	58	336	4
NMSTR	58	336	6
NMSTR	59	0	1
NMTAP	59	0	2
NMHLD	59	0	5	72
NMHLD	59	0	6	72
NMHLD	59	72	1	72
NMHLD	59	72	2	72
NMSTR	59	144	0
NMTAP	59	144	5
NMSTR	59	192	1
NMSTR	59	192	6
NMTAP	59	240	4
NMSTR	59	240	7
NMSTR	59	264	0
NMTAP	59	264	3
NMTAP	59	288	4
NMTAP	59	336	2
NMTAP	59	336	5
NMSTR	59	336	6
NMTAP	60	0	2
NMSXL	60	0	2	96	96	5
NMHLD	60	0	6	72
NMHLD	60	72	7	72
NMSTR	60	144	0
NMSTR	60	240	1
NMTAP	60	240	2
NMSTR	60	288	0
NMTAP	60	288	3
NMTAP	60	336	4
NMSTR	60	336	7
BRTAP	61	0	4
BRTAP	61	0	5
BRSTR	61	0	6
BRTAP	61	72	3
BRTAP	61	72	5
BRSTR	61	72	7
BRSTR	61	144	0
BRTAP	61	144	2
BRTAP	61	144	4
BRSTR	61	192	0
BRSTR	61	192	1
BRTAP	61	192	2
BRSTR	61	264	1
BRTAP	61	264	3
BRSTR	61	264	7
BRSTR	61	336	0
BRTAP	61	336	4
BRSTR	61	336	6
NMSTR	62	0	1
NMTAP	62	0	2
NMHLD	62	0	5	72
NMHLD	62	0	6	72
NMHLD	62	72	1	72
NMHLD	62	72	2	72
NMSTR	62	144	0
NMSCL	62	144	0	96	48	6
NMTAP	62	144	5
NMSTR	62	240	1
NMTAP	62	240	3
NMTAP	62	288	4
NMSTR	62	336	1
NMTAP	62	336	3
NMHLD	63	0	1	72
NMHLD	63	0	2	72
NMTAP	63	0	4
NMSTR	63	0	6
NMHLD	63	72	5	72
NMHLD	63	72	6	72
NMTAP	63	144	2
NMSTR	63	144	7
NMSCR	63	144	7	96	48	1
NMTAP	63	240	3
NMSTR	63	240	6
NMTAP	63	264	4
NMTAP	63	288	3
NMSTR	63	336	1
NMTAP	63	336	2
NMTAP	63	336	5
NMHLD	64	0	1	72
NMTAP	64	0	4
NMSI_	64	0	4	96	48	2
NMTAP	64	0	5
NMSI_	64	0	5	96	48	2
NMSTR	64	0	6
NMHLD	64	72	0	72
NMSTR	64	144	7
NMSTR	64	192	1
NMTAP	64	192	2
NMSI_	64	192	2	96	48	5
NMTAP	64	192	3
NMSI_	64	192	3	96	48	5
NMHLD	64	192	6	72
NMHLD	64	264	7	72
NMSTR	64	336	0
NMHLD	65	0	1	72
NMHLD	65	0	2	72
NMSTR	65	0	6
NMHLD	65	72	0	72
NMHLD	65	72	4	72
NMTAP	65	144	3
NMSTR	65	144	7
NMSTR	65	192	1
NMTAP	65	192	3
NMSTR	65	192	6
NMTAP	65	216	4
NMTAP	65	264	2
NMTAP	65	264	5
NMTAP	65	312	3
NMTAP	65	312	4
NMSTR	66	0	1
NMTAP	66	0	2
NMHLD	66	0	5	72
NMHLD	66	0	6	72
NMHLD	66	72	1	72
NMHLD	66	72	2	72
NMTAP	66	144	3
NMSCR	66	144	3	96	48	5
NMSTR	66	144	6
NMSTR	66	240	0
NMTAP	66	240	2
NMSTR	66	288	7
NMSTR	66	336	0
NMTAP	66	336	2
NMHLD	67	0	1	72
NMHLD	67	0	2	72
NMTAP	67	0	5
NMSTR	67	0	6
NMHLD	67	72	5	72
NMHLD	67	72	6	72
NMSTR	67	144	1
NMTAP	67	144	4
NMTAP	67	192	2
NMTAP	67	192	5
NMSTR	67	240	0
NMTAP	67	240	3
NMTAP	67	264	4
NMSTR	67	264	7
NMSTR	67	288	0
NMSTR	67	336	1
NMTAP	67	336	2
NMSTR	67	336	6
NMHLD	68	0	2	72
NMSTR	68	0	6
NMSXL	68	0	6	96	96	1
NMHLD	68	72	3	72
NMTAP	68	144	4
NMTAP	68	240	5
NMSTR	68	240	6
NMTAP	68	288	4
NMSTR	68	288	7
NMSTR	68	336	0
NMTAP	68	336	3
NMSTR	69	0	1
NMTAP	69	0	2
NMHLD	69	72	0	264
NMHLD	69	72	7	264
NMTAP	69	144	2
NMTAP	69	192	2
NMSCR	69	192	2	96	48	5
NMSTR	70	0	0
NMSTR	70	0	7
NMHLD	70	72	0	264
NMHLD	70	72	7	264
NMTAP	70	144	5
NMTAP	70	144	6
NMTAP	70	192	5
NMSI_	70	192	5	96	48	1
NMTAP	70	192	6
NMSI_	70	192	6	96	48	2
NMSTR	71	0	0
NMSTR	71	0	7
NMSTR	71	96	0
NMTAP	71	96	2
NMSCR	71	96	2	96	48	5
NMTAP	71	96	5
NMSTR	71	96	7
BRTAP	71	192	5
NMSTR	71	192	6
NMSCR	71	192	6	96	48	1
BRSTR	71	288	1
NMTAP	72	0	3
NMTAP	72	0	4
NMSTR	72	72	0
NMSTR	72	72	7
NMTAP	72	144	3
NMTAP	72	144	4
NMSTR	72	240	1
NMTAP	72	240	2
NMTAP	72	240	5
NMSTR	72	240	6
BRSTR	72	336	0
BRTAP	72	336	3
BRTAP	72	336	4
BRSTR	72	336	7

T_REC_TAP	296
T_REC_BRK	16
T_REC_XTP	0
T_REC_BXX	0
T_REC_HLD	160
T_REC_XHO	0
T_REC_BHO	0
T_REC_BXH	0
T_REC_STR	311
T_REC_BST	16
T_REC_XST	0
T_REC_XBS	0
T_REC_TTP	0
T_REC_THO	0
T_REC_SLD	56
T_REC_BSL	0
T_REC_ALL	855
T_NUM_TAP	607
T_NUM_BRK	32
T_NUM_HLD	160
T_NUM_SLD	56
T_NUM_ALL	855
T_JUDGE_TAP	639
T_JUDGE_HLD	547
T_JUDGE_SLD	56
T_JUDGE_ALL	1242
TTM_EACHPAIRS	271
TTM_SCR_TAP	303500
TTM_SCR_BRK	83200
TTM_SCR_HLD	160000
TTM_SCR_SLD	84000
TTM_SCR_ALL	630700
TTM_SCR_S	608700
TTM_SCR_SS	627500
TTM_RAT_ACV	10050

