VERSION	0.00.00	1.04.00
FES_MODE	1
BPM_DEF	225.500	225.500	225.500	225.500
MET_DEF	4	4
RESOLUTION	384
CLK_DEF	384
COMPATIBLE_CODE	MA2

BPM	0	0	225.500
MET	0	0	4	4

NMTAP	3	0	7
NMTAP	3	32	0
NMTAP	3	64	1
NMTAP	3	96	7
NMTAP	3	128	0
NMTAP	3	160	1
NMTAP	3	192	7
NMTAP	3	224	0
NMTAP	3	256	1
NMTAP	3	288	7
NMTAP	3	352	0
NMTAP	4	0	7
NMTAP	4	32	0
NMTAP	4	64	1
NMTAP	4	96	7
NMTAP	4	128	0
NMTAP	4	160	1
NMTAP	4	192	7
NMTAP	4	224	6
NMTAP	4	256	5
NMTAP	4	288	4
NMTAP	5	0	0
NMTAP	5	32	7
NMTAP	5	64	6
NMTAP	5	96	0
NMTAP	5	128	7
NMTAP	5	160	6
NMTAP	5	192	0
NMTAP	5	224	7
NMTAP	5	256	6
NMTAP	5	288	0
NMTAP	5	352	7
NMTAP	6	0	0
NMTAP	6	32	7
NMTAP	6	64	6
NMTAP	6	96	0
NMTAP	6	128	7
NMTAP	6	160	6
NMTAP	6	192	0
NMTAP	6	224	1
NMTAP	6	256	2
NMTAP	6	288	3
NMTAP	7	0	7
NMTAP	7	32	0
NMTAP	7	64	1
NMTAP	7	96	7
NMTAP	7	128	0
NMTAP	7	160	1
NMTAP	7	192	7
NMTAP	7	224	0
NMTAP	7	256	1
NMTAP	7	288	7
NMTAP	7	352	0
NMTAP	8	0	7
NMTAP	8	32	0
NMTAP	8	64	1
NMTAP	8	96	7
NMTAP	8	128	0
NMTAP	8	160	1
NMTAP	8	192	7
NMTAP	8	224	6
NMTAP	8	256	5
NMTAP	8	288	4
BRTAP	9	0	0
NMTAP	9	32	7
NMTAP	9	64	6
NMTAP	9	96	0
NMTAP	9	160	7
BRTAP	9	192	0
NMTAP	9	224	7
NMTAP	9	256	6
NMTAP	9	288	0
NMTAP	9	352	7
BRTAP	10	0	0
NMTAP	10	24	7
NMTAP	10	48	0
NMTAP	10	72	7
BRTAP	10	96	0
NMTAP	10	120	7
NMTAP	10	144	0
NMTAP	10	168	7
BRTAP	10	192	0
NMTAP	10	216	7
NMTAP	10	240	0
NMTAP	10	264	7
BRTAP	10	288	0
NMTAP	10	312	7
NMTAP	10	336	0
NMTAP	10	360	7
NMTAP	11	0	1
NMTAP	11	24	0
NMTAP	11	48	7
NMTAP	11	72	6
NMTAP	11	96	5
NMTAP	11	120	4
NMTAP	11	144	3
NMTAP	11	168	2
NMTAP	11	192	6
NMTAP	11	216	7
NMTAP	11	240	0
NMTAP	11	264	1
NMTAP	11	288	2
NMTAP	11	312	3
NMTAP	11	336	4
NMTAP	11	360	5
NMTAP	12	0	0
NMTAP	12	16	7
NMTAP	12	32	6
NMTAP	12	48	5
NMTAP	12	64	4
NMTAP	12	80	3
NMTAP	12	96	2
NMTAP	12	112	1
NMTAP	12	128	0
NMTAP	12	144	7
NMTAP	12	160	6
NMTAP	12	176	5
NMTAP	12	192	0
NMTAP	12	240	0
NMTAP	12	288	1
NMTAP	12	336	1
NMHLD	13	0	0	240
NMTAP	13	240	3
NMTAP	13	288	3
NMTAP	13	336	2
NMSTR	14	0	1
NMSCR	14	0	1	96	96	4
NMSTR	14	96	4
NMSCR	14	96	4	96	96	7
NMSTR	14	192	7
NMSCR	14	192	7	96	96	2
NMHLD	15	0	0	240
NMTAP	15	240	3
NMTAP	15	288	3
NMTAP	15	336	2
NMSTR	16	0	1
NMSCL	16	0	1	96	96	6
NMSTR	16	96	6
NMSCL	16	96	6	96	96	3
NMSTR	16	192	3
NMSCL	16	192	3	96	96	0
NMHLD	17	0	6	96
NMHLD	17	96	1	96
NMHLD	17	192	7	96
NMHLD	17	288	0	96
NMTAP	18	0	7
NMTAP	18	72	0
NMTAP	18	72	7
NMTAP	18	144	0
NMTAP	18	144	7
NMTAP	18	192	1
NMTAP	18	192	6
NMTAP	19	0	6
NMTAP	19	0	7
NMTAP	19	96	0
NMTAP	19	96	5
NMTAP	19	192	1
NMTAP	19	192	4
NMTAP	19	288	2
NMTAP	19	288	3
NMSTR	20	0	3
NMSI_	20	0	3	96	96	7
NMSTR	20	96	7
NMSI_	20	96	7	96	96	3
NMSTR	20	192	3
NMSI_	20	192	3	96	48	1
NMSI_	20	192	3	96	48	5
NMHLD	21	0	7	240
NMTAP	21	240	4
NMTAP	21	288	4
NMTAP	21	336	5
NMSTR	22	0	6
NMSCL	22	0	6	96	96	3
NMSTR	22	96	3
NMSCL	22	96	3	96	96	0
NMSTR	22	192	0
NMSCL	22	192	0	96	96	5
NMHLD	23	0	7	240
NMTAP	23	240	4
NMTAP	23	288	4
NMTAP	23	336	5
NMSTR	24	0	6
NMSCR	24	0	6	96	96	1
NMSTR	24	96	1
NMSCR	24	96	1	96	96	4
NMSTR	24	192	4
NMSCR	24	192	4	96	96	7
NMHLD	25	0	1	96
NMHLD	25	96	6	96
NMHLD	25	192	0	96
NMHLD	25	288	7	96
NMTAP	26	0	0
NMTAP	26	72	0
NMTAP	26	72	7
NMTAP	26	144	0
NMTAP	26	144	7
NMTAP	26	192	1
NMTAP	26	192	6
NMTAP	27	0	0
NMTAP	27	48	7
NMTAP	27	96	0
NMTAP	27	144	7
NMTAP	27	192	1
NMTAP	27	240	6
NMTAP	27	288	1
NMTAP	27	336	6
NMTAP	28	0	0
NMTAP	28	24	7
NMTAP	28	48	0
NMTAP	28	72	7
NMTAP	28	96	0
NMTAP	28	120	7
NMTAP	28	144	0
NMTAP	28	168	7
NMTAP	28	192	1
NMTAP	28	216	6
NMTAP	28	240	1
NMTAP	28	264	6
NMTAP	28	288	1
NMTAP	28	312	6
NMTAP	28	336	1
NMTAP	28	360	6
NMTAP	29	0	0
NMTAP	29	16	7
NMTAP	29	32	6
NMTAP	29	48	5
NMTAP	29	64	4
NMTAP	29	80	3
NMTAP	29	96	2
NMTAP	29	112	1
NMTAP	29	128	0
NMTAP	29	144	7
NMTAP	29	160	6
NMTAP	29	176	5
BRTAP	29	192	4
NMTAP	30	0	0
NMSTR	30	0	7
NMSCL	30	0	7	96	48	5
NMTAP	30	48	0
NMTAP	30	96	1
NMTAP	30	96	7
NMTAP	30	192	0
NMSTR	30	192	7
NMSI_	30	192	7	96	48	4
NMTAP	30	240	0
NMTAP	30	288	1
NMTAP	30	288	7
NMTAP	31	0	1
NMSTR	31	0	7
NMSCL	31	0	7	96	48	5
NMTAP	31	48	1
NMTAP	31	96	2
NMTAP	31	96	7
NMTAP	31	144	2
NMTAP	31	192	3
NMSTR	31	192	7
NMSI_	31	192	7	96	48	4
NMTAP	31	240	3
NMTAP	31	288	2
NMTAP	31	288	7
NMTAP	32	0	1
NMSTR	32	0	7
NMSCL	32	0	7	96	48	5
NMTAP	32	48	1
NMTAP	32	96	2
NMTAP	32	96	7
NMTAP	32	144	2
NMTAP	32	192	1
NMSTR	32	192	7
NMSI_	32	192	7	96	48	4
NMTAP	32	240	1
NMTAP	32	288	2
NMTAP	32	288	7
NMTAP	32	336	2
NMTAP	33	0	1
NMSTR	33	0	7
NMSCL	33	0	7	96	48	5
NMTAP	33	48	1
NMTAP	33	96	0
NMTAP	33	96	7
NMTAP	33	144	0
NMTAP	33	160	1
NMTAP	33	176	2
NMTAP	33	192	3
NMSTR	33	192	7
NMSI_	33	192	7	96	48	4
NMTAP	33	264	3
NMTAP	33	288	7
NMTAP	33	336	2
NMTAP	34	0	1
NMSTR	34	0	7
NMSCL	34	0	7	96	48	5
NMTAP	34	48	1
NMTAP	34	96	4
NMTAP	34	96	7
NMTAP	34	112	3
NMTAP	34	128	2
NMTAP	34	144	1
NMTAP	34	192	1
NMSTR	34	192	7
NMSI_	34	192	7	96	48	4
NMTAP	34	240	1
NMTAP	34	288	0
NMTAP	34	288	7
NMTAP	35	0	1
NMSTR	35	0	7
NMSCL	35	0	7	96	48	5
NMTAP	35	48	1
NMTAP	35	96	0
NMTAP	35	96	7
NMTAP	35	144	0
NMTAP	35	160	1
NMTAP	35	176	2
NMTAP	35	192	3
NMSTR	35	192	7
NMSI_	35	192	7	96	48	4
NMTAP	35	240	3
NMTAP	35	288	2
NMTAP	35	288	7
NMTAP	35	336	2
NMTAP	36	0	1
NMSTR	36	0	7
NMSCL	36	0	7	96	48	5
NMTAP	36	96	1
NMTAP	36	96	7
NMTAP	36	192	2
NMSTR	36	192	7
NMSI_	36	192	7	96	48	4
NMTAP	36	288	3
NMTAP	36	288	7
NMTAP	37	0	0
NMSTR	37	0	7
NMSCL	37	0	7	96	48	5
NMTAP	37	48	0
NMTAP	37	96	1
NMTAP	37	96	7
NMTAP	37	144	1
NMTAP	37	192	0
NMTAP	37	192	7
NMTAP	37	240	0
NMTAP	37	288	0
NMSTR	37	288	7
NMSCL	37	288	7	96	48	5
NMTAP	38	0	2
NMSTR	38	0	7
NMSI_	38	0	7	96	48	4
NMTAP	38	48	2
NMTAP	38	96	3
NMSTR	38	96	7
NMSCL	38	96	7	96	48	5
NMTAP	38	144	3
NMTAP	38	192	2
NMSTR	38	192	7
NMSI_	38	192	7	96	48	4
NMTAP	38	240	2
NMTAP	38	288	3
NMSTR	38	288	7
NMSCL	38	288	7	96	48	5
NMTAP	38	336	3
NMTAP	39	0	1
NMSTR	39	0	7
NMSI_	39	0	7	96	48	4
NMTAP	39	48	1
NMTAP	39	96	0
NMSTR	39	96	7
NMSCL	39	96	7	96	48	5
NMTAP	39	144	0
NMTAP	39	192	1
NMSTR	39	192	7
NMSI_	39	192	7	96	48	4
NMTAP	39	240	1
NMTAP	39	288	0
NMSTR	39	288	7
NMSCL	39	288	7	96	48	5
NMTAP	39	336	0
NMTAP	40	0	2
NMSTR	40	0	7
NMSI_	40	0	7	96	48	4
NMTAP	40	48	2
NMTAP	40	96	3
NMSTR	40	96	7
NMSCL	40	96	7	96	48	5
NMTAP	40	144	3
NMTAP	40	192	1
NMSTR	40	192	7
NMSI_	40	192	7	96	48	4
NMTAP	40	240	1
NMSTR	40	288	0
NMSCR	40	288	0	96	48	2
NMSTR	40	288	7
NMSCL	40	288	7	96	48	5
NMTAP	40	336	0
NMSTR	41	0	0
NMSI_	41	0	0	96	48	3
NMSTR	41	0	7
NMSI_	41	0	7	96	48	4
NMSTR	41	96	0
NMSI_	41	96	0	96	48	5
NMSTR	41	96	7
NMSI_	41	96	7	96	48	2
NMTAP	41	192	0
NMTAP	41	192	7
NMTAP	42	0	0
NMTAP	42	0	4
NMTAP	42	96	0
NMTAP	42	96	5
NMTAP	42	192	0
NMTAP	42	192	6
NMTAP	42	288	0
NMTAP	43	0	0
NMTAP	43	0	5
NMTAP	43	96	0
NMTAP	43	96	6
NMTAP	43	192	0
NMTAP	43	192	7
NMTAP	43	264	0
NMTAP	43	264	7
NMTAP	43	336	1
NMTAP	43	336	6
NMTAP	44	0	0
NMTAP	44	48	7
NMTAP	44	96	0
NMTAP	44	144	7
NMTAP	44	192	0
NMTAP	44	240	7
NMTAP	44	288	0
NMTAP	44	336	7
BRTAP	45	0	2
BRTAP	45	0	3
BRTAP	45	72	4
BRTAP	45	72	5
BRTAP	45	144	0
BRTAP	45	144	7
NMTAP	45	192	6
NMTAP	45	204	7
NMTAP	45	216	0
NMTAP	45	228	1
NMTAP	45	240	2
NMTAP	45	252	3
NMTAP	45	264	4
NMTAP	45	276	5
BRTAP	45	288	6
NMTAP	46	0	0
NMTAP	46	24	7
NMTAP	46	48	0
NMTAP	46	72	7
NMTAP	46	96	1
NMTAP	46	120	6
NMTAP	46	144	1
NMTAP	46	168	6
NMTAP	46	192	2
NMTAP	46	216	5
NMTAP	46	240	2
NMTAP	46	264	5
NMTAP	46	288	3
NMTAP	46	312	4
NMTAP	46	336	3
NMTAP	46	360	4
NMTAP	47	0	0
NMTAP	47	24	1
NMTAP	47	48	7
NMTAP	47	72	6
NMTAP	47	96	0
NMTAP	47	120	1
NMTAP	47	144	7
NMTAP	47	168	6
NMTAP	47	192	1
NMTAP	47	216	2
NMTAP	47	240	6
NMTAP	47	264	5
NMTAP	47	288	1
NMTAP	47	312	2
NMTAP	47	336	6
NMTAP	47	360	5
NMTAP	48	0	3
NMTAP	48	24	4
NMTAP	48	48	3
NMTAP	48	72	4
NMTAP	48	96	2
NMTAP	48	120	5
NMTAP	48	144	2
NMTAP	48	168	5
NMTAP	48	192	1
NMTAP	48	216	6
NMTAP	48	240	1
NMTAP	48	264	6
NMTAP	48	288	0
NMTAP	48	312	7
NMTAP	48	336	0
NMTAP	48	360	7
NMTAP	49	0	0
NMTAP	49	24	1
NMTAP	49	48	7
NMTAP	49	72	6
NMTAP	49	96	0
NMTAP	49	120	1
NMTAP	49	144	7
NMTAP	49	168	6
NMTAP	49	192	1
NMTAP	49	216	2
NMTAP	49	240	6
NMTAP	49	264	5
NMTAP	49	288	1
NMTAP	49	312	2
NMTAP	49	336	6
NMTAP	49	360	5
NMTAP	50	0	3
NMTAP	50	24	4
NMTAP	50	48	3
NMTAP	50	72	4
NMTAP	50	96	0
NMTAP	50	120	7
NMTAP	50	144	0
NMTAP	50	168	7
NMTAP	50	192	1
NMTAP	50	216	5
NMTAP	50	240	1
NMTAP	50	264	5
NMTAP	50	288	2
NMTAP	50	312	6
NMTAP	50	336	2
NMTAP	50	360	6
NMTAP	51	0	1
NMTAP	51	24	5
NMTAP	51	48	1
NMTAP	51	72	5
NMTAP	51	96	0
NMTAP	51	120	4
NMTAP	51	144	0
NMTAP	51	168	4
NMTAP	51	192	1
NMTAP	51	216	5
NMTAP	51	240	1
NMTAP	51	264	5
NMTAP	51	288	2
NMTAP	51	312	6
NMTAP	51	336	2
NMTAP	51	360	6
NMTAP	52	0	3
NMTAP	52	24	7
NMTAP	52	48	3
NMTAP	52	72	7
NMTAP	52	96	2
NMTAP	52	120	6
NMTAP	52	144	2
NMTAP	52	168	6
NMTAP	52	192	1
NMTAP	52	216	5
NMTAP	52	240	1
NMTAP	52	264	5
NMTAP	52	288	0
NMTAP	52	312	4
NMTAP	52	336	0
NMTAP	52	360	4
NMTAP	53	0	0
NMTAP	53	24	7
NMTAP	53	48	0
NMTAP	53	72	7
NMSTR	53	96	0
NMSI_	53	96	0	96	48	6
NMSTR	53	168	0
NMSI_	53	168	0	96	48	2
NMSTR	53	240	0
NMSI_	53	240	0	96	48	4
NMTAP	54	0	0
NMTAP	54	24	7
NMTAP	54	48	0
NMTAP	54	72	7
NMTAP	54	96	1
NMTAP	54	120	6
NMTAP	54	144	1
NMTAP	54	168	6
NMTAP	54	192	2
NMTAP	54	216	5
NMTAP	54	240	2
NMTAP	54	264	5
NMTAP	54	288	3
NMTAP	54	312	4
NMTAP	54	336	3
NMTAP	54	360	4
NMTAP	55	0	0
NMTAP	55	24	1
NMTAP	55	48	7
NMTAP	55	72	6
NMTAP	55	96	0
NMTAP	55	120	1
NMTAP	55	144	7
NMTAP	55	168	6
NMTAP	55	192	1
NMTAP	55	216	2
NMTAP	55	240	6
NMTAP	55	264	5
NMTAP	55	288	1
NMTAP	55	312	2
NMTAP	55	336	6
NMTAP	55	360	5
NMTAP	56	0	3
NMTAP	56	24	4
NMTAP	56	48	3
NMTAP	56	72	4
NMTAP	56	96	2
NMTAP	56	120	5
NMTAP	56	144	2
NMTAP	56	168	5
NMTAP	56	192	1
NMTAP	56	216	6
NMTAP	56	240	1
NMTAP	56	264	6
NMTAP	56	288	0
NMTAP	56	312	7
NMTAP	56	336	0
NMTAP	56	360	7
NMTAP	57	0	0
NMTAP	57	24	1
NMTAP	57	48	7
NMTAP	57	72	6
NMTAP	57	96	0
NMTAP	57	120	1
NMTAP	57	144	7
NMTAP	57	168	6
NMTAP	57	192	1
NMTAP	57	216	2
NMTAP	57	240	6
NMTAP	57	264	5
NMTAP	57	288	1
NMTAP	57	312	2
NMTAP	57	336	6
NMTAP	57	360	5
NMTAP	58	0	3
NMTAP	58	24	4
NMTAP	58	48	3
NMTAP	58	72	4
NMTAP	58	96	0
NMTAP	58	120	7
NMTAP	58	144	0
NMTAP	58	168	7
NMTAP	58	192	1
NMTAP	58	216	6
NMTAP	58	240	1
NMTAP	58	264	6
NMTAP	58	288	2
NMTAP	58	312	5
NMTAP	58	336	2
NMTAP	58	360	5
NMTAP	59	0	0
NMTAP	59	24	7
NMTAP	59	48	0
NMTAP	59	72	7
NMTAP	59	96	1
NMTAP	59	120	6
NMTAP	59	144	1
NMTAP	59	168	6
NMTAP	59	192	0
NMTAP	59	216	7
NMTAP	59	240	0
NMTAP	59	264	7
NMTAP	59	288	1
NMTAP	59	312	6
NMTAP	59	336	1
NMTAP	59	360	6
NMTAP	60	0	3
NMTAP	60	24	4
NMTAP	60	48	3
NMTAP	60	72	4
NMTAP	60	96	2
NMTAP	60	120	5
NMTAP	60	144	2
NMTAP	60	168	5
NMTAP	60	192	1
NMTAP	60	216	6
NMTAP	60	240	1
NMTAP	60	264	6
NMTAP	60	288	0
NMTAP	60	312	7
NMTAP	60	336	0
NMTAP	60	360	7
NMTAP	61	0	1
NMTAP	61	24	6
NMTAP	61	48	1
NMTAP	61	72	6
NMTAP	61	96	1
NMTAP	61	120	6
NMTAP	61	144	1
NMTAP	61	168	6
NMTAP	61	192	0
NMTAP	61	216	7
NMTAP	61	240	0
NMTAP	61	264	7
NMTAP	61	288	0
NMTAP	61	312	7
NMTAP	61	336	0
NMTAP	61	360	7
NMTAP	62	0	0
NMTAP	62	24	1
NMTAP	62	48	2
NMTAP	62	72	3
NMTAP	62	96	7
NMTAP	62	120	6
NMTAP	62	144	5
NMTAP	62	168	4
NMTAP	62	192	7
NMTAP	62	208	0
NMTAP	62	224	1
NMTAP	62	240	2
NMTAP	62	256	3
NMTAP	62	272	4
NMTAP	62	288	5
NMTAP	62	304	6
NMTAP	62	320	7
NMTAP	62	336	0
NMTAP	62	352	1
NMTAP	62	368	2
NMTAP	63	0	7
NMTAP	63	32	0
NMTAP	63	64	1
NMTAP	63	96	7
NMTAP	63	128	0
NMTAP	63	160	1
NMTAP	63	192	7
NMTAP	63	224	0
NMTAP	63	256	1
NMTAP	63	288	7
NMTAP	63	352	0
NMTAP	64	0	7
NMTAP	64	32	0
NMTAP	64	64	1
NMTAP	64	96	7
NMTAP	64	128	0
NMTAP	64	160	1
NMTAP	64	192	7
NMTAP	64	224	6
NMTAP	64	256	5
NMTAP	64	288	4
NMTAP	65	0	0
NMTAP	65	32	7
NMTAP	65	64	6
NMTAP	65	96	0
NMTAP	65	128	7
NMTAP	65	160	6
NMTAP	65	192	0
NMTAP	65	224	7
NMTAP	65	256	6
NMTAP	65	288	0
NMTAP	65	352	7
NMTAP	66	0	0
NMTAP	66	32	7
NMTAP	66	64	6
NMTAP	66	96	0
NMTAP	66	128	7
NMTAP	66	160	6
NMTAP	66	192	0
NMTAP	66	224	1
NMTAP	66	256	2
NMTAP	66	288	3
NMTAP	67	0	7
NMTAP	67	32	0
NMTAP	67	64	1
NMTAP	67	96	7
NMTAP	67	128	0
NMTAP	67	160	1
NMTAP	67	192	7
NMTAP	67	224	0
NMTAP	67	256	1
NMTAP	67	288	7
NMTAP	67	352	0
NMTAP	68	0	7
NMTAP	68	32	0
NMTAP	68	64	1
NMTAP	68	96	7
NMTAP	68	128	0
NMTAP	68	160	1
NMTAP	68	192	7
NMTAP	68	224	7
NMTAP	68	256	7
NMTAP	68	288	0
NMTAP	68	288	6
NMTAP	69	0	7
NMTAP	69	32	0
NMTAP	69	64	1
NMTAP	69	96	7
NMTAP	69	160	0
NMTAP	69	192	7
NMTAP	69	224	7
NMTAP	69	256	7
NMTAP	69	288	7
NMTAP	69	352	0
NMTAP	70	0	7
NMTAP	70	32	7
NMTAP	70	64	7
NMTAP	70	96	0
NMTAP	70	128	0
NMTAP	70	160	0
NMTAP	70	192	7
NMTAP	70	224	7
NMTAP	70	256	7
NMTAP	70	288	7
NMTAP	71	0	0
NMTAP	71	0	7
NMTAP	71	32	1
NMTAP	71	64	2
NMTAP	71	96	0
NMTAP	71	96	7
NMTAP	71	128	1
NMTAP	71	160	2
NMTAP	71	192	0
NMTAP	71	192	7
NMTAP	71	224	1
NMTAP	71	256	2
NMTAP	71	288	7
NMTAP	71	352	1
NMTAP	72	0	0
NMTAP	72	0	7
NMTAP	72	32	1
NMTAP	72	64	2
NMTAP	72	96	0
NMTAP	72	96	7
NMTAP	72	128	1
NMTAP	72	160	2
NMTAP	72	192	0
NMTAP	72	192	7
NMTAP	72	224	1
NMTAP	72	224	6
NMTAP	72	256	2
NMTAP	72	256	5
NMTAP	72	288	3
NMTAP	72	288	4
NMTAP	73	0	0
NMTAP	73	0	7
NMTAP	73	32	6
NMTAP	73	64	5
NMTAP	73	96	0
NMTAP	73	96	7
NMTAP	73	128	6
NMTAP	73	160	5
NMTAP	73	192	0
NMTAP	73	192	7
NMTAP	73	224	6
NMTAP	73	256	5
NMTAP	73	288	0
NMTAP	73	288	7
NMTAP	73	352	6
NMTAP	74	0	0
NMTAP	74	0	7
NMTAP	74	32	6
NMTAP	74	64	5
NMTAP	74	96	0
NMTAP	74	96	7
NMTAP	74	128	6
NMTAP	74	160	5
NMTAP	74	192	0
NMTAP	74	192	7
NMTAP	74	224	1
NMTAP	74	224	6
NMTAP	74	256	2
NMTAP	74	256	5
NMTAP	74	288	3
NMTAP	74	288	4
NMTAP	75	0	0
NMTAP	75	0	7
NMTAP	75	32	1
NMTAP	75	32	6
NMTAP	75	64	2
NMTAP	75	64	5
NMTAP	75	96	0
NMTAP	75	96	7
NMTAP	75	128	1
NMTAP	75	128	6
NMTAP	75	160	2
NMTAP	75	160	5
NMTAP	75	192	0
NMTAP	75	192	7
NMTAP	75	224	1
NMTAP	75	224	6
NMTAP	75	256	2
NMTAP	75	256	5
NMTAP	75	288	0
NMTAP	75	288	7
NMTAP	75	352	1
NMTAP	75	352	6
NMTAP	76	0	0
NMTAP	76	0	7
NMTAP	76	32	1
NMTAP	76	32	6
NMTAP	76	64	2
NMTAP	76	64	5
NMTAP	76	96	0
NMTAP	76	96	7
NMTAP	76	128	1
NMTAP	76	128	6
NMTAP	76	160	2
NMTAP	76	160	5
NMTAP	76	192	0
NMTAP	76	192	7
NMTAP	76	224	1
NMTAP	76	224	6
NMTAP	76	256	2
NMTAP	76	256	5
NMTAP	76	288	3
NMTAP	76	288	4
NMTAP	77	0	1
NMTAP	77	24	0
NMTAP	77	48	7
NMTAP	77	72	6
NMTAP	77	96	5
NMTAP	77	120	4
NMTAP	77	144	3
NMTAP	77	168	2
NMTAP	77	192	6
NMTAP	77	216	7
NMTAP	77	240	0
NMTAP	77	264	1
NMTAP	77	288	2
NMTAP	77	312	3
NMTAP	77	336	4
NMTAP	77	360	5
NMTAP	78	0	0
NMTAP	78	16	7
NMTAP	78	32	6
NMTAP	78	48	5
NMTAP	78	64	4
NMTAP	78	80	3
NMTAP	78	96	2
NMTAP	78	112	1
NMTAP	78	128	0
NMTAP	78	144	7
NMTAP	78	160	6
NMTAP	78	176	5
NMTAP	78	192	0
NMTAP	78	208	1
NMTAP	78	224	2
NMTAP	78	240	3
NMTAP	78	256	4
NMTAP	78	272	5
NMTAP	78	288	6
NMTAP	78	304	7
NMTAP	78	320	0
NMTAP	78	336	1
NMTAP	78	352	2
NMTAP	78	368	3
BRTAP	79	0	4
NMTAP	79	192	1
NMTAP	80	0	5
NMTAP	80	192	2
NMTAP	81	0	6
NMTAP	81	192	1
NMTAP	82	0	7
NMTAP	82	192	2
NMTAP	83	0	0
NMTAP	83	48	7
NMTAP	83	96	6
NMTAP	83	144	5
NMTAP	83	192	1
NMTAP	83	264	1
NMTAP	83	336	0
NMTAP	84	0	7
NMTAP	84	48	0
NMTAP	84	96	1
NMTAP	84	144	2
NMTAP	84	192	7
NMTAP	84	264	7
NMTAP	84	336	6
NMTAP	85	0	0
NMTAP	85	48	7
NMTAP	85	96	6
NMTAP	85	144	5
NMTAP	85	192	0
NMTAP	85	240	2
NMTAP	85	288	1
NMTAP	85	336	0
NMTAP	86	0	6
NMTAP	86	72	6
NMTAP	86	144	7
NMTAP	86	192	1
NMTAP	86	264	1
NMTAP	86	336	0
NMTAP	87	0	7
NMTAP	87	192	0
BRTAP	88	0	7
NMTAP	88	192	7
NMTAP	88	240	7
NMTAP	88	288	0
NMTAP	88	336	1
BRTAP	89	0	2
BRTAP	89	0	5
NMTAP	89	240	3
NMTAP	89	288	3
NMTAP	89	336	2
NMTAP	90	0	0
NMTAP	90	0	1
NMTAP	90	96	2
NMTAP	90	96	7
NMTAP	90	192	3
NMTAP	90	192	6
NMTAP	90	288	4
NMTAP	90	288	5
NMTAP	91	0	0
NMTAP	91	0	7
NMTAP	91	240	4
NMTAP	91	288	4
NMTAP	91	336	5
NMTAP	92	0	6
NMTAP	92	96	7
NMSTR	92	192	0
NMSF_	92	192	0	96	48	4
BRTAP	92	288	0
NMTAP	93	0	1
NMTAP	93	24	6
NMTAP	93	48	1
NMTAP	93	72	6
NMTAP	93	96	0
NMTAP	93	120	7
NMTAP	93	144	0
NMTAP	93	168	7
NMTAP	93	192	1
NMTAP	93	216	5
NMTAP	93	240	1
NMTAP	93	264	5
NMTAP	93	288	2
NMTAP	93	312	6
NMTAP	93	336	2
NMTAP	93	360	6
NMTAP	94	0	1
NMTAP	94	24	5
NMTAP	94	48	1
NMTAP	94	72	5
NMTAP	94	96	0
NMTAP	94	120	4
NMTAP	94	144	0
NMTAP	94	168	4
NMTAP	94	192	1
NMTAP	94	216	5
NMTAP	94	240	1
NMTAP	94	264	5
NMTAP	94	288	2
NMTAP	94	312	6
NMTAP	94	336	2
NMTAP	94	360	6
NMTAP	95	0	3
NMTAP	95	24	7
NMTAP	95	48	3
NMTAP	95	72	7
NMTAP	95	96	2
NMTAP	95	120	6
NMTAP	95	144	2
NMTAP	95	168	6
NMTAP	95	192	1
NMTAP	95	216	5
NMTAP	95	240	1
NMTAP	95	264	5
NMTAP	95	288	0
NMTAP	95	312	4
NMTAP	95	336	0
NMTAP	95	360	4
NMTAP	96	0	0
NMTAP	96	24	7
NMTAP	96	48	0
NMTAP	96	72	7
NMSTR	96	96	0
NMSI_	96	96	0	96	48	6
NMSTR	96	168	0
NMSI_	96	168	0	96	48	2
NMSTR	96	240	0
NMSI_	96	240	0	96	48	4
NMTAP	97	0	0
NMTAP	97	24	7
NMTAP	97	48	0
NMTAP	97	72	7
NMTAP	97	96	1
NMTAP	97	120	6
NMTAP	97	144	1
NMTAP	97	168	6
NMTAP	97	192	2
NMTAP	97	216	5
NMTAP	97	240	2
NMTAP	97	264	5
NMTAP	97	288	3
NMTAP	97	312	4
NMTAP	97	336	3
NMTAP	97	360	4
NMTAP	98	0	0
NMTAP	98	24	1
NMTAP	98	48	7
NMTAP	98	72	6
NMTAP	98	96	0
NMTAP	98	120	1
NMTAP	98	144	7
NMTAP	98	168	6
NMTAP	98	192	1
NMTAP	98	216	2
NMTAP	98	240	6
NMTAP	98	264	5
NMTAP	98	288	1
NMTAP	98	312	2
NMTAP	98	336	6
NMTAP	98	360	5
NMTAP	99	0	3
NMTAP	99	24	4
NMTAP	99	48	3
NMTAP	99	72	4
NMTAP	99	96	2
NMTAP	99	120	5
NMTAP	99	144	2
NMTAP	99	168	5
NMTAP	99	192	1
NMTAP	99	216	6
NMTAP	99	240	1
NMTAP	99	264	6
NMTAP	99	288	0
NMTAP	99	312	7
NMTAP	99	336	0
NMTAP	99	360	7
NMTAP	100	0	0
NMTAP	100	24	1
NMTAP	100	48	7
NMTAP	100	72	6
NMTAP	100	96	0
NMTAP	100	120	1
NMTAP	100	144	7
NMTAP	100	168	6
NMTAP	100	192	1
NMTAP	100	216	2
NMTAP	100	240	6
NMTAP	100	264	5
NMTAP	100	288	1
NMTAP	100	312	2
NMTAP	100	336	6
NMTAP	100	360	5
NMTAP	101	0	3
NMTAP	101	24	4
NMTAP	101	48	3
NMTAP	101	72	4
NMTAP	101	96	0
NMTAP	101	120	7
NMTAP	101	144	0
NMTAP	101	168	7
NMTAP	101	192	1
NMTAP	101	216	6
NMTAP	101	240	1
NMTAP	101	264	6
NMTAP	101	288	2
NMTAP	101	312	5
NMTAP	101	336	2
NMTAP	101	360	5
NMTAP	102	0	0
NMTAP	102	24	7
NMTAP	102	48	0
NMTAP	102	72	7
NMTAP	102	96	1
NMTAP	102	120	6
NMTAP	102	144	1
NMTAP	102	168	6
NMTAP	102	192	0
NMTAP	102	216	7
NMTAP	102	240	0
NMTAP	102	264	7
NMTAP	102	288	1
NMTAP	102	312	6
NMTAP	102	336	1
NMTAP	102	360	6
NMTAP	103	0	0
NMTAP	103	24	7
NMTAP	103	48	0
NMTAP	103	72	7
NMTAP	103	96	0
NMTAP	103	120	7
NMTAP	103	144	0
NMTAP	103	168	7
NMTAP	103	192	1
NMTAP	103	216	6
NMTAP	103	240	1
NMTAP	103	264	6
NMTAP	103	288	1
NMTAP	103	312	6
NMTAP	103	336	1
NMTAP	103	360	6
NMTAP	104	0	1
NMTAP	104	16	0
NMTAP	104	32	7
NMTAP	104	48	6
NMTAP	104	64	5
NMTAP	104	80	4
NMTAP	104	96	3
NMTAP	104	112	2
NMTAP	104	128	1
NMTAP	104	144	0
NMTAP	104	160	7
NMTAP	104	176	6
NMTAP	104	192	5
NMTAP	104	208	4
NMTAP	104	224	3
NMTAP	104	240	2
NMTAP	104	256	1
NMTAP	104	272	0
NMTAP	104	288	7
NMTAP	104	304	6
NMTAP	104	320	5
NMTAP	104	336	4
NMTAP	104	352	3
NMTAP	104	368	2
NMTAP	105	0	6
NMTAP	105	16	7
NMTAP	105	32	0
NMTAP	105	48	1
NMTAP	105	64	2
NMTAP	105	80	3
NMTAP	105	96	4
NMTAP	105	112	5
NMTAP	105	128	6
NMTAP	105	144	7
NMTAP	105	160	0
NMTAP	105	176	1
NMTAP	105	192	2
NMTAP	105	208	3
NMTAP	105	224	4
NMTAP	105	240	5
NMTAP	105	256	6
NMTAP	105	272	7
NMTAP	105	288	0
NMTAP	105	304	1
NMTAP	105	320	2
NMTAP	105	336	3
NMTAP	105	352	4
NMTAP	105	368	5
NMTAP	106	0	0
NMTAP	106	16	7
NMTAP	106	32	6
NMTAP	106	48	5
NMTAP	106	64	4
NMTAP	106	80	3
NMTAP	106	96	7
NMTAP	106	112	0
NMTAP	106	128	1
NMTAP	106	144	2
NMTAP	106	160	3
NMTAP	106	176	4
NMTAP	106	192	0
NMTAP	106	208	7
NMTAP	106	224	6
NMTAP	106	240	5
NMTAP	106	256	4
NMTAP	106	272	3
NMTAP	106	288	7
NMTAP	106	304	0
NMTAP	106	320	1
NMTAP	106	336	2
NMTAP	106	352	3
NMTAP	106	368	4
NMTAP	107	0	3
NMTAP	107	12	2
NMTAP	107	24	1
NMTAP	107	36	0
NMTAP	107	48	7
NMTAP	107	60	6
NMTAP	107	72	5
NMTAP	107	84	4
NMTAP	107	96	3
NMTAP	107	108	2
NMTAP	107	120	1
NMTAP	107	132	0
NMTAP	107	144	7
NMTAP	107	156	6
NMTAP	107	168	5
NMTAP	107	180	4
NMTAP	107	192	7
NMTAP	107	204	0
NMTAP	107	216	1
NMTAP	107	228	2
NMTAP	107	240	3
NMTAP	107	252	4
NMTAP	107	264	5
NMTAP	107	276	6
NMTAP	107	288	7
NMTAP	107	300	0
NMTAP	107	312	1
NMTAP	107	324	2
NMTAP	107	336	3
NMTAP	107	348	4
NMTAP	107	360	5
NMTAP	107	372	6
NMHLD	108	0	1	576
NMHLD	108	0	5	1536
NMHLD	110	0	0	768

T_REC_TAP	1137
T_REC_BRK	19
T_REC_XTP	0
T_REC_BXX	0
T_REC_HLD	15
T_REC_XHO	0
T_REC_BHO	0
T_REC_BXH	0
T_REC_STR	55
T_REC_BST	0
T_REC_XST	0
T_REC_XBS	0
T_REC_TTP	0
T_REC_THO	0
T_REC_SLD	56
T_REC_BSL	0
T_REC_ALL	1282
T_NUM_TAP	1192
T_NUM_BRK	19
T_NUM_HLD	15
T_NUM_SLD	56
T_NUM_ALL	1282
T_JUDGE_TAP	1211
T_JUDGE_HLD	96
T_JUDGE_SLD	56
T_JUDGE_ALL	1363
TTM_EACHPAIRS	115
TTM_SCR_TAP	596000
TTM_SCR_BRK	49400
TTM_SCR_HLD	15000
TTM_SCR_SLD	84000
TTM_SCR_ALL	744400
TTM_SCR_S	720250
TTM_SCR_SS	742500
TTM_RAT_ACV	10025

