VERSION	0.00.00	1.04.00
FES_MODE	1
BPM_DEF	190.000	190.000	190.000	190.000
MET_DEF	4	4
RESOLUTION	384
CLK_DEF	384
COMPATIBLE_CODE	MA2

BPM	0	0	190.000
MET	0	0	4	4

BRSTR	8	288	2
NMSCL	8	288	2	96	48	7
BRTAP	8	288	5
NMSTR	9	0	5
NMSCR	9	0	5	96	48	0
NMSTR	9	96	3
NMSUL	9	96	3	96	48	6
NMSTR	9	192	4
NMSUR	9	192	4	96	48	1
NMSTR	9	288	2
NMSCL	9	288	2	96	48	7
NMSTR	10	0	5
NMSCR	10	0	5	96	48	0
NMSTR	10	96	3
NMSUL	10	96	3	96	48	6
NMSTR	10	192	4
NMSUR	10	192	4	96	48	1
BRSTR	10	288	2
NMSCL	10	288	2	96	48	7
NMSTR	11	0	5
NMSCR	11	0	5	96	48	0
NMSTR	11	96	3
NMSUL	11	96	3	96	48	6
NMSTR	11	192	4
NMSUR	11	192	4	96	48	1
NMSTR	11	288	2
NMSCL	11	288	2	96	48	7
NMSTR	12	0	5
NMSCR	12	0	5	96	48	0
NMTAP	12	96	3
NMSTR	12	192	3
NMSI_	12	192	3	96	48	0
NMSTR	12	192	4
NMSI_	12	192	4	96	48	7
BRTAP	12	288	3
BRTAP	12	288	4
NMSTR	13	0	5
NMSCR	13	0	5	96	48	0
NMSTR	13	96	3
NMSUL	13	96	3	96	48	6
NMSTR	13	192	4
NMSUR	13	192	4	96	48	1
NMSTR	13	288	2
NMSCL	13	288	2	96	48	7
NMSTR	14	0	5
NMSCR	14	0	5	96	48	0
NMSTR	14	96	3
NMSUL	14	96	3	96	48	6
NMSTR	14	192	4
NMSUR	14	192	4	96	48	1
BRSTR	14	288	2
NMSCL	14	288	2	96	48	7
NMSTR	15	0	5
NMSCR	15	0	5	96	48	0
NMSTR	15	96	3
NMSUL	15	96	3	96	48	6
NMSTR	15	192	4
NMSUR	15	192	4	96	48	1
NMSTR	15	288	2
NMSCL	15	288	2	96	48	7
NMSTR	16	0	5
NMSCR	16	0	5	96	48	0
NMSTR	16	96	3
NMSUL	16	96	3	96	48	6
NMTAP	16	192	4
BRTAP	16	288	1
BRTAP	16	288	6
NMHLD	17	0	7	1344
NMTAP	17	192	6
NMHLD	18	0	6	960
NMTAP	18	192	5
NMHLD	19	0	5	576
NMTAP	19	192	4
NMHLD	20	0	4	192
NMHLD	21	0	0	1344
NMTAP	21	192	1
NMHLD	22	0	1	960
NMTAP	22	192	2
NMHLD	23	0	2	576
NMTAP	23	192	3
NMHLD	24	0	3	192
NMSTR	24	288	2
NMSCL	24	288	2	96	96	5
NMSCR	25	0	5	96	96	2
NMSCL	25	96	2	96	96	5
NMSCR	25	192	5	96	96	2
NMSCL	25	288	2	96	96	5
NMSCR	26	0	5	96	96	2
NMSCL	26	96	2	96	96	5
NMSCR	26	192	5	96	96	2
NMSCL	26	288	2	96	96	5
NMSCR	27	0	5	96	96	2
NMSCL	27	96	2	96	96	5
NMSCR	27	192	5	96	96	2
NMSCL	27	288	2	96	96	5
NMSCR	28	0	5	96	96	2
BRTAP	28	288	2
NMSTR	28	288	5
NMSCR	28	288	5	96	96	2
NMSCL	29	0	2	96	96	5
NMSCR	29	96	5	96	96	2
NMSCL	29	192	2	96	96	5
NMSCR	29	288	5	96	96	2
NMSCL	30	0	2	96	96	5
NMSCR	30	96	5	96	96	2
NMSCL	30	192	2	96	96	5
NMSCR	30	288	5	96	96	2
NMSCL	31	0	2	96	96	5
NMSCR	31	96	5	96	96	2
NMSCL	31	192	2	96	96	5
NMSCR	31	288	5	96	96	2
NMSCL	32	0	2	96	96	5
NMSCR	32	96	5	96	96	2
BRTAP	33	0	0
BRTAP	33	0	7
NMSF_	33	288	4	96	96	0
NMSF_	34	0	0	96	96	4
NMSF_	34	96	4	96	96	0
NMSF_	34	192	0	96	96	4
NMSF_	34	288	4	96	96	0
NMSF_	35	0	0	96	96	4
NMSF_	35	96	4	96	96	0
NMSF_	35	192	0	96	96	4
NMSF_	35	288	4	96	96	0
NMSF_	36	0	0	96	96	4
NMSF_	36	96	4	96	96	0
NMSF_	36	192	0	96	96	4
NMSF_	36	288	4	96	96	0
NMSF_	37	0	0	96	96	4
NMSF_	37	96	4	96	96	0
NMSF_	37	192	0	96	96	4
NMSF_	37	288	4	96	96	0
NMSF_	38	0	0	96	96	4
NMSF_	38	96	4	96	96	0
NMSF_	38	192	0	96	96	4
NMSF_	38	288	4	96	96	0
NMSF_	39	0	0	96	96	4
NMSF_	39	96	4	96	96	0
NMSF_	39	192	0	96	96	4
NMSF_	39	288	4	96	96	0
NMSF_	40	0	0	96	96	4
NMSF_	40	96	4	96	96	0
NMSF_	40	192	0	96	96	4
NMSF_	40	288	4	96	96	0
NMHLD	42	0	3	192
NMHLD	42	0	4	192
NMHLD	43	0	3	192
NMHLD	43	0	4	192
NMHLD	44	0	3	192
NMHLD	44	0	4	192
NMHLD	45	0	3	192
NMHLD	45	0	4	192
NMHLD	46	0	3	192
NMHLD	46	0	4	192
NMHLD	47	0	3	192
NMHLD	47	0	4	192
NMTAP	48	0	3
NMTAP	48	0	4
NMSUR	48	288	0	96	288	3
NMHLD	50	0	5	1344
NMHLD	51	0	4	960
NMHLD	52	0	3	576
NMHLD	53	0	2	192
NMHLD	54	0	1	1344
NMHLD	55	0	0	960
NMHLD	56	0	7	576
NMHLD	57	0	6	192
NMSTR	58	0	4
NMSF_	58	0	4	96	192	0
BRTAP	59	0	1
BRTAP	59	0	7
NMSTR	60	0	3
NMSF_	60	0	3	96	192	7
BRTAP	61	0	0
BRTAP	61	0	6
NMSTR	62	0	4
NMSF_	62	0	4	96	96	0
BRTAP	62	288	1
BRTAP	62	288	6
NMSTR	63	0	3
NMSF_	63	0	3	96	96	7
BRTAP	63	288	1
BRTAP	63	288	6
NMSTR	64	0	4
NMSI_	64	0	4	96	48	7
BRTAP	64	96	3
NMSTR	64	192	3
NMSI_	64	192	3	96	48	0
BRTAP	64	288	4
NMTAP	65	0	3
NMTAP	65	0	4
NMTAP	65	96	2
NMTAP	65	96	5
NMTAP	65	192	1
NMTAP	65	192	6
BRTAP	65	288	0
BRTAP	65	288	7
NMSTR	66	0	2
NMSXR	66	0	2	96	480	7
NMSTR	66	0	3
NMSXL	66	0	3	96	480	6
NMSTR	68	0	4
NMSXR	68	0	4	96	480	1
NMSTR	68	0	5
NMSXL	68	0	5	96	480	0
NMHLD	70	0	7	1536
NMHLD	70	192	6	1344
NMHLD	71	0	5	1152
NMHLD	71	192	0	960
NMHLD	72	0	1	768
NMHLD	72	192	2	576
NMHLD	73	0	3	384
NMHLD	73	192	4	192
BRTAP	75	0	1
BRTAP	75	0	6
BRTAP	75	288	0
BRTAP	75	288	7
NMSTR	76	0	1
NMSXR	76	0	1	96	144	6
NMSTR	76	0	2
NMSUR	76	0	2	96	144	5
NMSTR	77	0	1
NMSXR	77	0	1	96	144	6
NMSTR	77	0	2
NMSUR	77	0	2	96	144	5
NMSTR	78	0	1
NMSXR	78	0	1	96	144	6
NMSTR	78	0	2
NMSUR	78	0	2	96	144	5
NMSTR	79	0	1
NMSXR	79	0	1	96	144	6
NMSTR	79	0	2
NMSUR	79	0	2	96	144	5
BRTAP	79	288	1
BRTAP	79	288	6
NMSTR	80	0	1
NMSXR	80	0	1	96	144	6
NMSTR	80	0	2
NMSUR	80	0	2	96	144	5
NMSTR	81	0	1
NMSXR	81	0	1	96	144	6
NMSTR	81	0	2
NMSUR	81	0	2	96	144	5
NMSTR	82	0	1
NMSXR	82	0	1	96	144	6
NMSTR	82	0	2
NMSUR	82	0	2	96	144	5
NMSTR	83	0	3
NMSXR	83	0	3	96	144	0
NMSTR	83	0	4
NMSXL	83	0	4	96	144	7
BRTAP	83	288	1
BRTAP	83	288	6
NMSTR	84	0	5
NMSUL	84	0	5	96	144	2
NMSTR	84	0	6
NMSXL	84	0	6	96	144	1
NMSTR	85	0	5
NMSUL	85	0	5	96	144	2
NMSTR	85	0	6
NMSXL	85	0	6	96	144	1
NMSTR	86	0	5
NMSUL	86	0	5	96	144	2
NMSTR	86	0	6
NMSXL	86	0	6	96	144	1
NMSTR	87	0	5
NMSUL	87	0	5	96	144	2
NMSTR	87	0	6
NMSXL	87	0	6	96	144	1
BRTAP	87	288	0
BRTAP	87	288	7
NMSTR	88	0	5
NMSUL	88	0	5	96	144	2
NMSTR	88	0	6
NMSXL	88	0	6	96	144	1
NMSTR	89	0	5
NMSUL	89	0	5	96	144	2
NMSTR	89	0	6
NMSXL	89	0	6	96	144	1
NMSTR	90	0	5
NMSUL	90	0	5	96	144	2
NMSTR	90	0	6
NMSXL	90	0	6	96	144	1
NMSTR	91	0	3
NMSXR	91	0	3	96	144	0
NMSTR	91	0	4
NMSXL	91	0	4	96	144	7
BRSTR	92	0	4
NMSCR	92	0	4	96	1344	3
BRTAP	95	288	7

T_REC_TAP	16
T_REC_BRK	31
T_REC_XTP	0
T_REC_BXX	0
T_REC_HLD	36
T_REC_XHO	0
T_REC_BHO	0
T_REC_BXH	0
T_REC_STR	71
T_REC_BST	4
T_REC_XST	0
T_REC_XBS	0
T_REC_TTP	0
T_REC_THO	0
T_REC_SLD	132
T_REC_BSL	0
T_REC_ALL	290
T_NUM_TAP	87
T_NUM_BRK	35
T_NUM_HLD	36
T_NUM_SLD	132
T_NUM_ALL	290
T_JUDGE_TAP	122
T_JUDGE_HLD	448
T_JUDGE_SLD	132
T_JUDGE_ALL	702
TTM_EACHPAIRS	44
TTM_SCR_TAP	43500
TTM_SCR_BRK	91000
TTM_SCR_HLD	36000
TTM_SCR_SLD	198000
TTM_SCR_ALL	368500
TTM_SCR_S	354050
TTM_SCR_SS	365000
TTM_RAT_ACV	10095

