VERSION	0.00.00	1.04.00
FES_MODE	0
BPM_DEF	150.000	150.000	150.000	150.000
MET_DEF	4	4
RESOLUTION	384
CLK_DEF	384
COMPATIBLE_CODE	MA2

BPM	0	0	150.000
MET	0	0	4	4

NMTAP	3	0	3
NMTAP	3	24	3
NMTAP	3	48	3
NMTAP	3	72	3
NMTAP	3	96	3
NMTAP	3	120	3
NMTAP	3	144	3
NMTAP	3	168	3
NMTAP	3	192	3
NMTAP	3	216	3
NMTAP	3	240	3
NMTAP	3	264	3
NMTAP	3	288	3
NMTAP	3	312	3
NMTAP	3	336	3
NMTAP	3	360	3
NMTAP	4	0	3
NMTAP	4	24	3
NMTAP	4	48	3
NMTAP	4	72	3
NMTAP	4	96	3
NMTAP	4	120	3
NMTAP	4	144	3
NMTAP	4	168	3
NMTAP	4	192	3
NMTAP	4	216	3
NMTAP	4	240	3
NMTAP	4	264	3
NMTAP	4	288	3
NMTAP	4	312	3
NMTAP	4	336	3
NMTAP	4	360	3
NMTAP	5	0	3
NMTAP	5	24	3
NMTAP	5	48	3
NMTAP	5	72	3
NMTAP	5	96	3
NMTAP	5	120	3
NMTAP	5	144	3
NMTAP	5	168	3
NMTAP	5	192	3
NMTAP	5	216	3
NMTAP	5	240	3
NMTAP	5	264	3
NMTAP	5	288	3
NMTAP	5	312	3
NMTAP	5	336	3
NMTAP	5	360	3
NMTAP	6	0	3
NMTAP	6	24	3
NMTAP	6	48	3
NMTAP	6	72	3
NMTAP	6	96	3
NMTAP	6	120	3
NMTAP	6	144	3
NMTAP	6	168	3
NMTAP	6	192	3
NMTAP	6	216	3
NMTAP	6	240	3
NMTAP	6	264	3
NMTAP	6	288	3
NMTAP	6	312	3
NMTAP	6	336	3
NMTAP	6	360	3
NMTAP	7	0	3
NMTAP	7	24	3
NMTAP	7	48	3
NMTAP	7	72	3
NMTAP	7	96	3
NMTAP	7	120	3
NMTAP	7	144	3
NMTAP	7	168	3
NMTAP	7	192	3
NMTAP	7	216	3
NMTAP	7	240	3
NMTAP	7	264	3
NMTAP	7	288	3
NMTAP	7	312	3
NMTAP	7	336	3
NMTAP	7	360	3
NMTAP	8	0	3
NMTAP	8	24	3
NMTAP	8	48	3
NMTAP	8	72	3
NMTAP	8	96	3
NMTAP	8	120	3
NMTAP	8	144	3
NMTAP	8	168	3
NMTAP	8	192	3
NMTAP	8	216	3
NMTAP	8	240	3
NMTAP	8	264	3
NMTAP	8	288	3
NMTAP	8	312	3
NMTAP	8	336	3
NMTAP	8	360	3
NMTAP	9	0	3
NMTAP	9	24	3
NMTAP	9	48	3
NMTAP	9	72	3
NMTAP	9	96	3
NMTAP	9	120	3
NMTAP	9	144	3
NMTAP	9	168	3
NMTAP	9	192	3
NMTAP	9	216	3
NMTAP	9	240	3
NMTAP	9	264	3
NMTAP	9	288	3
NMTAP	9	312	3
NMTAP	9	336	3
NMTAP	9	360	3
NMTAP	10	0	3
NMTAP	10	24	3
NMTAP	10	48	3
NMTAP	10	72	3
NMTAP	10	96	3
NMTAP	10	120	3
NMTAP	10	144	3
NMTAP	10	168	3
NMTAP	10	192	3
NMTAP	10	216	3
NMTAP	10	240	3
NMTAP	10	264	3
NMTAP	10	288	3
NMTAP	10	312	3
NMTAP	10	336	3
NMTAP	10	360	3
NMTAP	11	0	3
NMTAP	11	24	3
NMTAP	11	48	3
NMTAP	11	72	3
NMTAP	11	96	3
NMTAP	11	120	3
NMTAP	11	144	3
NMTAP	11	168	3
NMTAP	11	192	3
NMTAP	11	216	3
NMTAP	11	240	3
NMTAP	11	264	3
NMTAP	11	288	3
NMTAP	11	312	3
NMTAP	11	336	3
NMTAP	11	360	3
NMTAP	12	0	3
NMTAP	12	24	3
NMTAP	12	48	3
NMTAP	12	72	3
NMTAP	12	96	3
NMTAP	12	120	3
NMTAP	12	144	3
NMTAP	12	168	3
NMTAP	12	192	3
NMTAP	12	216	3
NMTAP	12	240	3
NMTAP	12	264	3
NMTAP	12	288	3
NMTAP	12	312	3
NMTAP	12	336	3
NMTAP	12	360	3
NMTAP	13	0	3
NMTAP	13	24	3
NMTAP	13	48	3
NMTAP	13	72	3
NMTAP	13	96	3
NMTAP	13	120	3
NMTAP	13	144	3
NMTAP	13	168	3
NMTAP	13	192	3
NMTAP	13	216	3
NMTAP	13	240	3
NMTAP	13	264	3
NMTAP	13	288	3
NMTAP	13	312	3
NMTAP	13	336	3
NMTAP	13	360	3
NMTAP	14	0	3
NMTAP	14	24	3
NMTAP	14	48	3
NMTAP	14	72	3
NMTAP	14	96	3
NMTAP	14	120	3
NMTAP	14	144	3
NMTAP	14	168	3
NMTAP	14	192	3
NMTAP	14	216	3
NMTAP	14	240	3
NMTAP	14	264	3
NMTAP	14	288	3
NMTAP	14	312	3
NMTAP	14	336	3
NMTAP	14	360	3
NMTAP	15	0	3
NMTAP	15	24	3
NMTAP	15	48	3
NMTAP	15	72	3
NMTAP	15	96	3
NMTAP	15	120	3
NMTAP	15	144	3
NMTAP	15	168	3
NMTAP	15	192	3
NMTAP	15	216	3
NMTAP	15	240	3
NMTAP	15	264	3
NMTAP	15	288	3
NMTAP	15	312	3
NMTAP	15	336	3
NMTAP	15	360	3
NMTAP	16	0	3
NMTAP	16	24	3
NMTAP	16	48	3
NMTAP	16	72	3
NMTAP	16	96	3
NMTAP	16	120	3
NMTAP	16	144	3
NMTAP	16	168	3
NMTAP	16	192	3
NMTAP	16	216	3
NMTAP	16	240	3
NMTAP	16	264	3
NMTAP	16	288	3
NMTAP	16	312	3
NMTAP	16	336	3
NMTAP	16	360	3
NMTAP	17	0	3
NMTAP	17	24	3
NMTAP	17	48	3
NMTAP	17	72	3
NMTAP	17	96	3
NMTAP	17	120	3
NMTAP	17	144	3
NMTAP	17	168	3
NMTAP	17	192	3
NMTAP	17	216	3
NMTAP	17	240	3
NMTAP	17	264	3
NMTAP	17	288	3
NMTAP	17	312	3
NMTAP	17	336	3
NMTAP	17	360	3
NMTAP	18	0	3
NMTAP	18	24	3
NMTAP	18	48	3
NMTAP	18	72	3
NMTAP	18	96	3
NMTAP	18	120	3
NMTAP	18	144	3
NMTAP	18	168	3
NMTAP	18	192	3
NMTAP	18	216	3
NMTAP	18	240	3
NMTAP	18	264	3
NMTAP	18	288	3
NMTAP	18	312	3
NMTAP	18	336	3
NMTAP	18	360	3
NMTAP	19	0	3
NMTAP	19	24	3
NMTAP	19	48	3
NMTAP	19	72	3
NMTAP	19	96	3
NMTAP	19	120	3
NMTAP	19	144	3
NMTAP	19	168	3
NMTAP	19	192	3
NMTAP	19	216	3
NMTAP	19	240	3
NMTAP	19	264	3
NMTAP	19	288	3
NMTAP	19	312	3
NMTAP	19	336	3
NMTAP	19	360	3
NMTAP	20	0	3
NMTAP	20	24	3
NMTAP	20	48	3
NMTAP	20	72	3
NMTAP	20	96	3
NMTAP	20	120	3
NMTAP	20	144	3
NMTAP	20	168	3
NMTAP	20	192	3
NMTAP	20	216	3
NMTAP	20	240	3
NMTAP	20	264	3
NMTAP	20	288	3
NMTAP	20	312	3
NMTAP	20	336	3
NMTAP	20	360	3
NMTAP	21	0	3
NMTAP	21	24	3
NMTAP	21	48	3
NMTAP	21	72	3
NMTAP	21	96	3
NMTAP	21	120	3
NMTAP	21	144	3
NMTAP	21	168	3
NMTAP	21	192	3
NMTAP	21	216	3
NMTAP	21	240	3
NMTAP	21	264	3
NMTAP	21	288	3
NMTAP	21	312	3
NMTAP	21	336	3
NMTAP	21	360	3
NMTAP	22	0	3
NMTAP	22	24	3
NMTAP	22	48	3
NMTAP	22	72	3
NMTAP	22	96	3
NMTAP	22	120	3
NMTAP	22	144	3
NMTAP	22	168	3
NMTAP	22	192	3
NMTAP	22	216	3
NMTAP	22	240	3
NMTAP	22	264	3
NMTAP	22	288	3
NMTAP	22	312	3
NMTAP	22	336	3
NMTAP	22	360	3
NMTAP	23	0	3
NMTAP	23	24	3
NMTAP	23	48	3
NMTAP	23	72	3
NMTAP	23	96	3
NMTAP	23	120	3
NMTAP	23	144	3
NMTAP	23	168	3
NMTAP	23	192	3
NMTAP	23	216	3
NMTAP	23	240	3
NMTAP	23	264	3
NMTAP	23	288	3
NMTAP	23	312	3
NMTAP	23	336	3
NMTAP	23	360	3
NMTAP	24	0	3
NMTAP	24	24	3
NMTAP	24	48	3
NMTAP	24	72	3
NMTAP	24	96	3
NMTAP	24	120	3
NMTAP	24	144	3
NMTAP	24	168	3
NMTAP	24	192	3
NMTAP	24	216	3
NMTAP	24	240	3
NMTAP	24	264	3
NMTAP	24	288	3
NMTAP	24	312	3
NMTAP	24	336	3
NMTAP	24	360	3
NMTAP	25	0	3
NMTAP	25	24	3
NMTAP	25	48	3
NMTAP	25	72	3
NMTAP	25	96	3
NMTAP	25	120	3
NMTAP	25	144	3
NMTAP	25	168	3
NMTAP	25	192	3
NMTAP	25	216	3
NMTAP	25	240	3
NMTAP	25	264	3
NMTAP	25	288	3
NMTAP	25	312	3
NMTAP	25	336	3
NMTAP	25	360	3
NMTAP	26	0	3
NMTAP	26	24	3
NMTAP	26	48	3
NMTAP	26	72	3
NMTAP	26	96	3
NMTAP	26	120	3
NMTAP	26	144	3
NMTAP	26	168	3
NMTAP	26	192	3
NMTAP	26	216	3
NMTAP	26	240	3
NMTAP	26	264	3
NMTAP	26	288	3
NMTAP	26	312	3
NMTAP	26	336	3
NMTAP	26	360	3
NMTAP	27	0	3
NMTAP	27	24	3
NMTAP	27	48	3
NMTAP	27	72	3
NMTAP	27	96	3
NMTAP	27	120	3
NMTAP	27	144	3
NMTAP	27	168	3
NMTAP	27	192	3
NMTAP	27	216	3
NMTAP	27	240	3
NMTAP	27	264	3
NMTAP	27	288	3
NMTAP	27	312	3
NMTAP	27	336	3
NMTAP	27	360	3
NMTAP	28	0	3
NMTAP	28	24	3
NMTAP	28	48	3
NMTAP	28	72	3
NMTAP	28	96	3
NMTAP	28	120	3
NMTAP	28	144	3
NMTAP	28	168	3
NMTAP	28	192	3
NMTAP	28	216	3
NMTAP	28	240	3
NMTAP	28	264	3
NMTAP	28	288	3
NMTAP	28	312	3
NMTAP	28	336	3
NMTAP	28	360	3
NMTAP	29	0	3
NMTAP	29	24	3
NMTAP	29	48	3
NMTAP	29	72	3
NMTAP	29	96	3
NMTAP	29	120	3
NMTAP	29	144	3
NMTAP	29	168	3
NMTAP	29	192	3
NMTAP	29	216	3
NMTAP	29	240	3
NMTAP	29	264	3
NMHLD	30	0	6	96
NMHLD	30	96	5	96
NMHLD	30	192	4	96
NMHLD	30	288	3	96
NMHLD	31	0	1	96
NMHLD	31	96	2	96
NMHLD	31	192	3	96
NMHLD	31	288	4	96
NMHLD	32	0	7	96
NMHLD	32	96	6	96
NMHLD	32	192	5	96
NMHLD	32	288	4	96
NMHLD	33	0	0	96
NMHLD	33	96	1	96
NMHLD	33	192	2	96
NMTAP	33	288	3
NMHLD	34	0	2	144
NMHLD	34	0	7	144
NMTAP	34	192	3
NMTAP	34	192	4
NMTAP	34	240	3
NMTAP	34	240	4
NMHLD	35	0	0	144
NMHLD	35	0	5	144
NMTAP	35	192	3
NMTAP	35	192	4
NMTAP	35	240	3
NMTAP	35	240	4
NMHLD	36	0	3	0
NMHLD	36	0	7	768
NMHLD	36	24	3	0
NMHLD	36	48	3	0
NMHLD	36	72	3	0
NMHLD	36	96	3	0
NMHLD	36	120	3	0
NMHLD	36	144	3	0
NMHLD	36	168	3	0
NMHLD	36	192	3	0
NMHLD	36	216	3	0
NMHLD	36	240	3	0
NMHLD	36	264	3	0
NMHLD	36	288	3	0
NMHLD	36	312	3	0
NMHLD	36	336	3	0
NMHLD	36	360	3	0
NMHLD	37	0	3	0
NMHLD	37	24	3	0
NMHLD	37	48	3	0
NMHLD	37	72	3	0
NMHLD	37	96	3	0
NMHLD	37	120	3	0
NMHLD	37	144	3	0
NMHLD	37	168	3	0
NMHLD	37	192	3	0
NMHLD	37	216	3	0
NMHLD	37	240	3	0
NMHLD	37	264	3	0
NMHLD	37	288	3	0
NMHLD	37	312	3	0
NMHLD	37	336	3	0
NMHLD	37	360	3	0
BRSTR	38	0	3
NMSF_	38	0	3	96	96	7
NMTAP	40	0	0
NMTAP	40	0	6
NMTAP	40	96	2
NMTAP	40	96	3
NMTAP	40	192	1
NMTAP	40	192	7
NMSTR	40	288	4
NMSCL	40	288	4	96	144	6
NMTAP	40	288	5
NMTAP	41	192	2
NMHLD	41	192	7	4032
NMTAP	42	0	2
NMTAP	42	24	2
NMTAP	42	48	2
NMTAP	42	72	2
NMTAP	42	96	2
NMTAP	42	120	2
NMTAP	42	144	2
NMTAP	42	168	2
NMTAP	42	192	2
NMTAP	42	216	2
NMTAP	42	240	2
NMTAP	42	264	2
NMTAP	42	288	2
NMTAP	42	312	2
NMTAP	42	336	2
NMTAP	42	360	2
NMTAP	43	0	2
NMTAP	43	24	2
NMTAP	43	48	2
NMTAP	43	72	2
NMTAP	43	96	2
NMTAP	43	120	2
NMTAP	43	144	2
NMTAP	43	168	2
NMTAP	43	192	2
NMTAP	43	216	2
NMTAP	43	240	2
NMTAP	43	264	2
NMTAP	43	288	2
NMTAP	43	312	2
NMTAP	43	336	2
NMTAP	43	360	2
NMTAP	44	0	2
NMTAP	44	24	2
NMTAP	44	48	2
NMTAP	44	72	2
NMTAP	44	96	2
NMTAP	44	120	2
NMTAP	44	144	2
NMTAP	44	168	2
NMTAP	44	192	2
NMTAP	44	216	2
NMTAP	44	240	2
NMTAP	44	264	2
NMTAP	44	288	2
NMTAP	44	312	2
NMTAP	44	336	2
NMTAP	44	360	2
NMTAP	45	0	2
NMTAP	45	24	2
NMTAP	45	48	2
NMTAP	45	72	2
NMTAP	45	96	2
NMTAP	45	120	2
NMTAP	45	144	2
NMTAP	45	168	2
NMTAP	45	192	2
NMTAP	45	216	2
NMTAP	45	240	2
NMTAP	45	264	2
NMTAP	45	288	2
NMTAP	45	312	2
NMTAP	45	336	2
NMTAP	45	360	2
NMTAP	46	0	2
NMTAP	46	24	2
NMTAP	46	48	2
NMTAP	46	72	2
NMTAP	46	96	2
NMTAP	46	120	2
NMTAP	46	144	2
NMTAP	46	168	2
NMTAP	46	192	2
NMTAP	46	216	2
NMTAP	46	240	2
NMTAP	46	264	2
NMTAP	46	288	2
NMTAP	46	312	2
NMTAP	46	336	2
NMTAP	46	360	2
NMTAP	47	0	2
NMTAP	47	24	2
NMTAP	47	48	2
NMTAP	47	72	2
NMTAP	47	96	2
NMTAP	47	120	2
NMTAP	47	144	2
NMTAP	47	168	2
NMTAP	47	192	2
NMTAP	47	216	2
NMTAP	47	240	2
NMTAP	47	264	2
NMTAP	47	288	2
NMTAP	47	312	2
NMTAP	47	336	2
NMTAP	47	360	2
NMTAP	48	0	2
NMTAP	48	24	2
NMTAP	48	48	2
NMTAP	48	72	2
NMTAP	48	96	2
NMTAP	48	120	2
NMTAP	48	144	2
NMTAP	48	168	2
NMTAP	48	192	2
NMTAP	48	216	2
NMTAP	48	240	2
NMTAP	48	264	2
NMTAP	48	288	2
NMTAP	48	312	2
NMTAP	48	336	2
NMTAP	48	360	2
NMTAP	49	0	2
NMTAP	49	24	2
NMTAP	49	48	2
NMTAP	49	72	2
NMTAP	49	96	2
NMTAP	49	120	2
NMTAP	49	144	2
NMTAP	49	168	2
NMTAP	49	192	2
NMTAP	49	216	2
NMTAP	49	240	2
NMTAP	49	264	2
NMTAP	49	288	2
NMTAP	49	312	2
NMTAP	49	336	2
NMTAP	49	360	2
NMTAP	50	0	2
NMTAP	50	24	2
NMTAP	50	48	2
NMTAP	50	72	2
NMTAP	50	96	2
NMTAP	50	120	2
NMTAP	50	144	2
NMTAP	50	168	2
NMTAP	50	192	2
NMTAP	50	216	2
NMTAP	50	240	2
NMTAP	50	264	2
NMTAP	50	288	2
NMTAP	50	312	2
NMTAP	50	336	2
NMTAP	50	360	2
NMTAP	51	0	2
NMTAP	51	24	2
NMTAP	51	48	2
NMTAP	51	72	2
NMTAP	51	96	2
NMTAP	51	120	2
NMTAP	51	144	2
NMTAP	51	168	2
NMTAP	51	192	2
NMTAP	51	216	2
NMTAP	51	240	2
NMTAP	51	264	2
NMTAP	51	288	2
NMTAP	51	312	2
NMTAP	51	336	2
NMTAP	51	360	2
NMTAP	52	0	2
NMHLD	57	0	5	96
NMTAP	57	96	3
NMTAP	57	160	2
NMTAP	57	192	3
NMTAP	57	288	2
NMTAP	57	288	3
NMHLD	58	0	2	96
NMTAP	58	96	4
NMTAP	58	160	5
NMTAP	58	192	4
NMTAP	58	256	2
NMTAP	58	320	0
NMTAP	59	0	5
NMTAP	59	64	5
NMTAP	59	96	4
NMTAP	59	160	4
NMTAP	59	192	3
NMTAP	59	256	3
NMTAP	59	288	2
NMTAP	59	352	2
NMTAP	60	0	1
NMTAP	60	64	1
NMTAP	60	96	0
NMTAP	60	160	0
NMTAP	60	192	7
NMTAP	60	224	0
NMTAP	60	256	7
NMTAP	60	288	0
NMHLD	61	0	2	720
NMHLD	61	0	3	72
NMHLD	61	168	4	72
NMHLD	61	312	5	72
NMHLD	62	96	6	72
NMHLD	62	264	7	888
NMHLD	63	0	3	0
NMHLD	63	16	3	0
NMHLD	63	32	3	0
NMHLD	63	48	3	0
NMHLD	63	64	3	0
NMHLD	63	80	3	0
NMHLD	63	96	3	0
NMHLD	63	112	3	0
NMHLD	63	128	3	0
NMHLD	63	144	3	0
NMHLD	63	160	3	0
NMHLD	63	176	3	0
NMHLD	63	192	3	0
NMHLD	63	208	3	0
NMHLD	63	224	3	0
NMHLD	63	240	3	0
NMHLD	63	256	3	0
NMHLD	63	272	3	0
NMHLD	63	288	3	0
NMHLD	63	304	3	0
NMHLD	63	320	3	0
NMHLD	63	336	3	0
NMHLD	63	352	3	0
NMHLD	63	368	3	0
NMHLD	64	0	3	0
NMHLD	64	16	3	0
NMHLD	64	32	3	0
NMHLD	64	48	3	0
NMHLD	64	64	3	0
NMHLD	64	80	3	0
NMHLD	64	96	3	0
NMHLD	64	112	3	0
NMHLD	64	128	3	0
NMHLD	64	144	3	0
NMHLD	64	160	3	0
NMHLD	64	176	3	0
NMHLD	64	192	3	0
NMHLD	64	208	3	0
NMHLD	64	224	3	0
NMHLD	64	240	3	0
NMHLD	64	256	3	0
NMHLD	64	272	3	0
NMHLD	64	288	3	0
NMHLD	64	304	3	0
NMHLD	64	320	3	0
NMHLD	64	336	3	0
NMHLD	64	352	3	0
NMHLD	64	368	3	0
NMHLD	65	0	3	0
NMTAP	66	96	1
NMTAP	66	96	6
NMTAP	66	192	1
NMTAP	66	192	6
NMTAP	67	0	1
NMTAP	67	0	7
NMTAP	67	96	4
NMTAP	67	96	5
NMTAP	67	192	0
NMTAP	67	192	6
NMTAP	67	288	2
NMSTR	67	288	3
NMSCR	67	288	3	96	144	1
NMHLD	68	192	0	3168
NMTAP	68	192	5
NMHLD	69	0	5	0
NMHLD	69	16	5	0
NMHLD	69	32	5	0
NMHLD	69	48	5	0
NMHLD	69	64	5	0
NMHLD	69	80	5	0
NMHLD	69	96	5	0
NMHLD	69	112	5	0
NMHLD	69	128	5	0
NMHLD	69	144	5	0
NMHLD	69	160	5	0
NMHLD	69	176	5	0
NMHLD	69	192	5	0
NMHLD	69	208	5	0
NMHLD	69	224	5	0
NMHLD	69	240	5	0
NMHLD	69	256	5	0
NMHLD	69	272	5	0
NMHLD	69	288	5	0
NMHLD	69	304	5	0
NMHLD	69	320	5	0
NMHLD	69	336	5	0
NMHLD	69	352	5	0
NMHLD	69	368	5	0
NMHLD	70	0	5	0
NMHLD	70	16	5	0
NMHLD	70	32	5	0
NMHLD	70	48	5	0
NMHLD	70	64	5	0
NMHLD	70	80	5	0
NMHLD	70	96	5	0
NMHLD	70	112	5	0
NMHLD	70	128	5	0
NMHLD	70	144	5	0
NMHLD	70	160	5	0
NMHLD	70	176	5	0
NMHLD	70	192	5	0
NMHLD	70	208	5	0
NMHLD	70	224	5	0
NMHLD	70	240	5	0
NMHLD	70	256	5	0
NMHLD	70	272	5	0
NMHLD	70	288	5	0
NMHLD	70	304	5	0
NMHLD	70	320	5	0
NMHLD	70	336	5	0
NMHLD	70	352	5	0
NMHLD	70	368	5	0
NMHLD	71	0	5	0
NMHLD	71	16	5	0
NMHLD	71	32	5	0
NMHLD	71	48	5	0
NMHLD	71	64	5	0
NMHLD	71	80	5	0
NMHLD	71	96	5	0
NMHLD	71	112	5	0
NMHLD	71	128	5	0
NMHLD	71	144	5	0
NMHLD	71	160	5	0
NMHLD	71	176	5	0
NMHLD	71	192	5	0
NMHLD	71	208	5	0
NMHLD	71	224	5	0
NMHLD	71	240	5	0
NMHLD	71	256	5	0
NMHLD	71	272	5	0
NMHLD	71	288	5	0
NMHLD	71	304	5	0
NMHLD	71	320	5	0
NMHLD	71	336	5	0
NMHLD	71	352	5	0
NMHLD	71	368	5	0
NMHLD	72	0	5	0
NMHLD	72	16	5	0
NMHLD	72	32	5	0
NMHLD	72	48	5	0
NMHLD	72	64	5	0
NMHLD	72	80	5	0
NMHLD	72	96	5	0
NMHLD	72	112	5	0
NMHLD	72	128	5	0
NMHLD	72	144	5	0
NMHLD	72	160	5	0
NMHLD	72	176	5	0
NMHLD	72	192	5	0
NMHLD	72	208	5	0
NMHLD	72	224	5	0
NMHLD	72	240	5	0
NMHLD	72	256	5	0
NMHLD	72	272	5	0
NMHLD	72	288	5	0
NMHLD	72	304	5	0
NMHLD	72	320	5	0
NMHLD	72	336	5	0
NMHLD	72	352	5	0
NMHLD	72	368	5	0
NMHLD	73	0	5	0
NMHLD	73	16	5	0
NMHLD	73	32	5	0
NMHLD	73	48	5	0
NMHLD	73	64	5	0
NMHLD	73	80	5	0
NMHLD	73	96	5	0
NMHLD	73	112	5	0
NMHLD	73	128	5	0
NMHLD	73	144	5	0
NMHLD	73	160	5	0
NMHLD	73	176	5	0
NMHLD	73	192	5	0
NMHLD	73	208	5	0
NMHLD	73	224	5	0
NMHLD	73	240	5	0
NMHLD	73	256	5	0
NMHLD	73	272	5	0
NMHLD	73	288	5	0
NMHLD	73	304	5	0
NMHLD	73	320	5	0
NMHLD	73	336	5	0
NMHLD	73	352	5	0
NMHLD	73	368	5	0
NMHLD	74	0	5	0
NMHLD	74	16	5	0
NMHLD	74	32	5	0
NMHLD	74	48	5	0
NMHLD	74	64	5	0
NMHLD	74	80	5	0
NMHLD	74	96	5	0
NMHLD	74	112	5	0
NMHLD	74	128	5	0
NMHLD	74	144	5	0
NMHLD	74	160	5	0
NMHLD	74	176	5	0
NMHLD	74	192	5	0
NMHLD	74	208	5	0
NMHLD	74	224	5	0
NMHLD	74	240	5	0
NMHLD	74	256	5	0
NMHLD	74	272	5	0
NMHLD	74	288	5	0
NMHLD	74	304	5	0
NMHLD	74	320	5	0
NMHLD	74	336	5	0
NMHLD	74	352	5	0
NMHLD	74	368	5	0
NMHLD	75	0	5	0
NMHLD	75	16	5	0
NMHLD	75	32	5	0
NMHLD	75	48	5	0
NMHLD	75	64	5	0
NMHLD	75	80	5	0
NMHLD	75	96	5	0
NMHLD	75	112	5	0
NMHLD	75	128	5	0
NMHLD	75	144	5	0
NMHLD	75	160	5	0
NMHLD	75	176	5	0
NMHLD	75	192	5	0
NMHLD	75	208	5	0
NMHLD	75	224	5	0
NMHLD	75	240	5	0
NMHLD	75	256	5	0
NMHLD	75	272	5	0
NMHLD	75	288	5	0
NMHLD	75	304	5	0
NMHLD	75	320	5	0
NMHLD	75	336	5	0
NMHLD	75	352	5	0
NMHLD	75	368	5	0
NMHLD	76	0	5	0
NMHLD	76	16	5	0
NMHLD	76	32	5	0
NMHLD	76	48	5	0
NMHLD	76	64	5	0
NMHLD	76	80	5	0
NMHLD	76	96	5	0
NMHLD	76	112	5	0
NMHLD	76	128	5	0
NMHLD	76	144	5	0
NMHLD	76	160	5	0
NMHLD	76	176	5	0
NMHLD	76	192	5	0
NMHLD	76	208	5	0
NMHLD	76	224	5	0
NMHLD	76	240	5	0
NMHLD	76	256	5	0
NMHLD	76	272	5	0
NMHLD	76	288	5	0
NMHLD	77	0	2	0
NMHLD	77	0	7	4224
NMHLD	77	16	2	0
NMHLD	77	32	2	0
NMHLD	77	48	2	0
NMHLD	77	64	2	0
NMHLD	77	80	2	0
NMHLD	77	96	2	0
NMHLD	77	112	2	0
NMHLD	77	128	2	0
NMHLD	77	144	2	0
NMHLD	77	160	2	0
NMHLD	77	176	2	0
NMHLD	77	192	2	0
NMHLD	77	208	2	0
NMHLD	77	224	2	0
NMHLD	77	240	2	0
NMHLD	77	256	2	0
NMHLD	77	272	2	0
NMHLD	77	288	2	0
NMHLD	77	304	2	0
NMHLD	77	320	2	0
NMHLD	77	336	2	0
NMHLD	77	352	2	0
NMHLD	77	368	2	0
NMHLD	78	0	2	0
NMHLD	78	16	2	0
NMHLD	78	32	2	0
NMHLD	78	48	2	0
NMHLD	78	64	2	0
NMHLD	78	80	2	0
NMHLD	78	96	2	0
NMHLD	78	112	2	0
NMHLD	78	128	2	0
NMHLD	78	144	2	0
NMHLD	78	160	2	0
NMHLD	78	176	2	0
NMHLD	78	192	2	0
NMHLD	78	208	2	0
NMHLD	78	224	2	0
NMHLD	78	240	2	0
NMHLD	78	256	2	0
NMHLD	78	272	2	0
NMHLD	78	288	2	0
NMHLD	78	304	2	0
NMHLD	78	320	2	0
NMHLD	78	336	2	0
NMHLD	78	352	2	0
NMHLD	78	368	2	0
NMHLD	79	0	2	0
NMHLD	79	16	2	0
NMHLD	79	32	2	0
NMHLD	79	48	2	0
NMHLD	79	64	2	0
NMHLD	79	80	2	0
NMHLD	79	96	2	0
NMHLD	79	112	2	0
NMHLD	79	128	2	0
NMHLD	79	144	2	0
NMHLD	79	160	2	0
NMHLD	79	176	2	0
NMHLD	79	192	2	0
NMHLD	79	208	2	0
NMHLD	79	224	2	0
NMHLD	79	240	2	0
NMHLD	79	256	2	0
NMHLD	79	272	2	0
NMHLD	79	288	2	0
NMHLD	79	304	2	0
NMHLD	79	320	2	0
NMHLD	79	336	2	0
NMHLD	79	352	2	0
NMHLD	79	368	2	0
NMHLD	80	0	2	0
NMHLD	80	16	2	0
NMHLD	80	32	2	0
NMHLD	80	48	2	0
NMHLD	80	64	2	0
NMHLD	80	80	2	0
NMHLD	80	96	2	0
NMHLD	80	112	2	0
NMHLD	80	128	2	0
NMHLD	80	144	2	0
NMHLD	80	160	2	0
NMHLD	80	176	2	0
NMHLD	80	192	2	0
NMHLD	80	208	2	0
NMHLD	80	224	2	0
NMHLD	80	240	2	0
NMHLD	80	256	2	0
NMHLD	80	272	2	0
NMHLD	80	288	2	0
NMHLD	80	304	2	0
NMHLD	80	320	2	0
NMHLD	80	336	2	0
NMHLD	80	352	2	0
NMHLD	80	368	2	0
NMHLD	81	0	2	0
NMHLD	81	16	2	0
NMHLD	81	32	2	0
NMHLD	81	48	2	0
NMHLD	81	64	2	0
NMHLD	81	80	2	0
NMHLD	81	96	2	0
NMHLD	81	112	2	0
NMHLD	81	128	2	0
NMHLD	81	144	2	0
NMHLD	81	160	2	0
NMHLD	81	176	2	0
NMHLD	81	192	2	0
NMHLD	81	208	2	0
NMHLD	81	224	2	0
NMHLD	81	240	2	0
NMHLD	81	256	2	0
NMHLD	81	272	2	0
NMHLD	81	288	2	0
NMHLD	81	304	2	0
NMHLD	81	320	2	0
NMHLD	81	336	2	0
NMHLD	81	352	2	0
NMHLD	81	368	2	0
NMHLD	82	0	2	0
NMHLD	82	16	2	0
NMHLD	82	32	2	0
NMHLD	82	48	2	0
NMHLD	82	64	2	0
NMHLD	82	80	2	0
NMHLD	82	96	2	0
NMHLD	82	112	2	0
NMHLD	82	128	2	0
NMHLD	82	144	2	0
NMHLD	82	160	2	0
NMHLD	82	176	2	0
NMHLD	82	192	2	0
NMHLD	82	208	2	0
NMHLD	82	224	2	0
NMHLD	82	240	2	0
NMHLD	82	256	2	0
NMHLD	82	272	2	0
NMHLD	82	288	2	0
NMHLD	82	304	2	0
NMHLD	82	320	2	0
NMHLD	82	336	2	0
NMHLD	82	352	2	0
NMHLD	82	368	2	0
NMHLD	83	0	2	0
NMHLD	83	16	2	0
NMHLD	83	32	2	0
NMHLD	83	48	2	0
NMHLD	83	64	2	0
NMHLD	83	80	2	0
NMHLD	83	96	2	0
NMHLD	83	112	2	0
NMHLD	83	128	2	0
NMHLD	83	144	2	0
NMHLD	83	160	2	0
NMHLD	83	176	2	0
NMHLD	83	192	2	0
NMHLD	83	208	2	0
NMHLD	83	224	2	0
NMHLD	83	240	2	0
NMHLD	83	256	2	0
NMHLD	83	272	2	0
NMHLD	83	288	2	0
NMHLD	83	304	2	0
NMHLD	83	320	2	0
NMHLD	83	336	2	0
NMHLD	83	352	2	0
NMHLD	83	368	2	0
NMHLD	84	0	2	0
NMHLD	84	16	2	0
NMHLD	84	32	2	0
NMHLD	84	48	2	0
NMHLD	84	64	2	0
NMHLD	84	80	2	0
NMHLD	84	96	2	0
NMHLD	84	112	2	0
NMHLD	84	128	2	0
NMHLD	84	144	2	0
NMHLD	84	160	2	0
NMHLD	84	176	2	0
NMHLD	84	192	2	0
NMHLD	84	208	2	0
NMHLD	84	224	2	0
NMHLD	84	240	2	0
NMHLD	84	256	2	0
NMHLD	84	272	2	0
NMHLD	84	288	2	0
NMHLD	84	304	2	0
NMHLD	84	320	2	0
NMHLD	84	336	2	0
NMHLD	84	352	2	0
NMHLD	84	368	2	0
NMHLD	85	0	2	0
NMHLD	85	16	2	0
NMHLD	85	32	2	0
NMHLD	85	48	2	0
NMHLD	85	64	2	0
NMHLD	85	80	2	0
NMHLD	85	96	2	0
NMHLD	85	112	2	0
NMHLD	85	128	2	0
NMHLD	85	144	2	0
NMHLD	85	160	2	0
NMHLD	85	176	2	0
NMHLD	85	192	2	0
NMHLD	85	208	2	0
NMHLD	85	224	2	0
NMHLD	85	240	2	0
NMHLD	85	256	2	0
NMHLD	85	272	2	0
NMHLD	85	288	2	0
NMHLD	85	304	2	0
NMHLD	85	320	2	0
NMHLD	85	336	2	0
NMHLD	85	352	2	0
NMHLD	85	368	2	0
NMHLD	86	0	2	0
NMHLD	86	16	2	0
NMHLD	86	32	2	0
NMHLD	86	48	2	0
NMHLD	86	64	2	0
NMHLD	86	80	2	0
NMHLD	86	96	2	0
NMHLD	86	112	2	0
NMHLD	86	128	2	0
NMHLD	86	144	2	0
NMHLD	86	160	2	0
NMHLD	86	176	2	0
NMHLD	86	192	2	0
NMHLD	86	208	2	0
NMHLD	86	224	2	0
NMHLD	86	240	2	0
NMHLD	86	256	2	0
NMHLD	86	272	2	0
NMHLD	86	288	2	0
NMHLD	86	304	2	0
NMHLD	86	320	2	0
NMHLD	86	336	2	0
NMHLD	86	352	2	0
NMHLD	86	368	2	0
NMHLD	87	0	2	0
NMHLD	87	16	2	0
NMHLD	87	32	2	0
NMHLD	87	48	2	0
NMHLD	87	64	2	0
NMHLD	87	80	2	0
NMHLD	87	96	2	0
NMHLD	87	112	2	0
NMHLD	87	128	2	0
NMHLD	87	144	2	0
NMHLD	87	160	2	0
NMHLD	87	176	2	0
NMHLD	87	192	2	0
NMHLD	87	208	2	0
NMHLD	87	224	2	0
NMHLD	87	240	2	0
NMHLD	87	256	2	0
NMHLD	87	272	2	0
NMHLD	87	288	2	0
NMHLD	87	304	2	0
NMHLD	87	320	2	0
NMHLD	87	336	2	0
NMHLD	87	352	2	0
NMHLD	87	368	2	0
NMHLD	88	0	2	0
NMTAP	89	0	0
NMTAP	89	0	5
NMTAP	89	16	0
NMTAP	89	16	5
NMTAP	89	32	0
NMTAP	89	32	5
NMTAP	89	48	0
NMTAP	89	48	5
NMTAP	89	64	0
NMTAP	89	64	5
NMTAP	89	80	0
NMTAP	89	80	5
NMTAP	89	96	0
NMTAP	89	96	5
NMTAP	89	112	0
NMTAP	89	112	5
NMTAP	89	128	0
NMTAP	89	128	5
NMTAP	89	144	0
NMTAP	89	144	5
NMTAP	89	160	0
NMTAP	89	160	5
NMTAP	89	176	0
NMTAP	89	176	5
NMTAP	89	192	0
NMTAP	89	192	5
NMTAP	89	208	0
NMTAP	89	208	5
NMTAP	89	224	0
NMTAP	89	224	5
NMTAP	89	240	0
NMTAP	89	240	5
NMTAP	89	256	0
NMTAP	89	256	5
NMTAP	89	272	0
NMTAP	89	272	5
BRTAP	89	288	0
BRTAP	89	288	5

T_REC_TAP	680
T_REC_BRK	2
T_REC_XTP	0
T_REC_BXX	0
T_REC_HLD	564
T_REC_XHO	0
T_REC_BHO	0
T_REC_BXH	0
T_REC_STR	2
T_REC_BST	1
T_REC_XST	0
T_REC_XBS	0
T_REC_TTP	0
T_REC_THO	0
T_REC_SLD	3
T_REC_BSL	0
T_REC_ALL	1252
T_NUM_TAP	682
T_NUM_BRK	3
T_NUM_HLD	564
T_NUM_SLD	3
T_NUM_ALL	1252
T_JUDGE_TAP	685
T_JUDGE_HLD	875
T_JUDGE_SLD	3
T_JUDGE_ALL	1563
TTM_EACHPAIRS	41
TTM_SCR_TAP	341000
TTM_SCR_BRK	7800
TTM_SCR_HLD	564000
TTM_SCR_SLD	4500
TTM_SCR_ALL	917300
TTM_SCR_S	889500
TTM_SCR_SS	917000
TTM_RAT_ACV	10003

