VERSION	0.00.00	1.04.00
FES_MODE	0
BPM_DEF	135.000	135.000	135.000	135.000
MET_DEF	4	4
RESOLUTION	384
CLK_DEF	384
COMPATIBLE_CODE	MA2

BPM	0	0	135.000

NMSTR	1	0	0
NMSCL	1	0	0	96	192	3
NMSTR	2	0	1
NMSI_	2	0	1	96	192	4
NMSXR	2	0	1	96	192	7
NMSTR	3	0	1
NMSUL	3	0	1	96	192	2
NMSTR	4	0	7
NMSUL	4	0	7	96	192	2
NMSTR	5	0	6
NMSCL	5	0	6	96	192	3
NMSXL	5	0	6	96	192	6
NMSTR	6	0	0
NMSSL	6	0	0	96	192	4
NMTAP	7	0	2
NMTAP	7	0	6
NMTAP	7	192	0
NMTAP	7	192	4
NMTAP	8	0	2
NMTAP	8	0	6
NMTAP	8	96	0
NMTAP	8	96	4
NMTAP	8	192	2
NMTAP	8	192	6
NMSTR	8	288	0
NMSCR	8	288	0	96	48	3
NMSTR	8	288	4
NMSCR	8	288	4	96	48	7
NMSTR	9	0	0
NMSUL	9	0	0	96	48	4
NMSTR	9	0	4
NMSUL	9	0	4	96	48	0
NMSTR	9	96	0
NMSCR	9	96	0	96	48	3
NMSTR	9	96	4
NMSCR	9	96	4	96	48	7
BRTAP	9	192	0
BRTAP	9	192	4
NMSTR	9	288	3
NMSCL	9	288	3	96	48	0
NMSTR	9	288	7
NMSCL	9	288	7	96	48	4
NMSTR	10	0	3
NMSUR	10	0	3	96	48	7
NMSTR	10	0	7
NMSUR	10	0	7	96	48	3
NMSTR	10	96	3
NMSCL	10	96	3	96	48	0
NMSTR	10	96	7
NMSCL	10	96	7	96	48	4
BRTAP	10	192	3
BRTAP	10	192	7
NMSTR	10	288	0
NMSCR	10	288	0	96	48	3
NMSTR	10	288	4
NMSCR	10	288	4	96	48	7
NMSTR	11	0	0
NMSUL	11	0	0	96	48	4
NMSTR	11	0	4
NMSUL	11	0	4	96	48	0
NMSTR	11	96	0
NMSCR	11	96	0	96	48	3
NMSTR	11	96	4
NMSCR	11	96	4	96	48	7
BRTAP	11	192	0
BRTAP	11	192	4
NMSTR	11	288	3
NMSCL	11	288	3	96	48	0
NMSTR	11	288	7
NMSCL	11	288	7	96	48	4
NMSTR	12	0	3
NMSUR	12	0	3	96	48	7
NMSTR	12	0	7
NMSUR	12	0	7	96	48	3
NMSTR	12	96	3
NMSCL	12	96	3	96	48	0
NMSTR	12	96	7
NMSCL	12	96	7	96	48	4
BRTAP	12	192	3
BRTAP	12	192	7
NMSTR	12	288	0
NMSCR	12	288	0	96	48	3
NMSTR	12	288	4
NMSCR	12	288	4	96	48	7
NMSTR	13	0	0
NMSUL	13	0	0	96	48	4
NMSTR	13	0	4
NMSUL	13	0	4	96	48	0
NMSTR	13	96	0
NMSCR	13	96	0	96	48	3
NMSTR	13	96	4
NMSCR	13	96	4	96	48	7
BRTAP	13	192	0
BRTAP	13	192	4
NMSTR	13	288	3
NMSCL	13	288	3	96	48	0
NMSTR	13	288	7
NMSCL	13	288	7	96	48	4
NMSTR	14	0	3
NMSUR	14	0	3	96	48	7
NMSTR	14	0	7
NMSUR	14	0	7	96	48	3
NMSTR	14	96	3
NMSCL	14	96	3	96	48	0
NMSTR	14	96	7
NMSCL	14	96	7	96	48	4
BRTAP	14	192	3
BRTAP	14	192	7
NMSTR	14	288	0
NMSCR	14	288	0	96	48	3
NMSTR	14	288	4
NMSCR	14	288	4	96	48	7
NMSTR	15	0	0
NMSUL	15	0	0	96	48	4
NMSTR	15	0	4
NMSUL	15	0	4	96	48	0
NMSTR	15	96	0
NMSCR	15	96	0	96	48	3
NMSTR	15	96	4
NMSCR	15	96	4	96	48	7
BRTAP	15	192	0
BRTAP	15	192	4
NMSTR	15	288	3
NMSCL	15	288	3	96	48	0
NMSTR	15	288	7
NMSCL	15	288	7	96	48	4
NMSTR	16	0	3
NMSUR	16	0	3	96	48	7
NMSTR	16	0	7
NMSUR	16	0	7	96	48	3
NMSTR	16	96	3
NMSCL	16	96	3	96	48	0
NMSTR	16	96	7
NMSCL	16	96	7	96	48	4
BRTAP	16	192	3
BRTAP	16	192	7
NMSTR	16	288	0
NMSCR	16	288	0	96	48	3
NMSTR	16	288	4
NMSCR	16	288	4	96	48	7
NMSTR	17	0	0
NMSUL	17	0	0	96	48	4
NMSTR	17	0	4
NMSUL	17	0	4	96	48	0
NMSTR	17	96	0
NMSCR	17	96	0	96	48	3
NMSTR	17	96	4
NMSCR	17	96	4	96	48	7
NMSTR	17	192	0
NMSUL	17	192	0	96	48	4
NMSTR	17	192	4
NMSUL	17	192	4	96	48	0
NMSTR	17	288	0
NMSCR	17	288	0	96	48	3
NMSTR	17	288	4
NMSCR	17	288	4	96	48	7
NMSTR	18	0	0
NMSUL	18	0	0	96	48	4
NMSTR	18	0	4
NMSUL	18	0	4	96	48	0
NMSTR	18	96	0
NMSCR	18	96	0	96	48	3
NMSTR	18	96	4
NMSCR	18	96	4	96	48	7
BRTAP	18	192	0
BRTAP	18	192	4
NMSTR	18	288	3
NMSCL	18	288	3	96	48	0
NMSTR	18	288	7
NMSCL	18	288	7	96	48	4
NMSTR	19	0	3
NMSUR	19	0	3	96	48	7
NMSTR	19	0	7
NMSUR	19	0	7	96	48	3
NMSTR	19	96	3
NMSCL	19	96	3	96	48	0
NMSTR	19	96	7
NMSCL	19	96	7	96	48	4
NMSTR	19	192	3
NMSUR	19	192	3	96	48	7
NMSTR	19	192	7
NMSUR	19	192	7	96	48	3
NMSTR	19	288	3
NMSCL	19	288	3	96	48	0
NMSTR	19	288	7
NMSCL	19	288	7	96	48	4
NMSTR	20	0	3
NMSUR	20	0	3	96	48	7
NMSTR	20	0	7
NMSUR	20	0	7	96	48	3
NMSTR	20	96	3
NMSCL	20	96	3	96	48	0
NMSTR	20	96	7
NMSCL	20	96	7	96	48	4
BRTAP	20	192	3
BRTAP	20	192	7
NMSTR	20	288	0
NMSCR	20	288	0	96	48	3
NMSTR	20	288	4
NMSCR	20	288	4	96	48	7
NMSTR	21	0	0
NMSUL	21	0	0	96	48	4
NMSTR	21	0	4
NMSUL	21	0	4	96	48	0
NMSTR	21	96	0
NMSCR	21	96	0	96	48	3
NMSTR	21	96	4
NMSCR	21	96	4	96	48	7
NMSTR	21	192	0
NMSUL	21	192	0	96	48	4
NMSTR	21	192	4
NMSUL	21	192	4	96	48	0
NMSTR	21	288	0
NMSCR	21	288	0	96	48	3
NMSTR	21	288	4
NMSCR	21	288	4	96	48	7
NMSTR	22	0	0
NMSUL	22	0	0	96	48	4
NMSTR	22	0	4
NMSUL	22	0	4	96	48	0
NMSTR	22	96	0
NMSCR	22	96	0	96	48	3
NMSTR	22	96	4
NMSCR	22	96	4	96	48	7
BRTAP	22	192	0
BRTAP	22	192	4
NMSTR	22	288	3
NMSCL	22	288	3	96	48	0
NMSTR	22	288	7
NMSCL	22	288	7	96	48	4
NMSTR	23	0	3
NMSUR	23	0	3	96	48	7
NMSTR	23	0	7
NMSUR	23	0	7	96	48	3
NMSTR	23	96	3
NMSCL	23	96	3	96	48	0
NMSTR	23	96	7
NMSCL	23	96	7	96	48	4
NMSTR	23	192	3
NMSUR	23	192	3	96	48	7
NMSTR	23	192	7
NMSUR	23	192	7	96	48	3
NMSTR	23	288	3
NMSCL	23	288	3	96	48	0
NMSTR	23	288	7
NMSCL	23	288	7	96	48	4
NMSTR	24	0	3
NMSUR	24	0	3	96	48	7
NMSTR	24	0	7
NMSUR	24	0	7	96	48	3
NMSTR	24	96	3
NMSCL	24	96	3	96	48	0
NMSTR	24	96	7
NMSCL	24	96	7	96	48	4
BRTAP	24	192	3
BRTAP	24	192	7
BRTAP	25	0	1
BRTAP	25	0	6
NMSTR	25	288	0
NMSCR	25	288	0	96	48	3
NMSTR	25	288	4
NMSCR	25	288	4	96	48	7
NMSTR	26	0	0
NMSUL	26	0	0	96	48	4
NMSTR	26	0	4
NMSUL	26	0	4	96	48	0
NMSTR	26	96	0
NMSCR	26	96	0	96	48	3
NMSTR	26	96	4
NMSCR	26	96	4	96	48	7
NMSTR	26	192	0
NMSUL	26	192	0	96	48	4
NMSTR	26	192	4
NMSUL	26	192	4	96	48	0
NMSTR	26	288	0
NMSCR	26	288	0	96	48	3
NMSTR	26	288	4
NMSCR	26	288	4	96	48	7
NMSTR	27	0	0
NMSUL	27	0	0	96	48	4
NMSTR	27	0	4
NMSUL	27	0	4	96	48	0
NMSTR	27	96	0
NMSCR	27	96	0	96	48	3
NMSTR	27	96	4
NMSCR	27	96	4	96	48	7
NMSTR	27	192	0
NMSUL	27	192	0	96	48	4
NMSTR	27	192	4
NMSUL	27	192	4	96	48	0
NMSTR	27	288	0
NMSCR	27	288	0	96	48	3
NMSTR	27	288	4
NMSCR	27	288	4	96	48	7
NMSTR	28	0	0
NMSUL	28	0	0	96	48	4
NMSTR	28	0	4
NMSUL	28	0	4	96	48	0
NMSTR	28	96	0
NMSCR	28	96	0	96	48	3
NMSTR	28	96	4
NMSCR	28	96	4	96	48	7
NMSTR	28	192	0
NMSUL	28	192	0	96	48	4
NMSTR	28	192	4
NMSUL	28	192	4	96	48	0
NMSTR	28	288	0
NMSCR	28	288	0	96	48	3
NMSTR	28	288	4
NMSCR	28	288	4	96	48	7
NMSTR	29	0	0
NMSUL	29	0	0	96	48	4
NMSTR	29	0	4
NMSUL	29	0	4	96	48	0
NMSTR	29	96	0
NMSCR	29	96	0	96	48	3
NMSTR	29	96	4
NMSCR	29	96	4	96	48	7
BRTAP	29	192	0
BRTAP	29	192	4
NMSTR	29	288	3
NMSCL	29	288	3	96	48	0
NMSTR	29	288	7
NMSCL	29	288	7	96	48	4
NMSTR	30	0	3
NMSUR	30	0	3	96	48	7
NMSTR	30	0	7
NMSUR	30	0	7	96	48	3
NMSTR	30	96	3
NMSCL	30	96	3	96	48	0
NMSTR	30	96	7
NMSCL	30	96	7	96	48	4
NMSTR	30	192	3
NMSUR	30	192	3	96	48	7
NMSTR	30	192	7
NMSUR	30	192	7	96	48	3
NMSTR	30	288	3
NMSCL	30	288	3	96	48	0
NMSTR	30	288	7
NMSCL	30	288	7	96	48	4
NMSTR	31	0	3
NMSUR	31	0	3	96	48	7
NMSTR	31	0	7
NMSUR	31	0	7	96	48	3
NMSTR	31	96	3
NMSCL	31	96	3	96	48	0
NMSTR	31	96	7
NMSCL	31	96	7	96	48	4
NMSTR	31	192	3
NMSUR	31	192	3	96	48	7
NMSTR	31	192	7
NMSUR	31	192	7	96	48	3
NMSTR	31	288	3
NMSCL	31	288	3	96	48	0
NMSTR	31	288	7
NMSCL	31	288	7	96	48	4
NMSTR	32	0	3
NMSUR	32	0	3	96	48	7
NMSTR	32	0	7
NMSUR	32	0	7	96	48	3
NMSTR	32	96	3
NMSCL	32	96	3	96	48	0
NMSTR	32	96	7
NMSCL	32	96	7	96	48	4
NMSTR	32	192	3
NMSUR	32	192	3	96	48	7
NMSTR	32	192	7
NMSUR	32	192	7	96	48	3
NMSTR	32	288	3
NMSCL	32	288	3	96	48	0
NMSTR	32	288	7
NMSCL	32	288	7	96	48	4
NMSTR	33	0	3
NMSUR	33	0	3	96	48	7
NMSTR	33	0	7
NMSUR	33	0	7	96	48	3
NMSTR	33	96	3
NMSCL	33	96	3	96	48	0
NMSTR	33	96	7
NMSCL	33	96	7	96	48	4
BRTAP	33	192	3
BRTAP	33	192	7
NMSTR	33	288	0
NMSCR	33	288	0	96	48	3
NMSTR	33	288	4
NMSCR	33	288	4	96	48	7
NMSTR	34	0	0
NMSUL	34	0	0	96	48	4
NMSTR	34	0	4
NMSUL	34	0	4	96	48	0
NMSTR	34	96	0
NMSCR	34	96	0	96	48	3
NMSTR	34	96	4
NMSCR	34	96	4	96	48	7
NMSTR	34	192	0
NMSUL	34	192	0	96	48	4
NMSTR	34	192	4
NMSUL	34	192	4	96	48	0
NMSTR	34	288	0
NMSCR	34	288	0	96	48	3
NMSTR	34	288	4
NMSCR	34	288	4	96	48	7
NMSTR	35	0	0
NMSUL	35	0	0	96	48	4
NMSTR	35	0	4
NMSUL	35	0	4	96	48	0
NMSTR	35	96	0
NMSCR	35	96	0	96	48	3
NMSTR	35	96	4
NMSCR	35	96	4	96	48	7
NMSTR	35	192	0
NMSUL	35	192	0	96	48	4
NMSTR	35	192	4
NMSUL	35	192	4	96	48	0
NMSTR	35	288	0
NMSCR	35	288	0	96	48	3
NMSTR	35	288	4
NMSCR	35	288	4	96	48	7
NMSTR	36	0	0
NMSUL	36	0	0	96	48	4
NMSTR	36	0	4
NMSUL	36	0	4	96	48	0
NMSTR	36	96	0
NMSCR	36	96	0	96	48	3
NMSTR	36	96	4
NMSCR	36	96	4	96	48	7
NMSTR	36	192	0
NMSUL	36	192	0	96	48	4
NMSTR	36	192	4
NMSUL	36	192	4	96	48	0
NMSTR	36	288	0
NMSCR	36	288	0	96	48	3
NMSTR	36	288	4
NMSCR	36	288	4	96	48	7
NMSTR	37	0	0
NMSUL	37	0	0	96	48	4
NMSTR	37	0	4
NMSUL	37	0	4	96	48	0
NMSTR	37	96	0
NMSCR	37	96	0	96	48	3
NMSTR	37	96	4
NMSCR	37	96	4	96	48	7
BRTAP	37	192	0
BRTAP	37	192	4
NMSTR	37	288	3
NMSCL	37	288	3	96	48	0
NMSTR	37	288	7
NMSCL	37	288	7	96	48	4
NMSTR	38	0	3
NMSUR	38	0	3	96	48	7
NMSTR	38	0	7
NMSUR	38	0	7	96	48	3
NMSTR	38	96	3
NMSCL	38	96	3	96	48	0
NMSTR	38	96	7
NMSCL	38	96	7	96	48	4
NMSTR	38	192	3
NMSUR	38	192	3	96	48	7
NMSTR	38	192	7
NMSUR	38	192	7	96	48	3
NMSTR	38	288	3
NMSCL	38	288	3	96	48	0
NMSTR	38	288	7
NMSCL	38	288	7	96	48	4
NMSTR	39	0	3
NMSUR	39	0	3	96	48	7
NMSTR	39	0	7
NMSUR	39	0	7	96	48	3
NMSTR	39	96	3
NMSCL	39	96	3	96	48	0
NMSTR	39	96	7
NMSCL	39	96	7	96	48	4
NMSTR	39	192	3
NMSUR	39	192	3	96	48	7
NMSTR	39	192	7
NMSUR	39	192	7	96	48	3
NMSTR	39	288	3
NMSCL	39	288	3	96	48	0
NMSTR	39	288	7
NMSCL	39	288	7	96	48	4
NMSTR	40	0	3
NMSUR	40	0	3	96	48	7
NMSTR	40	0	7
NMSUR	40	0	7	96	48	3
NMSTR	40	96	3
NMSCL	40	96	3	96	48	0
NMSTR	40	96	7
NMSCL	40	96	7	96	48	4
NMSTR	40	192	3
NMSUR	40	192	3	96	48	7
NMSTR	40	192	7
NMSUR	40	192	7	96	48	3
NMSTR	40	288	3
NMSCL	40	288	3	96	48	0
NMSTR	40	288	7
NMSCL	40	288	7	96	48	4
NMSTR	41	0	3
NMSUR	41	0	3	96	48	7
NMSTR	41	0	7
NMSUR	41	0	7	96	48	3
NMSTR	41	96	3
NMSCL	41	96	3	96	48	0
NMSTR	41	96	7
NMSCL	41	96	7	96	48	4
BRTAP	41	192	3
BRTAP	41	192	7
NMSTR	41	288	0
NMSCR	41	288	0	96	288	7
NMSTR	42	288	0
NMSCR	42	288	0	96	288	7
NMSTR	43	288	0
NMSCR	43	288	0	96	288	7
NMSTR	44	288	0
NMSCR	44	288	0	96	288	7
NMSTR	45	288	0
NMSCR	45	288	0	96	144	7
NMSTR	46	96	0
NMSCR	46	96	0	96	144	7
NMSTR	46	288	0
NMSCR	46	288	0	96	144	7
NMSTR	47	96	0
NMSCR	47	96	0	96	144	7
NMSTR	47	288	0
NMSCR	47	288	0	96	144	7
NMSTR	48	96	0
NMSCR	48	96	0	96	144	7
NMSTR	48	288	0
NMSCR	48	288	0	96	144	7
BRTAP	49	96	0
BRTAP	49	192	0
NMSTR	49	288	2
NMSCL	49	288	2	96	48	7
NMSTR	49	288	6
NMSCL	49	288	6	96	48	3
NMSTR	50	0	2
NMSUR	50	0	2	96	48	6
NMSTR	50	0	6
NMSUR	50	0	6	96	48	2
NMSTR	50	96	2
NMSCL	50	96	2	96	48	7
NMSTR	50	96	6
NMSCL	50	96	6	96	48	3
NMSTR	50	192	2
NMSUR	50	192	2	96	48	6
NMSTR	50	192	6
NMSUR	50	192	6	96	48	2
NMSTR	50	288	2
NMSCL	50	288	2	96	48	7
NMSTR	50	288	6
NMSCL	50	288	6	96	48	3
NMSTR	51	0	2
NMSUR	51	0	2	96	48	6
NMSTR	51	0	6
NMSUR	51	0	6	96	48	2
NMSTR	51	96	2
NMSCL	51	96	2	96	48	7
NMSTR	51	96	6
NMSCL	51	96	6	96	48	3
BRTAP	51	192	2
BRTAP	51	192	6
NMSTR	51	288	1
NMSCR	51	288	1	96	48	4
NMSTR	51	288	5
NMSCR	51	288	5	96	48	0
NMSTR	52	0	1
NMSUL	52	0	1	96	48	5
NMSTR	52	0	5
NMSUL	52	0	5	96	48	1
NMSTR	52	96	1
NMSCR	52	96	1	96	48	4
NMSTR	52	96	5
NMSCR	52	96	5	96	48	0
NMSTR	52	192	1
NMSUL	52	192	1	96	48	5
NMSTR	52	192	5
NMSUL	52	192	5	96	48	1
NMSTR	52	288	1
NMSCR	52	288	1	96	48	4
NMSTR	52	288	5
NMSCR	52	288	5	96	48	0
NMSTR	53	0	1
NMSUL	53	0	1	96	48	5
NMSTR	53	0	5
NMSUL	53	0	5	96	48	1
NMSTR	53	96	1
NMSCR	53	96	1	96	48	4
NMSTR	53	96	5
NMSCR	53	96	5	96	48	0
BRTAP	53	192	1
BRTAP	53	192	5
NMSTR	53	288	2
NMSCL	53	288	2	96	48	7
NMSTR	53	288	6
NMSCL	53	288	6	96	48	3
NMSTR	54	0	2
NMSUR	54	0	2	96	48	6
NMSTR	54	0	6
NMSUR	54	0	6	96	48	2
NMSTR	54	96	2
NMSCL	54	96	2	96	48	7
NMSTR	54	96	6
NMSCL	54	96	6	96	48	3
NMSTR	54	192	2
NMSUR	54	192	2	96	48	6
NMSTR	54	192	6
NMSUR	54	192	6	96	48	2
NMSTR	54	288	2
NMSCL	54	288	2	96	48	7
NMSTR	54	288	6
NMSCL	54	288	6	96	48	3
NMSTR	55	0	2
NMSUR	55	0	2	96	48	6
NMSTR	55	0	6
NMSUR	55	0	6	96	48	2
NMSTR	55	96	2
NMSCL	55	96	2	96	48	7
NMSTR	55	96	6
NMSCL	55	96	6	96	48	3
BRTAP	55	192	2
BRTAP	55	192	6
NMSTR	55	288	1
NMSCR	55	288	1	96	48	4
NMSTR	55	288	5
NMSCR	55	288	5	96	48	0
NMSTR	56	0	1
NMSUL	56	0	1	96	48	5
NMSTR	56	0	5
NMSUL	56	0	5	96	48	1
NMSTR	56	96	1
NMSCR	56	96	1	96	48	4
NMSTR	56	96	5
NMSCR	56	96	5	96	48	0
NMSTR	56	192	1
NMSUL	56	192	1	96	48	5
NMSTR	56	192	5
NMSUL	56	192	5	96	48	1
NMSTR	56	288	1
NMSCR	56	288	1	96	48	4
NMSTR	56	288	5
NMSCR	56	288	5	96	48	0
NMSTR	57	0	1
NMSUL	57	0	1	96	48	5
NMSTR	57	0	5
NMSUL	57	0	5	96	48	1
NMSTR	57	96	1
NMSCR	57	96	1	96	48	4
NMSTR	57	96	5
NMSCR	57	96	5	96	48	0
BRTAP	57	192	1
BRTAP	57	192	5
NMSTR	57	288	2
NMSCL	57	288	2	96	48	7
NMSTR	57	288	6
NMSCL	57	288	6	96	48	3
NMSTR	58	0	2
NMSUR	58	0	2	96	48	6
NMSTR	58	0	6
NMSUR	58	0	6	96	48	2
NMSTR	58	96	2
NMSCL	58	96	2	96	48	7
NMSTR	58	96	6
NMSCL	58	96	6	96	48	3
NMSTR	58	192	2
NMSUR	58	192	2	96	48	6
NMSTR	58	192	6
NMSUR	58	192	6	96	48	2
NMSTR	58	288	2
NMSCL	58	288	2	96	48	7
NMSTR	58	288	6
NMSCL	58	288	6	96	48	3
NMSTR	59	0	2
NMSUR	59	0	2	96	48	6
NMSTR	59	0	6
NMSUR	59	0	6	96	48	2
NMSTR	59	96	2
NMSCL	59	96	2	96	48	7
NMSTR	59	96	6
NMSCL	59	96	6	96	48	3
NMSTR	59	192	2
NMSUR	59	192	2	96	48	6
NMSTR	59	192	6
NMSUR	59	192	6	96	48	2
NMSTR	59	288	2
NMSCL	59	288	2	96	48	7
NMSTR	59	288	6
NMSCL	59	288	6	96	48	3
NMSTR	60	0	2
NMSUR	60	0	2	96	48	6
NMSTR	60	0	6
NMSUR	60	0	6	96	48	2
NMSTR	60	96	2
NMSCL	60	96	2	96	48	7
NMSTR	60	96	6
NMSCL	60	96	6	96	48	3
NMSTR	60	192	2
NMSUR	60	192	2	96	48	6
NMSTR	60	192	6
NMSUR	60	192	6	96	48	2
NMSTR	60	288	2
NMSCL	60	288	2	96	48	7
NMSTR	60	288	6
NMSCL	60	288	6	96	48	3
NMSTR	61	0	2
NMSUR	61	0	2	96	48	6
NMSTR	61	0	6
NMSUR	61	0	6	96	48	2
NMSTR	61	96	2
NMSCL	61	96	2	96	48	7
NMSTR	61	96	6
NMSCL	61	96	6	96	48	3
BRTAP	61	192	2
BRTAP	61	192	6
NMSTR	61	288	1
NMSCR	61	288	1	96	48	4
NMSTR	61	288	5
NMSCR	61	288	5	96	48	0
BRSTR	62	0	1
NMSUL	62	0	1	96	48	5
BRSTR	62	0	5
NMSUL	62	0	5	96	48	1
NMSTR	62	96	1
NMSCR	62	96	1	96	48	4
NMSTR	62	96	5
NMSCR	62	96	5	96	48	0
BRSTR	62	192	1
NMSUL	62	192	1	96	48	5
BRSTR	62	192	5
NMSUL	62	192	5	96	48	1
NMSTR	62	288	1
NMSCR	62	288	1	96	48	4
NMSTR	62	288	5
NMSCR	62	288	5	96	48	0
BRSTR	63	0	1
NMSUL	63	0	1	96	48	5
BRSTR	63	0	5
NMSUL	63	0	5	96	48	1
NMSTR	63	96	1
NMSCR	63	96	1	96	48	4
NMSTR	63	96	5
NMSCR	63	96	5	96	48	0
BRSTR	63	192	1
NMSUL	63	192	1	96	48	5
BRSTR	63	192	5
NMSUL	63	192	5	96	48	1
NMSTR	63	288	1
NMSCR	63	288	1	96	48	4
NMSTR	63	288	5
NMSCR	63	288	5	96	48	0
BRSTR	64	0	1
NMSUL	64	0	1	96	48	5
BRSTR	64	0	5
NMSUL	64	0	5	96	48	1
NMSTR	64	96	1
NMSCR	64	96	1	96	48	4
NMSTR	64	96	5
NMSCR	64	96	5	96	48	0
NMSTR	64	192	1
NMSUL	64	192	1	96	48	5
NMSTR	64	192	5
NMSUL	64	192	5	96	48	1
NMSTR	64	288	1
NMSCR	64	288	1	96	48	4
NMSTR	64	288	5
NMSCR	64	288	5	96	48	0
NMSTR	65	0	1
NMSUL	65	0	1	96	48	5
NMSTR	65	0	5
NMSUL	65	0	5	96	48	1
NMSTR	65	96	1
NMSCR	65	96	1	96	48	4
NMSTR	65	96	5
NMSCR	65	96	5	96	48	0
BRTAP	65	192	1
BRTAP	65	192	5
BRSTR	65	288	3
NMSCL	65	288	3	96	384	7
BRSTR	65	288	7
NMSCL	65	288	7	96	384	3
BRTAP	66	0	3
BRTAP	66	0	7

T_REC_TAP	10
T_REC_BRK	50
T_REC_XTP	0
T_REC_BXX	0
T_REC_HLD	0
T_REC_XHO	0
T_REC_BHO	0
T_REC_BXH	0
T_REC_STR	347
T_REC_BST	12
T_REC_XST	0
T_REC_XBS	0
T_REC_TTP	0
T_REC_THO	0
T_REC_SLD	361
T_REC_BSL	0
T_REC_ALL	780
T_NUM_TAP	357
T_NUM_BRK	62
T_NUM_HLD	0
T_NUM_SLD	361
T_NUM_ALL	780
T_JUDGE_TAP	419
T_JUDGE_HLD	0
T_JUDGE_SLD	361
T_JUDGE_ALL	780
TTM_EACHPAIRS	200
TTM_SCR_TAP	178500
TTM_SCR_BRK	161200
TTM_SCR_HLD	0
TTM_SCR_SLD	541500
TTM_SCR_ALL	881200
TTM_SCR_S	848750
TTM_SCR_SS	875000
TTM_RAT_ACV	10070

