VERSION	0.00.00	1.04.00
FES_MODE	0
BPM_DEF	256.000	256.000	256.000	256.000
MET_DEF	4	4
RESOLUTION	384
CLK_DEF	384
COMPATIBLE_CODE	MA2

BPM	0	0	256.000
MET	0	0	4	4

NMSTR	2	0	1
NMSUR	2	0	1	96	384	3
NMTAP	2	0	6
NMSTR	4	0	1
NMSUR	4	0	1	96	384	3
NMTAP	4	0	6
NMTAP	5	192	3
NMTAP	5	240	4
NMTAP	5	288	3
NMTAP	5	336	4
NMSTR	6	0	1
NMSUR	6	0	1	96	384	3
NMTAP	6	0	6
NMTAP	7	192	3
NMTAP	7	192	4
NMSTR	8	0	1
NMSUR	8	0	1	96	384	3
NMTAP	8	0	6
NMTAP	9	192	1
NMTAP	9	192	4
NMTAP	9	288	2
NMSTR	9	288	3
NMSF_	9	288	3	96	384	7
NMTAP	10	0	3
NMTAP	11	192	3
NMTAP	11	192	6
NMSTR	11	288	4
NMSF_	11	288	4	96	384	0
NMTAP	11	288	5
NMTAP	12	0	4
NMTAP	13	192	1
NMTAP	13	192	4
NMTAP	13	288	2
NMSTR	13	288	3
NMSSR	13	288	3	96	192	7
NMTAP	14	0	3
NMSTR	14	288	4
NMSSL	14	288	4	96	192	0
NMTAP	14	288	5
NMTAP	15	0	4
NMTAP	15	288	2
NMSTR	15	288	3
NMSI_	15	288	3	96	48	7
NMTAP	16	0	3
NMSTR	16	96	4
NMSI_	16	96	4	96	48	0
NMTAP	16	96	5
NMTAP	16	192	4
NMTAP	16	288	2
NMTAP	16	288	3
NMHLD	17	0	3	48
NMHLD	17	0	4	48
NMHLD	17	96	2	48
NMHLD	17	96	5	48
NMHLD	17	192	0	48
NMHLD	17	192	7	48
NMSTR	17	288	1
NMSI_	17	288	1	96	48	4
NMTAP	17	288	6
NMSTR	18	0	6
NMSI_	18	0	6	96	48	3
NMSTR	18	96	2
NMSI_	18	96	2	96	48	7
NMSTR	18	192	5
NMSI_	18	192	5	96	48	1
NMSTR	18	288	0
NMSCL	18	288	0	96	48	5
NMSCR	18	288	0	96	48	3
NMTAP	19	96	2
NMTAP	19	96	6
NMTAP	19	144	2
NMTAP	19	144	6
NMTAP	19	192	2
NMTAP	19	192	6
NMTAP	19	288	1
NMSTR	19	288	6
NMSI_	19	288	6	96	48	3
NMSTR	20	0	1
NMSI_	20	0	1	96	48	4
NMSTR	20	96	5
NMSI_	20	96	5	96	48	0
NMSTR	20	192	2
NMSI_	20	192	2	96	48	7
NMSTR	20	288	6
NMSI_	20	288	6	96	48	2
NMSTR	21	0	1
NMSLR	21	0	1	96	96	5
NMSLR	21	0	1	96	96	7
NMTAP	21	288	1
NMSTR	21	288	6
NMSI_	21	288	6	96	48	3
NMSTR	22	0	1
NMSI_	22	0	1	96	48	4
NMSTR	22	96	5
NMSI_	22	96	5	96	48	0
NMSTR	22	192	2
NMSI_	22	192	2	96	48	6
NMSTR	22	288	7
NMSCL	22	288	7	96	48	4
NMSCR	22	288	7	96	48	2
NMTAP	23	96	1
NMTAP	23	96	5
NMTAP	23	144	1
NMTAP	23	144	5
NMTAP	23	192	1
NMTAP	23	192	5
NMSTR	23	288	1
NMSI_	23	288	1	96	48	4
NMTAP	23	288	6
NMSTR	24	0	6
NMSI_	24	0	6	96	48	3
NMSTR	24	96	2
NMSI_	24	96	2	96	48	7
NMSTR	24	192	5
NMSI_	24	192	5	96	48	0
NMSTR	24	288	1
NMSI_	24	288	1	96	48	5
NMSTR	25	0	6
NMSLL	25	0	6	96	96	0
NMSLL	25	0	6	96	96	2
NMSTR	25	288	1
NMSLR	25	288	1	96	192	0
NMSTR	25	288	6
NMSLL	25	288	6	96	192	7
NMSTR	26	288	7
NMSCL	26	288	7	96	48	4
NMSCR	26	288	7	96	48	2
NMTAP	27	96	1
NMTAP	27	96	5
NMTAP	27	144	1
NMTAP	27	144	5
NMTAP	27	192	1
NMTAP	27	192	5
NMSTR	27	288	1
NMSI_	27	288	1	96	48	4
NMTAP	27	288	6
NMSTR	28	0	6
NMSI_	28	0	6	96	48	3
NMSTR	28	96	2
NMSI_	28	96	2	96	48	7
NMSTR	28	192	5
NMSI_	28	192	5	96	48	0
NMSTR	28	288	1
NMSI_	28	288	1	96	48	5
NMSTR	29	0	6
NMSLL	29	0	6	96	96	0
NMSLL	29	0	6	96	96	2
NMSTR	29	288	1
NMSI_	29	288	1	96	48	4
NMTAP	29	288	6
NMSTR	30	0	6
NMSI_	30	0	6	96	48	3
NMSTR	30	96	2
NMSI_	30	96	2	96	48	7
NMSTR	30	192	5
NMSI_	30	192	5	96	48	1
NMSTR	30	288	0
NMSCL	30	288	0	96	48	5
NMSCR	30	288	0	96	48	3
NMTAP	31	96	2
NMTAP	31	96	6
NMTAP	31	144	2
NMTAP	31	144	6
NMTAP	31	192	2
NMTAP	31	192	6
NMHLD	31	288	1	384
NMTAP	31	288	6
NMTAP	32	0	2
NMTAP	32	48	2
NMTAP	32	96	7
NMTAP	32	144	7
NMTAP	32	192	3
NMTAP	32	240	3
NMTAP	32	288	6
NMHLD	32	336	6	336
NMTAP	33	0	5
NMTAP	33	48	5
NMTAP	33	96	0
NMTAP	33	144	0
NMTAP	33	192	4
NMTAP	33	240	4
NMSTR	33	288	1
NMSI_	33	288	1	96	48	7
NMSTR	34	0	3
NMSI_	34	0	3	96	48	5
NMSTR	34	96	2
NMSI_	34	96	2	96	48	6
NMSTR	34	192	3
NMSI_	34	192	3	96	48	7
NMHLD	34	288	0	96
NMSTR	35	0	4
NMSCR	35	0	4	96	48	7
NMTAP	35	96	0
NMTAP	35	120	1
NMTAP	35	144	2
NMTAP	35	168	3
NMTAP	35	192	4
NMTAP	35	288	2
NMSTR	35	288	6
NMSI_	35	288	6	96	48	0
NMSTR	36	0	4
NMSI_	36	0	4	96	48	2
NMSTR	36	96	5
NMSI_	36	96	5	96	48	1
NMSTR	36	192	4
NMSI_	36	192	4	96	48	0
NMHLD	36	288	7	96
NMSTR	37	0	3
NMSI_	37	0	3	96	48	0
NMSTR	37	96	4
NMSI_	37	96	4	96	48	7
NMTAP	37	192	3
NMSTR	37	288	1
NMSI_	37	288	1	96	48	7
NMTAP	37	288	4
NMSTR	38	0	3
NMSI_	38	0	3	96	48	5
NMSTR	38	96	2
NMSI_	38	96	2	96	48	6
NMSTR	38	192	3
NMSI_	38	192	3	96	48	7
NMHLD	38	288	0	96
NMSTR	39	0	4
NMSV_	39	0	4	96	96	6
NMSLL	39	0	4	96	96	7
NMHLD	39	288	2	144
NMTAP	39	288	3
NMHLD	40	0	6	144
NMHLD	40	96	7	144
NMHLD	40	192	5	144
NMHLD	40	288	4	144
NMHLD	41	0	0	144
NMHLD	41	96	1	96
NMTAP	41	192	5
NMTAP	41	288	2
NMSTR	41	288	6
NMSI_	41	288	6	96	48	0
NMSTR	42	0	4
NMSI_	42	0	4	96	48	2
NMSTR	42	96	5
NMSI_	42	96	5	96	48	1
NMSTR	42	192	4
NMSI_	42	192	4	96	48	0
NMHLD	42	288	7	96
NMSTR	43	0	3
NMSCL	43	0	3	96	48	0
NMTAP	43	96	7
NMTAP	43	120	6
NMTAP	43	144	5
NMTAP	43	168	4
NMTAP	43	192	3
NMSTR	43	288	1
NMSI_	43	288	1	96	48	7
NMTAP	43	288	5
NMSTR	44	0	3
NMSI_	44	0	3	96	48	5
NMSTR	44	96	2
NMSI_	44	96	2	96	48	6
NMSTR	44	192	3
NMSI_	44	192	3	96	48	7
NMHLD	44	288	0	96
NMSTR	45	0	4
NMSI_	45	0	4	96	48	7
NMSTR	45	96	3
NMSI_	45	96	3	96	48	0
NMTAP	45	192	4
NMTAP	45	288	3
NMSTR	45	288	6
NMSI_	45	288	6	96	48	0
NMSTR	46	0	4
NMSI_	46	0	4	96	48	2
NMSTR	46	96	5
NMSI_	46	96	5	96	48	1
NMSTR	46	192	4
NMSI_	46	192	4	96	48	0
NMSTR	46	288	3
NMSI_	46	288	3	96	48	5
NMSTR	47	0	1
NMSI_	47	0	1	96	48	7
NMSTR	47	96	2
NMSI_	47	96	2	96	48	6
NMSTR	47	192	0
NMSI_	47	192	0	96	48	4
NMTAP	47	288	7
NMHLD	48	0	0	96
NMHLD	48	0	7	96
NMTAP	48	144	0
NMTAP	48	144	7
NMSTR	48	240	3
NMSCL	48	240	3	96	144	0
NMSTR	48	240	4
NMSCR	48	240	4	96	144	7
BRTAP	49	192	1
BRTAP	49	192	6
NMHLD	50	0	5	144
NMHLD	50	144	4	144
NMTAP	50	288	3
NMTAP	51	96	3
NMTAP	51	96	4
NMTAP	51	192	2
NMTAP	51	192	5
NMTAP	51	288	3
NMTAP	51	288	4
NMHLD	52	0	2	144
NMHLD	52	144	3	144
NMTAP	52	288	4
NMTAP	53	96	2
NMTAP	53	96	5
NMTAP	53	192	3
NMTAP	53	192	4
NMTAP	53	288	2
NMTAP	53	288	5
NMTAP	54	0	3
NMTAP	54	0	7
NMTAP	54	96	0
NMTAP	54	96	4
NMTAP	54	120	1
NMTAP	54	144	2
NMTAP	54	168	3
NMTAP	54	192	0
NMTAP	54	192	4
NMTAP	54	288	3
NMTAP	54	288	7
NMTAP	54	312	6
NMTAP	54	336	5
NMTAP	54	360	4
NMTAP	55	0	3
NMTAP	55	0	7
NMTAP	55	96	0
NMTAP	55	96	4
NMTAP	55	120	1
NMTAP	55	144	2
NMTAP	55	168	3
NMTAP	55	192	0
NMTAP	55	192	4
NMTAP	55	288	3
NMTAP	55	288	7
NMTAP	55	312	6
NMTAP	55	336	5
NMTAP	55	360	4
NMTAP	56	0	3
NMTAP	56	0	7
NMTAP	56	96	0
NMTAP	56	96	4
NMTAP	56	120	1
NMTAP	56	144	2
NMTAP	56	168	3
NMSTR	56	192	0
NMSXL	56	192	0	96	288	3
NMSTR	56	192	4
NMSXL	56	192	4	96	288	7
NMSTR	58	0	1
NMSI_	58	0	1	96	96	4
NMSTR	58	0	6
NMSI_	58	0	6	96	96	1
BRTAP	58	288	0
BRTAP	58	288	1
NMTAP	59	0	1
NMTAP	59	0	3
NMTAP	59	144	4
NMTAP	59	144	6
NMTAP	59	288	2
NMTAP	59	288	5
BRTAP	60	0	1
BRTAP	60	0	6
NMTAP	60	192	3
NMTAP	60	192	4
NMTAP	61	0	4
NMTAP	61	0	6
NMTAP	61	144	1
NMTAP	61	144	3
NMTAP	61	288	2
NMTAP	61	288	5
BRTAP	62	0	1
BRTAP	62	0	6
NMTAP	62	192	3
NMTAP	62	192	4
NMTAP	62	288	2
NMTAP	62	288	5
NMTAP	62	320	4
NMTAP	62	352	3
BRTAP	63	0	2
NMTAP	63	192	3
NMTAP	63	192	4
NMTAP	63	288	2
NMTAP	63	288	5
NMTAP	63	320	3
NMTAP	63	352	4
BRTAP	64	0	5
NMTAP	64	96	4
NMTAP	64	96	6
NMTAP	64	192	2
NMTAP	64	288	1
NMTAP	64	288	3
NMHLD	65	0	3	144
NMHLD	65	0	4	144
BRTAP	65	192	0
BRTAP	65	192	7
NMSTR	66	0	0
NMSI_	66	0	0	96	48	3
NMHLD	66	0	4	96
NMTAP	66	96	0
NMHLD	66	144	4	96
NMSTR	66	192	0
NMSI_	66	192	0	96	48	5
NMTAP	66	288	0
NMHLD	66	288	4	96
NMSTR	67	0	0
NMSCR	67	0	0	96	48	3
NMTAP	67	48	4
NMTAP	67	96	0
NMTAP	67	96	4
NMSTR	67	192	0
NMSCL	67	192	0	96	48	5
NMTAP	67	192	4
NMTAP	67	288	0
NMTAP	67	288	4
NMSTR	68	0	0
NMSI_	68	0	0	96	48	3
NMHLD	68	0	4	96
NMTAP	68	96	0
NMHLD	68	144	4	96
NMSTR	68	192	0
NMSI_	68	192	0	96	48	5
NMTAP	68	288	0
NMHLD	68	288	4	96
NMSTR	69	0	0
NMSCR	69	0	0	96	48	3
NMTAP	69	48	4
NMTAP	69	96	0
NMTAP	69	96	4
NMSTR	69	192	0
NMSCL	69	192	0	96	48	5
NMTAP	69	192	4
NMTAP	69	288	0
NMTAP	69	288	4
NMSTR	70	0	0
NMSI_	70	0	0	96	48	3
NMHLD	70	0	4	96
NMTAP	70	96	0
NMHLD	70	144	4	96
NMSTR	70	192	0
NMSI_	70	192	0	96	48	5
NMTAP	70	288	0
NMHLD	70	288	4	96
NMSTR	71	0	0
NMSCR	71	0	0	96	48	3
NMTAP	71	48	4
NMTAP	71	96	0
NMTAP	71	96	4
NMSTR	71	192	0
NMSCL	71	192	0	96	48	5
NMTAP	71	192	4
NMTAP	71	288	0
NMTAP	71	288	4
NMSTR	72	0	0
NMSI_	72	0	0	96	48	3
NMHLD	72	0	4	96
NMTAP	72	96	0
NMHLD	72	144	4	96
NMSTR	72	192	0
NMSI_	72	192	0	96	48	5
NMTAP	72	288	0
NMTAP	72	288	4
BRTAP	73	0	0
BRTAP	73	0	4
NMHLD	74	0	3	96
NMSTR	74	0	7
NMSI_	74	0	7	96	48	4
NMTAP	74	96	7
NMHLD	74	144	3	96
NMSTR	74	192	7
NMSI_	74	192	7	96	48	2
NMHLD	74	288	3	96
NMTAP	74	288	7
NMSTR	75	0	7
NMSCL	75	0	7	96	48	4
NMTAP	75	48	3
NMTAP	75	96	3
NMTAP	75	96	7
NMTAP	75	192	3
NMSTR	75	192	7
NMSCR	75	192	7	96	48	2
NMTAP	75	288	3
NMTAP	75	288	7
NMHLD	76	0	3	96
NMSTR	76	0	7
NMSI_	76	0	7	96	48	4
NMTAP	76	96	7
NMHLD	76	144	3	96
NMSTR	76	192	7
NMSI_	76	192	7	96	48	2
NMHLD	76	288	3	96
NMTAP	76	288	7
NMSTR	77	0	7
NMSCL	77	0	7	96	48	4
NMTAP	77	48	3
NMTAP	77	96	3
NMTAP	77	96	7
NMTAP	77	192	3
NMSTR	77	192	7
NMSCR	77	192	7	96	48	2
NMTAP	77	288	3
NMTAP	77	288	7
NMHLD	78	0	3	96
NMSTR	78	0	7
NMSI_	78	0	7	96	48	4
NMTAP	78	96	7
NMHLD	78	144	3	96
NMSTR	78	192	7
NMSI_	78	192	7	96	48	2
NMHLD	78	288	3	96
NMTAP	78	288	7
NMSTR	79	0	7
NMSCL	79	0	7	96	48	4
NMTAP	79	48	3
NMTAP	79	96	3
NMTAP	79	96	7
NMTAP	79	192	3
NMSTR	79	192	7
NMSCR	79	192	7	96	48	2
NMTAP	79	240	3
NMTAP	79	288	3
NMTAP	79	288	7
NMTAP	79	336	3
NMSTR	80	0	4
NMSI_	80	0	4	96	48	6
NMTAP	80	48	4
NMSTR	80	96	3
NMSI_	80	96	3	96	48	1
NMTAP	80	144	3
NMSTR	80	192	7
NMSI_	80	192	7	96	48	5
NMTAP	80	240	7
NMSTR	80	288	0
NMSI_	80	288	0	96	48	2
NMTAP	80	336	0
NMSTR	81	0	4
NMSI_	81	0	4	96	48	7
NMTAP	81	48	4
NMSTR	81	96	3
NMSI_	81	96	3	96	48	0
NMTAP	81	144	3
NMTAP	81	192	4
NMTAP	81	288	5
NMHLD	82	0	3	576
NMSTR	82	0	6
NMSUL	82	0	6	96	384	4
NMHLD	84	0	2	576
NMSTR	84	0	6
NMSUL	84	0	6	96	384	4
NMHLD	86	0	1	576
NMSTR	86	0	6
NMSUL	86	0	6	96	384	4
NMHLD	88	0	0	576
NMSTR	88	0	6
NMSUL	88	0	6	96	384	4
NMTAP	90	0	3
NMTAP	90	0	4
NMTAP	90	96	4
NMTAP	90	192	4
NMTAP	90	288	4
NMTAP	91	0	4
NMTAP	91	96	4
NMTAP	91	192	4
NMTAP	91	288	4
NMTAP	92	0	3
NMTAP	92	0	4
NMTAP	92	96	3
NMTAP	92	192	3
NMTAP	92	288	3
NMTAP	93	0	3
NMTAP	93	96	3
NMTAP	93	192	3
NMTAP	93	288	3
NMTAP	94	0	2
NMTAP	94	0	5
NMTAP	94	96	5
NMTAP	94	192	5
NMTAP	94	288	5
NMTAP	95	0	1
NMTAP	95	0	6
NMTAP	95	96	1
NMTAP	95	192	1
NMTAP	95	288	1
NMTAP	96	0	0
NMTAP	96	0	7
NMTAP	96	96	7
NMTAP	96	192	1
NMTAP	96	192	6
NMTAP	96	288	1
NMSTR	97	0	1
NMSI_	97	0	1	96	48	5
NMSTR	97	0	6
NMSI_	97	0	6	96	48	2
NMTAP	97	96	1
NMTAP	97	96	6
BRTAP	97	192	0
BRTAP	97	192	7
NMTAP	98	0	2
NMSTR	98	0	7
NMSI_	98	0	7	96	48	4
NMTAP	98	96	2
NMTAP	98	96	7
NMTAP	98	192	2
NMSTR	98	192	3
NMSI_	98	192	3	96	48	0
NMTAP	98	288	2
NMTAP	98	288	3
NMTAP	99	0	1
NMSTR	99	0	7
NMSI_	99	0	7	96	48	4
NMTAP	99	96	1
NMSTR	99	96	7
NMSI_	99	96	7	96	48	3
NMTAP	99	192	1
NMSTR	99	192	7
NMSI_	99	192	7	96	48	5
NMTAP	99	288	1
NMTAP	99	288	7
NMTAP	99	336	1
NMTAP	100	0	2
NMSTR	100	0	7
NMSI_	100	0	7	96	48	4
NMTAP	100	96	2
NMTAP	100	96	7
NMTAP	100	192	2
NMSTR	100	192	3
NMSI_	100	192	3	96	48	0
NMTAP	100	288	2
NMTAP	100	288	3
NMTAP	101	0	1
NMSTR	101	0	7
NMSI_	101	0	7	96	48	4
NMTAP	101	96	1
NMSTR	101	96	7
NMSI_	101	96	7	96	48	3
NMTAP	101	192	1
NMSTR	101	192	7
NMSI_	101	192	7	96	48	5
NMTAP	101	288	1
NMTAP	101	288	7
NMTAP	101	336	0
NMTAP	101	360	1
NMTAP	102	0	2
NMSTR	102	0	7
NMSI_	102	0	7	96	48	4
NMTAP	102	96	2
NMTAP	102	96	7
NMTAP	102	192	2
NMSTR	102	192	3
NMSI_	102	192	3	96	48	0
NMTAP	102	288	2
NMTAP	102	288	3
NMTAP	103	0	1
NMSTR	103	0	7
NMSI_	103	0	7	96	48	4
NMTAP	103	96	1
NMSTR	103	96	7
NMSI_	103	96	7	96	48	3
NMTAP	103	192	1
NMSTR	103	192	7
NMSI_	103	192	7	96	48	5
NMSTR	103	288	1
NMSCR	103	288	1	96	144	0
NMTAP	103	288	7
NMTAP	103	336	1
NMTAP	104	192	3
NMTAP	104	192	4
NMSTR	104	288	2
NMSI_	104	288	2	96	48	5
NMTAP	104	288	5
NMSTR	105	0	6
NMSI_	105	0	6	96	48	1
NMSTR	105	96	3
NMSI_	105	96	3	96	48	0
NMSTR	105	192	7
NMSI_	105	192	7	96	48	4
BRTAP	105	288	3
NMSTR	106	0	0
NMSI_	106	0	0	96	48	3
NMTAP	106	0	5
NMTAP	106	96	0
NMTAP	106	96	5
NMSTR	106	192	4
NMSI_	106	192	4	96	48	7
NMTAP	106	192	5
NMTAP	106	288	4
NMTAP	106	288	5
NMSTR	107	0	0
NMSI_	107	0	0	96	48	3
NMTAP	107	0	6
NMSTR	107	96	0
NMSI_	107	96	0	96	48	4
NMTAP	107	96	6
NMSTR	107	192	0
NMSI_	107	192	0	96	48	2
NMTAP	107	192	6
NMTAP	107	288	0
NMTAP	107	288	6
NMTAP	107	336	6
NMSTR	108	0	0
NMSI_	108	0	0	96	48	3
NMTAP	108	0	5
NMTAP	108	96	0
NMTAP	108	96	5
NMSTR	108	192	4
NMSI_	108	192	4	96	48	7
NMTAP	108	192	5
NMTAP	108	288	4
NMTAP	108	288	5
NMSTR	109	0	0
NMSI_	109	0	0	96	48	3
NMTAP	109	0	6
NMSTR	109	96	0
NMSI_	109	96	0	96	48	4
NMTAP	109	96	6
NMSTR	109	192	0
NMSI_	109	192	0	96	48	2
NMTAP	109	192	6
NMTAP	109	240	6
NMTAP	109	288	0
NMTAP	109	336	7
NMTAP	109	360	6
NMSTR	110	0	0
NMSI_	110	0	0	96	48	3
NMTAP	110	0	5
NMTAP	110	96	0
NMTAP	110	96	5
NMSTR	110	192	4
NMSI_	110	192	4	96	48	7
NMTAP	110	192	5
NMTAP	110	288	4
NMTAP	110	288	5
NMSTR	111	0	0
NMSI_	111	0	0	96	48	3
NMTAP	111	0	6
NMSTR	111	96	0
NMSI_	111	96	0	96	48	4
NMTAP	111	96	6
NMSTR	111	192	0
NMSI_	111	192	0	96	48	2
NMTAP	111	192	6
NMTAP	111	288	0
NMTAP	111	288	6
NMTAP	112	0	0
NMTAP	112	0	7
NMTAP	112	48	0
NMTAP	112	48	7
NMTAP	112	96	0
NMTAP	112	96	7
NMTAP	112	144	0
NMTAP	112	144	7
NMTAP	112	192	0
NMTAP	112	192	7
NMTAP	112	240	0
NMTAP	112	240	7
NMTAP	112	288	0
NMTAP	112	288	7
NMTAP	112	336	0
NMTAP	112	336	7
NMTAP	113	0	0
NMTAP	113	0	7
NMSTR	113	96	3
NMSI_	113	96	3	96	48	0
NMSTR	113	96	4
NMSI_	113	96	4	96	48	7
NMTAP	113	192	3
NMTAP	113	192	4
BRTAP	113	288	1
BRTAP	113	288	6
NMSTR	114	0	0
NMSI_	114	0	0	96	48	4
NMTAP	114	48	7
NMTAP	114	96	0
NMSTR	114	144	6
NMSI_	114	144	6	96	48	2
NMTAP	114	192	7
NMTAP	114	240	6
NMSTR	114	288	1
NMSI_	114	288	1	96	48	5
NMTAP	114	336	0
NMTAP	115	0	1
NMSTR	115	48	7
NMSI_	115	48	7	96	48	3
NMTAP	115	96	0
NMTAP	115	144	7
NMSTR	115	192	1
NMSI_	115	192	1	96	48	5
NMTAP	115	240	0
NMTAP	115	288	1
NMTAP	115	288	7
NMSTR	116	0	7
NMSI_	116	0	7	96	48	3
NMTAP	116	48	0
NMTAP	116	96	7
NMSTR	116	144	1
NMSI_	116	144	1	96	48	5
NMTAP	116	192	0
NMTAP	116	240	1
NMSTR	116	288	6
NMSI_	116	288	6	96	48	2
NMTAP	116	336	7
NMTAP	117	0	6
NMSTR	117	48	0
NMSI_	117	48	0	96	48	4
NMTAP	117	96	7
NMTAP	117	144	0
NMSTR	117	192	6
NMSI_	117	192	6	96	48	2
NMTAP	117	240	7
NMTAP	117	288	0
NMTAP	117	288	6
NMSTR	118	0	0
NMSI_	118	0	0	96	48	4
NMTAP	118	48	7
NMTAP	118	96	0
NMSTR	118	144	6
NMSI_	118	144	6	96	48	2
NMTAP	118	192	7
NMTAP	118	240	6
NMSTR	118	288	1
NMSI_	118	288	1	96	48	5
NMTAP	118	336	0
NMTAP	119	0	1
NMSTR	119	48	7
NMSI_	119	48	7	96	48	3
NMTAP	119	96	0
NMTAP	119	144	7
NMSTR	119	192	1
NMSI_	119	192	1	96	48	5
NMTAP	119	240	0
NMTAP	119	288	1
NMTAP	119	288	7
NMSTR	120	0	7
NMSI_	120	0	7	96	48	3
NMTAP	120	48	0
NMTAP	120	96	7
NMSTR	120	144	1
NMSI_	120	144	1	96	48	5
NMTAP	120	192	0
NMTAP	120	240	1
NMSTR	120	288	6
NMSI_	120	288	6	96	48	2
NMTAP	120	336	7
NMTAP	121	0	6
NMSTR	121	48	0
NMSI_	121	48	0	96	48	4
NMTAP	121	96	7
NMTAP	121	144	0
NMSTR	121	192	6
NMSI_	121	192	6	96	48	2
NMTAP	121	240	7
NMTAP	121	288	0
NMTAP	121	288	6
NMSTR	122	0	0
NMSI_	122	0	0	96	48	4
NMTAP	122	48	4
NMTAP	122	96	0
NMSTR	122	144	5
NMSI_	122	144	5	96	48	1
NMTAP	122	192	1
NMTAP	122	240	5
NMSTR	122	288	2
NMSI_	122	288	2	96	48	6
NMTAP	122	336	6
NMTAP	123	0	2
NMSTR	123	48	7
NMSI_	123	48	7	96	48	3
NMTAP	123	96	3
NMTAP	123	144	7
NMSTR	123	192	1
NMSI_	123	192	1	96	48	5
NMTAP	123	240	5
NMTAP	123	288	1
NMTAP	123	288	6
NMSTR	124	0	7
NMSI_	124	0	7	96	48	3
NMTAP	124	48	3
NMTAP	124	96	7
NMSTR	124	144	2
NMSI_	124	144	2	96	48	6
NMTAP	124	192	6
NMTAP	124	240	2
NMSTR	124	288	5
NMSI_	124	288	5	96	48	1
NMTAP	124	336	1
NMTAP	125	0	5
NMSTR	125	48	0
NMSI_	125	48	0	96	48	4
NMTAP	125	96	4
NMTAP	125	144	0
NMSTR	125	192	6
NMSI_	125	192	6	96	48	2
NMTAP	125	240	2
NMTAP	125	288	1
NMTAP	125	288	6
NMSTR	126	0	1
NMSI_	126	0	1	96	48	5
NMTAP	126	48	5
NMTAP	126	96	1
NMSTR	126	144	7
NMSI_	126	144	7	96	48	3
NMTAP	126	192	3
NMTAP	126	240	7
NMTAP	126	288	0
NMTAP	126	336	7
NMTAP	127	0	0
NMTAP	127	0	4
NMTAP	127	24	7
NMTAP	127	48	6
NMTAP	127	72	5
NMTAP	127	96	6
NMTAP	127	120	7
NMTAP	127	144	0
NMTAP	127	168	7
NMTAP	127	192	6
NMTAP	127	216	5
NMTAP	127	240	4
NMTAP	127	264	3
NMTAP	127	288	2
NMTAP	127	312	1
NMTAP	127	336	0
NMTAP	128	48	0
NMTAP	128	96	1
NMTAP	128	144	2
NMTAP	128	192	7
NMTAP	128	240	6
NMTAP	128	288	5
NMTAP	128	336	4
BRTAP	129	0	3
NMTAP	130	0	1
NMTAP	130	0	6

T_REC_TAP	465
T_REC_BRK	20
T_REC_XTP	0
T_REC_BXX	0
T_REC_HLD	52
T_REC_XHO	0
T_REC_BHO	0
T_REC_BXH	0
T_REC_STR	194
T_REC_BST	0
T_REC_XST	0
T_REC_XBS	0
T_REC_TTP	0
T_REC_THO	0
T_REC_SLD	202
T_REC_BSL	0
T_REC_ALL	933
T_NUM_TAP	659
T_NUM_BRK	20
T_NUM_HLD	52
T_NUM_SLD	202
T_NUM_ALL	933
T_JUDGE_TAP	679
T_JUDGE_HLD	90
T_JUDGE_SLD	202
T_JUDGE_ALL	971
TTM_EACHPAIRS	199
TTM_SCR_TAP	329500
TTM_SCR_BRK	52000
TTM_SCR_HLD	52000
TTM_SCR_SLD	303000
TTM_SCR_ALL	736500
TTM_SCR_S	712500
TTM_SCR_SS	734500
TTM_RAT_ACV	10027

