VERSION	0.00.00	1.04.00
FES_MODE	0
BPM_DEF	148.000	148.000	148.000	148.000
MET_DEF	4	4
RESOLUTION	384
CLK_DEF	384
COMPATIBLE_CODE	MA2

BPM	0	0	148.000
MET	0	0	4	4

NMTAP	1	0	0
NMTAP	1	24	1
NMTAP	1	48	2
NMTAP	1	72	3
NMTAP	1	96	4
NMTAP	1	120	5
NMTAP	1	144	6
NMTAP	1	168	7
NMTAP	1	192	0
NMTAP	1	216	1
NMTAP	1	240	2
NMTAP	1	264	3
NMTAP	1	288	4
NMTAP	1	312	5
NMTAP	1	336	6
NMTAP	1	360	7
NMTAP	2	0	0
NMTAP	2	16	1
NMTAP	2	32	2
NMTAP	2	48	3
NMTAP	2	64	4
NMTAP	2	80	5
NMTAP	2	96	6
NMTAP	2	112	7
NMTAP	2	128	0
NMTAP	2	144	1
NMTAP	2	160	2
NMTAP	2	176	3
NMTAP	2	192	4
NMTAP	2	208	5
NMTAP	2	224	6
NMTAP	2	240	7
NMTAP	2	256	0
NMTAP	2	272	1
NMTAP	2	288	2
NMTAP	2	304	3
NMTAP	2	320	4
NMTAP	2	336	5
NMTAP	2	352	6
NMTAP	2	368	7
NMTAP	3	0	0
NMTAP	3	12	1
NMTAP	3	24	2
NMTAP	3	36	3
NMTAP	3	48	4
NMTAP	3	60	5
NMTAP	3	72	6
NMTAP	3	84	7
NMTAP	3	96	0
NMTAP	3	108	1
NMTAP	3	120	2
NMTAP	3	132	3
NMTAP	3	144	4
NMTAP	3	156	5
NMTAP	3	168	6
NMTAP	3	180	7
NMTAP	3	192	0
NMTAP	3	204	1
NMTAP	3	216	2
NMTAP	3	228	3
NMTAP	3	240	4
NMTAP	3	252	5
NMTAP	3	264	6
NMTAP	3	276	7
BRTAP	3	288	0
NMTAP	4	0	0
NMTAP	4	96	1
NMTAP	4	192	2
NMTAP	4	288	3
NMTAP	5	0	4
NMTAP	5	96	5
NMTAP	5	192	6
NMTAP	5	288	7
NMTAP	6	0	0
NMTAP	6	48	1
NMTAP	6	96	2
NMTAP	6	144	3
NMTAP	6	192	4
NMTAP	6	240	5
NMTAP	6	288	6
NMTAP	6	336	7
BRTAP	7	0	0
NMTAP	7	24	1
NMTAP	7	48	2
NMTAP	7	72	3
NMTAP	7	96	4
NMTAP	7	120	5
NMTAP	7	144	6
NMTAP	7	168	7
NMTAP	7	192	0
NMTAP	7	216	1
NMTAP	7	240	2
NMTAP	7	264	3
NMTAP	7	288	4
NMTAP	7	312	5
NMTAP	7	336	6
NMTAP	7	360	7
NMTAP	8	0	0
NMTAP	8	24	1
NMTAP	8	48	2
NMTAP	8	72	3
NMTAP	8	96	4
NMTAP	8	120	5
NMTAP	8	144	6
NMTAP	8	168	7
NMTAP	8	192	0
NMTAP	8	204	1
NMTAP	8	216	2
NMTAP	8	228	3
NMTAP	8	240	4
NMTAP	8	252	5
NMTAP	8	264	6
NMTAP	8	276	7
BRTAP	8	288	0
NMTAP	8	300	1
NMTAP	8	312	2
NMTAP	8	324	3
NMTAP	8	336	4
NMTAP	8	348	5
NMTAP	8	360	6
NMTAP	8	372	7
NMTAP	9	0	3
NMTAP	9	24	2
NMTAP	9	48	1
NMTAP	9	72	0
NMTAP	9	96	7
NMTAP	9	120	6
NMTAP	9	144	5
NMTAP	9	168	4
NMTAP	9	192	3
NMTAP	9	216	2
NMTAP	9	240	1
NMTAP	9	264	0
NMTAP	9	288	7
NMTAP	9	312	6
NMTAP	9	336	5
NMTAP	9	360	4
NMTAP	10	0	3
NMTAP	10	24	2
NMTAP	10	48	1
NMTAP	10	72	0
NMTAP	10	96	7
NMTAP	10	120	6
NMTAP	10	144	5
NMTAP	10	168	4
NMTAP	10	192	3
NMTAP	10	204	2
NMTAP	10	216	1
NMTAP	10	228	0
NMTAP	10	240	7
NMTAP	10	252	6
NMTAP	10	264	5
NMTAP	10	276	4
BRTAP	10	288	3
NMTAP	10	300	2
NMTAP	10	312	1
NMTAP	10	324	0
NMTAP	10	336	7
NMTAP	10	348	6
NMTAP	10	360	5
NMTAP	10	372	4
NMTAP	11	0	1
NMTAP	11	24	2
NMTAP	11	48	3
NMTAP	11	72	4
NMTAP	11	96	5
NMTAP	11	120	6
NMTAP	11	144	7
NMTAP	11	168	0
NMTAP	11	192	1
NMTAP	11	216	2
NMTAP	11	240	3
NMTAP	11	264	4
NMTAP	11	288	5
NMTAP	11	312	6
NMTAP	11	336	7
NMTAP	11	360	0
NMTAP	12	0	1
NMTAP	12	24	2
NMTAP	12	48	3
NMTAP	12	72	4
NMTAP	12	96	5
NMTAP	12	120	6
NMTAP	12	144	7
NMTAP	12	168	0
NMTAP	12	192	1
NMTAP	12	204	2
NMTAP	12	216	3
NMTAP	12	228	4
NMTAP	12	240	5
NMTAP	12	252	6
NMTAP	12	264	7
NMTAP	12	276	0
BRTAP	12	288	1
NMTAP	12	300	2
NMTAP	12	312	3
NMTAP	12	324	4
NMTAP	12	336	5
NMTAP	12	348	6
NMTAP	12	360	7
NMTAP	12	372	0
NMTAP	13	0	6
NMTAP	13	24	5
NMTAP	13	48	4
NMTAP	13	72	3
NMTAP	13	96	2
NMTAP	13	120	1
NMTAP	13	144	0
NMTAP	13	168	7
NMTAP	13	192	6
NMTAP	13	216	5
NMTAP	13	240	4
NMTAP	13	264	3
NMTAP	13	288	2
NMTAP	13	312	1
NMTAP	13	336	0
NMTAP	13	360	7
NMTAP	14	0	6
NMTAP	14	24	5
NMTAP	14	48	4
NMTAP	14	72	3
NMTAP	14	96	2
NMTAP	14	120	1
NMTAP	14	144	0
NMTAP	14	168	7
NMTAP	14	192	6
NMTAP	14	204	5
NMTAP	14	216	4
NMTAP	14	228	3
NMTAP	14	240	2
NMTAP	14	252	1
NMTAP	14	264	0
NMTAP	14	276	7
BRTAP	14	288	6
NMTAP	14	300	5
NMTAP	14	312	4
NMTAP	14	324	3
NMTAP	14	336	2
NMTAP	14	348	1
NMTAP	14	360	0
NMTAP	14	372	7
BRTAP	15	0	0
NMTAP	15	24	1
NMTAP	15	48	2
NMTAP	15	72	3
NMTAP	15	96	4
NMTAP	15	120	5
NMTAP	15	144	6
NMTAP	15	168	7
NMTAP	15	192	3
NMTAP	15	216	2
NMTAP	15	240	1
NMTAP	15	264	0
NMTAP	15	288	7
NMTAP	15	312	6
NMTAP	15	336	5
NMTAP	15	360	4
NMTAP	16	0	0
NMTAP	16	24	1
NMTAP	16	48	2
NMTAP	16	72	3
NMTAP	16	96	4
NMTAP	16	120	5
NMTAP	16	144	6
NMTAP	16	168	7
NMTAP	16	192	3
NMTAP	16	204	2
NMTAP	16	216	1
NMTAP	16	228	0
NMTAP	16	240	7
NMTAP	16	252	6
NMTAP	16	264	5
NMTAP	16	276	4
BRTAP	16	288	3
NMTAP	16	300	2
NMTAP	16	312	1
NMTAP	16	324	0
NMTAP	16	336	7
NMTAP	16	348	6
NMTAP	16	360	5
NMTAP	16	372	4
NMTAP	17	0	0
NMTAP	17	24	1
NMTAP	17	48	2
NMTAP	17	72	3
NMTAP	17	96	4
NMTAP	17	120	5
NMTAP	17	144	6
NMTAP	17	168	7
NMTAP	17	192	3
NMTAP	17	216	2
NMTAP	17	240	1
NMTAP	17	264	0
NMTAP	17	288	7
NMTAP	17	312	6
NMTAP	17	336	5
NMTAP	17	360	4
NMTAP	18	0	0
NMTAP	18	24	1
NMTAP	18	48	2
NMTAP	18	72	3
NMTAP	18	96	4
NMTAP	18	120	5
NMTAP	18	144	6
NMTAP	18	168	7
NMTAP	18	192	3
NMTAP	18	204	2
NMTAP	18	216	1
NMTAP	18	228	0
NMTAP	18	240	7
NMTAP	18	252	6
NMTAP	18	264	5
NMTAP	18	276	4
BRTAP	18	288	3
NMTAP	18	300	2
NMTAP	18	312	1
NMTAP	18	324	0
NMTAP	18	336	7
NMTAP	18	348	6
NMTAP	18	360	5
NMTAP	18	372	4
NMTAP	19	0	0
NMTAP	19	24	1
NMTAP	19	48	2
NMTAP	19	72	3
NMTAP	19	96	4
NMTAP	19	120	5
NMTAP	19	144	6
NMTAP	19	168	7
NMTAP	19	192	3
NMTAP	19	216	2
NMTAP	19	240	1
NMTAP	19	264	0
NMTAP	19	288	7
NMTAP	19	312	6
NMTAP	19	336	5
NMTAP	19	360	4
NMTAP	20	0	0
NMTAP	20	24	1
NMTAP	20	48	2
NMTAP	20	72	3
NMTAP	20	96	4
NMTAP	20	120	5
NMTAP	20	144	6
NMTAP	20	168	7
NMTAP	20	192	3
NMTAP	20	204	2
NMTAP	20	216	1
NMTAP	20	228	0
NMTAP	20	240	7
NMTAP	20	252	6
NMTAP	20	264	5
NMTAP	20	276	4
BRTAP	20	288	3
NMTAP	20	300	2
NMTAP	20	312	1
NMTAP	20	324	0
NMTAP	20	336	7
NMTAP	20	348	6
NMTAP	20	360	5
NMTAP	20	372	4
NMTAP	21	0	0
NMTAP	21	24	1
NMTAP	21	48	2
NMTAP	21	72	3
NMTAP	21	96	4
NMTAP	21	120	5
NMTAP	21	144	6
NMTAP	21	168	7
NMTAP	21	192	3
NMTAP	21	216	2
NMTAP	21	240	1
NMTAP	21	264	0
NMTAP	21	288	7
NMTAP	21	312	6
NMTAP	21	336	5
NMTAP	21	360	4
NMTAP	22	0	0
NMTAP	22	24	1
NMTAP	22	48	2
NMTAP	22	72	3
NMTAP	22	96	4
NMTAP	22	120	5
NMTAP	22	144	6
NMTAP	22	168	7
NMTAP	22	192	3
NMTAP	22	204	2
NMTAP	22	216	1
NMTAP	22	228	0
NMTAP	22	240	7
NMTAP	22	252	6
NMTAP	22	264	5
NMTAP	22	276	4
BRTAP	22	288	3
NMTAP	22	300	2
NMTAP	22	312	1
NMTAP	22	324	0
NMTAP	22	336	7
NMTAP	22	348	6
NMTAP	22	360	5
NMTAP	22	372	4
NMTAP	23	0	0
NMTAP	23	24	1
NMTAP	23	48	2
NMTAP	23	72	3
NMTAP	23	96	4
NMTAP	23	120	5
NMTAP	23	144	6
NMTAP	23	168	7
NMTAP	23	192	1
NMTAP	23	216	2
NMTAP	23	240	3
NMTAP	23	264	4
NMTAP	23	288	5
NMTAP	23	312	6
NMTAP	23	336	7
NMTAP	23	360	0
NMTAP	24	0	2
NMTAP	24	24	3
NMTAP	24	48	4
NMTAP	24	72	5
NMTAP	24	96	6
NMTAP	24	120	7
NMTAP	24	144	0
NMTAP	24	168	1
NMTAP	24	192	3
NMTAP	24	204	4
NMTAP	24	216	5
NMTAP	24	228	6
NMTAP	24	240	7
NMTAP	24	252	0
NMTAP	24	264	1
NMTAP	24	276	2
BRTAP	24	288	3
NMTAP	24	300	4
NMTAP	24	312	5
NMTAP	24	324	6
NMTAP	24	336	7
NMTAP	24	348	0
NMTAP	24	360	1
NMTAP	24	372	2
NMTAP	25	0	4
NMTAP	25	24	5
NMTAP	25	48	6
NMTAP	25	72	7
NMTAP	25	96	0
NMTAP	25	120	1
NMTAP	25	144	2
NMTAP	25	168	3
NMTAP	25	192	5
NMTAP	25	216	6
NMTAP	25	240	7
NMTAP	25	264	0
NMTAP	25	288	1
NMTAP	25	312	2
NMTAP	25	336	3
NMTAP	25	360	4
NMTAP	26	0	6
NMTAP	26	24	7
NMTAP	26	48	0
NMTAP	26	72	1
NMTAP	26	96	2
NMTAP	26	120	3
NMTAP	26	144	4
NMTAP	26	168	5
NMTAP	26	192	7
NMTAP	26	204	0
NMTAP	26	216	1
NMTAP	26	228	2
NMTAP	26	240	3
NMTAP	26	252	4
NMTAP	26	264	5
NMTAP	26	276	6
BRTAP	26	288	7
NMTAP	26	300	0
NMTAP	26	312	1
NMTAP	26	324	2
NMTAP	26	336	3
NMTAP	26	348	4
NMTAP	26	360	5
NMTAP	26	372	6
NMTAP	27	0	0
NMTAP	27	24	1
NMTAP	27	48	2
NMTAP	27	72	3
NMTAP	27	96	4
NMTAP	27	120	5
NMTAP	27	144	6
NMTAP	27	168	7
NMTAP	27	192	1
NMTAP	27	216	2
NMTAP	27	240	3
NMTAP	27	264	4
NMTAP	27	288	5
NMTAP	27	312	6
NMTAP	27	336	7
NMTAP	27	360	0
NMTAP	28	0	2
NMTAP	28	24	3
NMTAP	28	48	4
NMTAP	28	72	5
NMTAP	28	96	6
NMTAP	28	120	7
NMTAP	28	144	0
NMTAP	28	168	1
NMTAP	28	192	3
NMTAP	28	204	4
NMTAP	28	216	5
NMTAP	28	228	6
NMTAP	28	240	7
NMTAP	28	252	0
NMTAP	28	264	1
NMTAP	28	276	2
BRTAP	28	288	3
NMTAP	28	300	4
NMTAP	28	312	5
NMTAP	28	324	6
NMTAP	28	336	7
NMTAP	28	348	0
NMTAP	28	360	1
NMTAP	28	372	2
NMTAP	29	0	4
NMTAP	29	24	5
NMTAP	29	48	6
NMTAP	29	72	7
NMTAP	29	96	0
NMTAP	29	120	1
NMTAP	29	144	2
NMTAP	29	168	3
NMTAP	29	192	5
NMTAP	29	216	6
NMTAP	29	240	7
NMTAP	29	264	0
NMTAP	29	288	1
NMTAP	29	312	2
NMTAP	29	336	3
NMTAP	29	360	4
NMTAP	30	0	6
NMTAP	30	24	7
NMTAP	30	48	0
NMTAP	30	72	1
NMTAP	30	96	2
NMTAP	30	120	3
NMTAP	30	144	4
NMTAP	30	168	5
NMTAP	30	192	7
NMTAP	30	204	0
NMTAP	30	216	1
NMTAP	30	228	2
NMTAP	30	240	3
NMTAP	30	252	4
NMTAP	30	264	5
NMTAP	30	276	6
BRTAP	30	288	7
NMTAP	30	300	0
NMTAP	30	312	1
NMTAP	30	324	2
NMTAP	30	336	3
NMTAP	30	348	4
NMTAP	30	360	5
NMTAP	30	372	6
BRTAP	31	0	0
NMTAP	31	32	1
NMTAP	31	64	2
NMTAP	31	96	3
NMTAP	31	96	7
NMTAP	31	128	4
NMTAP	31	160	5
NMTAP	31	192	2
NMTAP	31	192	6
NMTAP	31	224	7
NMTAP	31	256	0
NMTAP	31	288	1
NMTAP	31	288	5
NMTAP	31	320	2
NMTAP	31	352	3
NMTAP	32	0	0
NMTAP	32	0	4
NMTAP	32	32	5
NMTAP	32	64	6
NMTAP	32	96	3
NMTAP	32	96	7
NMTAP	32	128	0
NMTAP	32	160	1
BRTAP	32	192	2
NMTAP	32	208	3
NMTAP	32	224	4
NMTAP	32	240	5
NMTAP	32	256	6
NMTAP	32	272	7
BRTAP	32	288	0
NMTAP	32	304	1
NMTAP	32	320	2
NMTAP	32	336	3
NMTAP	32	352	4
NMTAP	32	368	5
NMTAP	33	0	7
NMTAP	33	32	6
NMTAP	33	64	5
NMTAP	33	96	0
NMTAP	33	96	4
NMTAP	33	128	3
NMTAP	33	160	2
NMTAP	33	192	1
NMTAP	33	192	5
NMTAP	33	224	0
NMTAP	33	256	7
NMTAP	33	288	2
NMTAP	33	288	6
NMTAP	33	320	5
NMTAP	33	352	4
NMTAP	34	0	3
NMTAP	34	0	7
NMTAP	34	32	2
NMTAP	34	64	1
NMTAP	34	96	0
NMTAP	34	96	4
NMTAP	34	128	7
NMTAP	34	160	6
BRTAP	34	192	5
NMTAP	34	208	4
NMTAP	34	224	3
NMTAP	34	240	2
NMTAP	34	256	1
NMTAP	34	272	0
BRTAP	34	288	7
NMTAP	34	304	6
NMTAP	34	320	5
NMTAP	34	336	4
NMTAP	34	352	3
NMTAP	34	368	2
NMTAP	35	0	0
NMTAP	35	32	1
NMTAP	35	64	2
NMTAP	35	96	3
NMTAP	35	96	7
NMTAP	35	128	4
NMTAP	35	160	5
NMTAP	35	192	2
NMTAP	35	192	6
NMTAP	35	224	7
NMTAP	35	256	0
NMTAP	35	288	1
NMTAP	35	288	5
NMTAP	35	320	2
NMTAP	35	352	3
NMTAP	36	0	0
NMTAP	36	0	4
NMTAP	36	32	5
NMTAP	36	64	6
NMTAP	36	96	3
NMTAP	36	96	7
NMTAP	36	128	0
NMTAP	36	160	1
BRTAP	36	192	2
NMTAP	36	208	3
NMTAP	36	224	4
NMTAP	36	240	5
NMTAP	36	256	6
NMTAP	36	272	7
BRTAP	36	288	0
NMTAP	36	304	1
NMTAP	36	320	2
NMTAP	36	336	3
NMTAP	36	352	4
NMTAP	36	368	5
NMTAP	37	0	7
NMTAP	37	32	6
NMTAP	37	64	5
NMTAP	37	96	0
NMTAP	37	96	4
NMTAP	37	128	3
NMTAP	37	160	2
NMTAP	37	192	1
NMTAP	37	192	5
NMTAP	37	224	0
NMTAP	37	256	7
NMTAP	37	288	2
NMTAP	37	288	6
NMTAP	37	320	1
NMTAP	37	320	5
NMTAP	37	352	0
NMTAP	37	352	4
NMTAP	38	144	0
NMTAP	38	144	7
NMTAP	38	168	0
NMTAP	38	168	7
NMTAP	38	192	0
NMTAP	38	192	7
NMTAP	38	240	0
NMTAP	38	240	7
NMTAP	38	288	0
NMTAP	38	288	7
NMTAP	38	336	0
NMTAP	38	336	7
NMTAP	38	360	0
NMTAP	38	360	7
BRTAP	39	0	0
NMTAP	39	12	1
NMTAP	39	24	2
NMTAP	39	36	3
NMTAP	39	48	4
NMTAP	39	60	5
NMTAP	39	72	6
NMTAP	39	84	7
NMTAP	39	96	0
NMTAP	39	108	1
NMTAP	39	120	2
NMTAP	39	132	3
NMTAP	39	144	4
NMTAP	39	156	5
NMTAP	39	168	6
NMTAP	39	180	7
BRTAP	39	192	0
NMTAP	39	204	1
NMTAP	39	216	2
NMTAP	39	228	3
NMTAP	39	240	4
NMTAP	39	252	5
NMTAP	39	264	6
NMTAP	39	276	7
NMTAP	39	288	0
NMTAP	39	300	1
NMTAP	39	312	2
NMTAP	39	324	3
NMTAP	39	336	4
NMTAP	39	348	5
NMTAP	39	360	6
NMTAP	39	372	7
BRTAP	40	0	4
NMTAP	40	12	3
NMTAP	40	24	2
NMTAP	40	36	1
NMTAP	40	48	0
NMTAP	40	60	7
NMTAP	40	72	6
NMTAP	40	84	5
NMTAP	40	96	4
NMTAP	40	108	3
NMTAP	40	120	2
NMTAP	40	132	1
NMTAP	40	144	0
NMTAP	40	156	7
NMTAP	40	168	6
NMTAP	40	180	5
BRTAP	40	192	4
NMTAP	40	204	3
NMTAP	40	216	2
NMTAP	40	228	1
NMTAP	40	240	0
NMTAP	40	252	7
NMTAP	40	264	6
NMTAP	40	276	5
NMTAP	40	288	4
NMTAP	40	300	3
NMTAP	40	312	2
NMTAP	40	324	1
NMTAP	40	336	0
NMTAP	40	348	7
NMTAP	40	360	6
NMTAP	40	372	5
BRTAP	41	0	1
NMTAP	41	12	2
NMTAP	41	24	3
NMTAP	41	36	4
NMTAP	41	48	5
NMTAP	41	60	6
NMTAP	41	72	7
NMTAP	41	84	0
NMTAP	41	96	1
NMTAP	41	108	2
NMTAP	41	120	3
NMTAP	41	132	4
NMTAP	41	144	5
NMTAP	41	156	6
NMTAP	41	168	7
NMTAP	41	180	0
BRTAP	41	192	1
NMTAP	41	204	2
NMTAP	41	216	3
NMTAP	41	228	4
NMTAP	41	240	5
NMTAP	41	252	6
NMTAP	41	264	7
NMTAP	41	276	0
NMTAP	41	288	1
NMTAP	41	300	2
NMTAP	41	312	3
NMTAP	41	324	4
NMTAP	41	336	5
NMTAP	41	348	6
NMTAP	41	360	7
NMTAP	41	372	0
BRTAP	42	0	5
NMTAP	42	12	4
NMTAP	42	24	3
NMTAP	42	36	2
NMTAP	42	48	1
NMTAP	42	60	0
NMTAP	42	72	7
NMTAP	42	84	6
NMTAP	42	96	5
NMTAP	42	108	4
NMTAP	42	120	3
NMTAP	42	132	2
NMTAP	42	144	1
NMTAP	42	156	0
NMTAP	42	168	7
NMTAP	42	180	6
BRTAP	42	192	3
BRTAP	42	192	5
NMTAP	42	224	2
NMTAP	42	224	4
NMTAP	42	256	1
NMTAP	42	256	3
BRTAP	42	288	0
BRTAP	42	288	2
NMTAP	42	320	1
NMTAP	42	320	7
NMTAP	42	352	0
NMTAP	42	352	6
BRTAP	43	0	7
NMTAP	43	12	6
NMTAP	43	24	5
NMTAP	43	36	4
NMTAP	43	48	3
NMTAP	43	60	2
NMTAP	43	72	1
NMTAP	43	84	0
NMTAP	43	96	7
NMTAP	43	108	6
NMTAP	43	120	5
NMTAP	43	132	4
NMTAP	43	144	3
NMTAP	43	156	2
NMTAP	43	168	1
NMTAP	43	180	0
NMTAP	43	192	7
NMTAP	43	204	6
NMTAP	43	216	5
NMTAP	43	228	4
NMTAP	43	240	3
NMTAP	43	252	2
NMTAP	43	264	1
NMTAP	43	276	0
NMTAP	43	288	7
NMTAP	43	300	6
NMTAP	43	312	5
NMTAP	43	324	4
NMTAP	43	336	3
NMTAP	43	348	2
NMTAP	43	360	1
NMTAP	43	372	0
BRTAP	44	0	3
NMTAP	44	12	4
NMTAP	44	24	5
NMTAP	44	36	6
NMTAP	44	48	7
NMTAP	44	60	0
NMTAP	44	72	1
NMTAP	44	84	2
NMTAP	44	96	3
NMTAP	44	108	4
NMTAP	44	120	5
NMTAP	44	132	6
NMTAP	44	144	7
NMTAP	44	156	0
NMTAP	44	168	1
NMTAP	44	180	2
BRTAP	44	192	3
NMTAP	44	204	4
NMTAP	44	216	5
NMTAP	44	228	6
NMTAP	44	240	7
NMTAP	44	252	0
NMTAP	44	264	1
NMTAP	44	276	2
NMTAP	44	288	3
NMTAP	44	300	4
NMTAP	44	312	5
NMTAP	44	324	6
NMTAP	44	336	7
NMTAP	44	348	0
NMTAP	44	360	1
NMTAP	44	372	2
BRTAP	45	0	6
NMTAP	45	12	5
NMTAP	45	24	4
NMTAP	45	36	3
NMTAP	45	48	2
NMTAP	45	60	1
NMTAP	45	72	0
NMTAP	45	84	7
NMTAP	45	96	6
NMTAP	45	108	5
NMTAP	45	120	4
NMTAP	45	132	3
NMTAP	45	144	2
NMTAP	45	156	1
NMTAP	45	168	0
NMTAP	45	180	7
BRTAP	45	192	6
NMTAP	45	204	5
NMTAP	45	216	4
NMTAP	45	228	3
NMTAP	45	240	2
NMTAP	45	252	1
NMTAP	45	264	0
NMTAP	45	276	7
NMTAP	45	288	6
NMTAP	45	300	5
NMTAP	45	312	4
NMTAP	45	324	3
NMTAP	45	336	2
NMTAP	45	348	1
NMTAP	45	360	0
NMTAP	45	372	7
BRTAP	46	0	2
NMTAP	46	12	3
NMTAP	46	24	4
NMTAP	46	36	5
NMTAP	46	48	6
NMTAP	46	60	7
NMTAP	46	72	0
NMTAP	46	84	1
NMTAP	46	96	2
NMTAP	46	108	3
NMTAP	46	120	4
NMTAP	46	132	5
NMTAP	46	144	6
NMTAP	46	156	7
NMTAP	46	168	0
NMTAP	46	180	1
BRTAP	46	192	2
BRTAP	46	192	4
NMTAP	46	224	3
NMTAP	46	224	5
NMTAP	46	256	4
NMTAP	46	256	6
BRTAP	46	288	5
BRTAP	46	288	7
NMTAP	46	320	0
NMTAP	46	320	6
NMTAP	46	352	1
NMTAP	46	352	7
NMSTR	47	0	0
NMSSL	47	0	0	96	192	4
NMTAP	47	0	2
BRSTR	47	288	0
NMSSL	47	288	0	96	456	4

T_REC_TAP	903
T_REC_BRK	43
T_REC_XTP	0
T_REC_BXX	0
T_REC_HLD	0
T_REC_XHO	0
T_REC_BHO	0
T_REC_BXH	0
T_REC_STR	1
T_REC_BST	1
T_REC_XST	0
T_REC_XBS	0
T_REC_TTP	0
T_REC_THO	0
T_REC_SLD	2
T_REC_BSL	0
T_REC_ALL	950
T_NUM_TAP	904
T_NUM_BRK	44
T_NUM_HLD	0
T_NUM_SLD	2
T_NUM_ALL	950
T_JUDGE_TAP	948
T_JUDGE_HLD	0
T_JUDGE_SLD	2
T_JUDGE_ALL	950
TTM_EACHPAIRS	40
TTM_SCR_TAP	452000
TTM_SCR_BRK	114400
TTM_SCR_HLD	0
TTM_SCR_SLD	3000
TTM_SCR_ALL	569400
TTM_SCR_S	548050
TTM_SCR_SS	565000
TTM_RAT_ACV	10077

