VERSION	0.00.00	1.05.00
FES_MODE	1
BPM_DEF	145.000	145.000	145.000	145.000
MET_DEF	4	4
RESOLUTION	384
CLK_DEF	384
COMPATIBLE_CODE	MA2

BPM	0	0	145.000
MET	0	0	4	4

NMTAP	3	0	2
NMTAP	3	0	3
NMTAP	3	0	4
NMTAP	3	0	5
NMTAP	4	0	3
NMTAP	4	0	4
NMTAP	4	0	5
NMTAP	4	0	6
NMTAP	5	0	2
NMTAP	5	0	3
NMTAP	5	0	4
NMTAP	5	0	5
NMTAP	6	0	1
NMTAP	6	0	2
NMTAP	6	0	3
NMTAP	6	0	4
NMTAP	7	0	0
NMTAP	7	0	1
NMTAP	7	0	6
NMTAP	7	0	7
NMTAP	8	0	0
NMTAP	8	0	5
NMTAP	8	0	6
NMTAP	8	0	7
NMTAP	9	0	0
NMTAP	9	0	1
NMTAP	9	0	6
NMTAP	9	0	7
NMTAP	10	0	0
NMTAP	10	0	1
NMTAP	10	0	2
NMTAP	10	0	7
NMTAP	11	0	2
NMTAP	11	0	3
NMTAP	11	0	4
NMTAP	11	0	5
NMTAP	11	96	0
NMTAP	11	96	1
NMTAP	11	96	6
NMTAP	11	96	7
NMTAP	11	192	2
NMTAP	11	192	3
NMTAP	11	192	4
NMTAP	11	192	5
NMTAP	11	288	0
NMTAP	11	288	1
NMTAP	11	288	6
NMTAP	11	288	7
NMTAP	12	0	1
NMTAP	12	0	2
NMTAP	12	0	3
NMTAP	12	0	4
NMTAP	12	96	0
NMTAP	12	96	5
NMTAP	12	96	6
NMTAP	12	96	7
NMTAP	12	192	1
NMTAP	12	192	2
NMTAP	12	192	3
NMTAP	12	192	4
NMTAP	12	288	0
NMTAP	12	288	5
NMTAP	12	288	6
NMTAP	12	288	7
NMTAP	13	0	3
NMTAP	13	0	4
NMTAP	13	0	5
NMTAP	13	0	6
NMTAP	13	96	0
NMTAP	13	96	1
NMTAP	13	96	2
NMTAP	13	96	7
NMTAP	13	192	3
NMTAP	13	192	4
NMTAP	13	192	5
NMTAP	13	192	6
NMTAP	13	288	0
NMTAP	13	288	1
NMTAP	13	288	2
NMTAP	13	288	7
NMHLD	14	0	2	48
NMHLD	14	0	3	48
NMHLD	14	0	4	48
NMHLD	14	0	5	48
NMHLD	14	96	2	48
NMHLD	14	96	3	48
NMHLD	14	96	4	48
NMHLD	14	96	5	48
NMTAP	15	0	2
NMTAP	15	0	3
NMTAP	15	0	4
NMTAP	15	0	5
NMTAP	15	96	0
NMTAP	15	96	1
NMTAP	15	96	6
NMTAP	15	96	7
NMTAP	15	192	2
NMTAP	15	192	3
NMTAP	15	192	4
NMTAP	15	192	5
NMTAP	15	288	0
NMTAP	15	288	1
NMTAP	15	288	6
NMTAP	15	288	7
NMTAP	16	0	3
NMTAP	16	0	4
NMTAP	16	0	5
NMTAP	16	0	6
NMTAP	16	96	0
NMTAP	16	96	1
NMTAP	16	96	2
NMTAP	16	96	7
NMTAP	16	192	3
NMTAP	16	192	4
NMTAP	16	192	5
NMTAP	16	192	6
NMTAP	16	288	0
NMTAP	16	288	1
NMTAP	16	288	2
NMTAP	16	288	7
NMTAP	17	0	1
NMTAP	17	0	2
NMTAP	17	0	3
NMTAP	17	0	4
NMTAP	17	96	0
NMTAP	17	96	5
NMTAP	17	96	6
NMTAP	17	96	7
NMTAP	17	192	1
NMTAP	17	192	2
NMTAP	17	192	3
NMTAP	17	192	4
NMTAP	17	288	0
NMTAP	17	288	5
NMTAP	17	288	6
NMTAP	17	288	7
NMHLD	18	0	2	48
NMHLD	18	0	3	48
NMHLD	18	0	4	48
NMHLD	18	0	5	48
NMHLD	18	96	2	48
NMHLD	18	96	3	48
NMHLD	18	96	4	48
NMHLD	18	96	5	48
NMTAP	19	0	2
NMTAP	19	0	3
NMTAP	19	0	4
NMTAP	19	0	5
NMTAP	19	96	3
NMTAP	19	96	4
NMTAP	19	96	5
NMTAP	19	96	6
NMTAP	19	192	2
NMTAP	19	192	3
NMTAP	19	192	4
NMTAP	19	192	5
NMTAP	19	288	1
NMTAP	19	288	2
NMTAP	19	288	3
NMTAP	19	288	4
NMTAP	20	0	2
NMTAP	20	0	3
NMTAP	20	0	4
NMTAP	20	0	5
NMTAP	20	96	4
NMTAP	20	96	5
NMTAP	20	96	6
NMTAP	20	96	7
NMTAP	20	192	2
NMTAP	20	192	3
NMTAP	20	192	4
NMTAP	20	192	5
NMTAP	20	288	0
NMTAP	20	288	1
NMTAP	20	288	2
NMTAP	20	288	3
NMTAP	21	0	2
NMTAP	21	0	3
NMTAP	21	0	4
NMTAP	21	0	5
NMTAP	21	96	0
NMTAP	21	96	5
NMTAP	21	96	6
NMTAP	21	96	7
NMTAP	21	192	2
NMTAP	21	192	3
NMTAP	21	192	4
NMTAP	21	192	5
NMTAP	21	288	0
NMTAP	21	288	1
NMTAP	21	288	2
NMTAP	21	288	7
NMTAP	22	0	2
NMTAP	22	0	3
NMTAP	22	0	4
NMTAP	22	0	5
NMTAP	22	96	0
NMTAP	22	96	1
NMTAP	22	96	6
NMTAP	22	96	7
NMTAP	22	192	2
NMTAP	22	192	3
NMTAP	22	192	4
NMTAP	22	192	5
NMTAP	22	288	0
NMTAP	22	288	1
NMTAP	22	288	6
NMTAP	22	288	7
NMTAP	23	48	2
NMTAP	23	48	3
NMTAP	23	48	4
NMTAP	23	48	5
NMTAP	23	96	2
NMTAP	23	96	3
NMTAP	23	96	4
NMTAP	23	96	5
NMTAP	23	144	2
NMTAP	23	144	3
NMTAP	23	144	4
NMTAP	23	144	5
NMTAP	23	192	2
NMTAP	23	192	3
NMTAP	23	192	4
NMTAP	23	192	5
NMTAP	23	240	2
NMTAP	23	240	3
NMTAP	23	240	4
NMTAP	23	240	5
NMTAP	23	288	2
NMTAP	23	288	3
NMTAP	23	288	4
NMTAP	23	288	5
NMTAP	23	336	2
NMTAP	23	336	3
NMTAP	23	336	4
NMTAP	23	336	5
NMHLD	24	0	1	96
NMHLD	24	0	2	96
NMHLD	24	0	3	96
NMHLD	24	0	4	96
NMHLD	24	144	3	96
NMHLD	24	144	4	96
NMHLD	24	144	5	96
NMHLD	24	144	6	96
NMTAP	25	48	2
NMTAP	25	48	3
NMTAP	25	48	4
NMTAP	25	48	5
NMTAP	25	96	2
NMTAP	25	96	3
NMTAP	25	96	4
NMTAP	25	96	5
NMTAP	25	144	2
NMTAP	25	144	3
NMTAP	25	144	4
NMTAP	25	144	5
NMTAP	25	192	2
NMTAP	25	192	3
NMTAP	25	192	4
NMTAP	25	192	5
NMTAP	25	240	2
NMTAP	25	240	3
NMTAP	25	240	4
NMTAP	25	240	5
NMTAP	25	288	2
NMTAP	25	288	3
NMTAP	25	288	4
NMTAP	25	288	5
NMTAP	25	336	2
NMTAP	25	336	3
NMTAP	25	336	4
NMTAP	25	336	5
NMHLD	26	0	3	96
NMHLD	26	0	4	96
NMHLD	26	0	5	96
NMHLD	26	0	6	96
NMHLD	26	144	1	96
NMHLD	26	144	2	96
NMHLD	26	144	3	96
NMHLD	26	144	4	96
NMTAP	27	48	2
NMTAP	27	48	3
NMTAP	27	48	4
NMTAP	27	48	5
NMTAP	27	96	2
NMTAP	27	96	3
NMTAP	27	96	4
NMTAP	27	96	5
NMTAP	27	144	2
NMTAP	27	144	3
NMTAP	27	144	4
NMTAP	27	144	5
NMTAP	27	192	2
NMTAP	27	192	3
NMTAP	27	192	4
NMTAP	27	192	5
NMTAP	27	240	2
NMTAP	27	240	3
NMTAP	27	240	4
NMTAP	27	240	5
NMTAP	27	288	2
NMTAP	27	288	3
NMTAP	27	288	4
NMTAP	27	288	5
NMTAP	27	336	2
NMTAP	27	336	3
NMTAP	27	336	4
NMTAP	27	336	5
NMHLD	28	0	2	96
NMHLD	28	0	3	96
NMHLD	28	0	4	96
NMHLD	28	0	5	96
NMHLD	28	144	0	96
NMHLD	28	144	1	96
NMHLD	28	144	6	96
NMHLD	28	144	7	96
NMSTR	28	288	0
NMSXL	28	288	0	96	288	3
NMTAP	28	288	1
NMTAP	28	288	6
NMSTR	28	288	7
NMSXR	28	288	7	96	288	4
NMHLD	30	0	3	288
NMHLD	30	0	4	288
NMHLD	30	144	2	144
NMHLD	30	144	5	144
NMTAP	31	48	3
NMTAP	31	48	4
NMTAP	31	48	5
NMTAP	31	48	6
NMTAP	31	96	3
NMTAP	31	96	4
NMTAP	31	96	5
NMTAP	31	96	6
NMTAP	31	144	3
NMTAP	31	144	4
NMTAP	31	144	5
NMTAP	31	144	6
NMTAP	31	192	4
NMTAP	31	192	5
NMTAP	31	192	6
NMTAP	31	192	7
NMTAP	31	240	4
NMTAP	31	240	5
NMTAP	31	240	6
NMTAP	31	240	7
NMTAP	31	288	4
NMTAP	31	288	5
NMTAP	31	288	6
NMTAP	31	288	7
NMTAP	31	336	4
NMTAP	31	336	5
NMTAP	31	336	6
NMTAP	31	336	7
NMHLD	32	0	1	96
NMHLD	32	0	2	96
NMHLD	32	0	3	96
NMHLD	32	0	4	96
NMHLD	32	144	0	96
NMHLD	32	144	5	96
NMHLD	32	144	6	96
NMHLD	32	144	7	96
NMTAP	33	48	1
NMTAP	33	48	2
NMTAP	33	48	3
NMTAP	33	48	4
NMTAP	33	96	1
NMTAP	33	96	2
NMTAP	33	96	3
NMTAP	33	96	4
NMTAP	33	144	1
NMTAP	33	144	2
NMTAP	33	144	3
NMTAP	33	144	4
NMTAP	33	192	0
NMTAP	33	192	1
NMTAP	33	192	2
NMTAP	33	192	3
NMTAP	33	240	0
NMTAP	33	240	1
NMTAP	33	240	2
NMTAP	33	240	3
NMTAP	33	288	0
NMTAP	33	288	1
NMTAP	33	288	2
NMTAP	33	288	3
NMTAP	33	336	0
NMTAP	33	336	1
NMTAP	33	336	2
NMTAP	33	336	3
NMHLD	34	0	3	96
NMHLD	34	0	4	96
NMHLD	34	0	5	96
NMHLD	34	0	6	96
NMHLD	34	144	0	96
NMHLD	34	144	1	96
NMHLD	34	144	2	96
NMHLD	34	144	7	96
NMTAP	35	48	2
NMTAP	35	48	3
NMTAP	35	48	4
NMTAP	35	48	5
NMTAP	35	96	2
NMTAP	35	96	3
NMTAP	35	96	4
NMTAP	35	96	5
NMTAP	35	144	2
NMTAP	35	144	3
NMTAP	35	144	4
NMTAP	35	144	5
NMTAP	35	192	0
NMTAP	35	192	1
NMTAP	35	192	6
NMTAP	35	192	7
NMTAP	35	240	0
NMTAP	35	240	1
NMTAP	35	240	6
NMTAP	35	240	7
NMTAP	35	288	0
NMTAP	35	288	1
NMTAP	35	288	6
NMTAP	35	288	7
NMTAP	35	336	0
NMTAP	35	336	1
NMTAP	35	336	6
NMTAP	35	336	7
NMHLD	36	0	2	96
NMHLD	36	0	3	96
NMHLD	36	0	4	96
NMHLD	36	0	5	96
NMHLD	36	144	0	96
NMHLD	36	144	1	96
NMHLD	36	144	6	96
NMHLD	36	144	7	96
NMSTR	36	288	0
NMSXL	36	288	0	96	288	3
NMTAP	36	288	1
NMTAP	36	288	6
NMSTR	36	288	7
NMSXR	36	288	7	96	288	4
NMHLD	38	0	3	288
NMHLD	38	0	4	288
NMHLD	38	144	2	144
NMHLD	38	144	5	144
NMHLD	39	0	2	384
NMHLD	39	0	3	672
NMHLD	39	0	4	672
NMHLD	39	0	5	528
BRTAP	45	0	0
BRTAP	45	0	5
BRTAP	45	0	6
BRTAP	45	0	7
BRTAP	45	96	1
BRTAP	45	96	2
BRTAP	45	96	3
BRTAP	45	96	4
NMSTR	45	192	0
NMSTR	45	196	1
NMSTR	45	200	2
NMSTR	45	204	3
NMTTP	45	288	7	E	0	M1
NMTTP	45	292	6	B	0	M1
NMTTP	45	296	5	B	0	M1
NMTTP	45	300	5	E	0	M1
NMTHO	46	0	0	96	C	0	M1
NMTAP	46	192	0
NMTAP	46	192	1
NMTAP	46	192	6
NMTAP	46	192	7
NMTTP	46	288	3	B	0	M1
NMTTP	46	288	3	E	0	M1
NMTTP	46	288	4	B	0	M1
NMTTP	46	288	5	E	0	M1
NMSTR	47	0	0
NMSI_	47	0	0	96	48	3
NMTAP	47	0	1
NMTAP	47	0	6
NMSTR	47	0	7
NMSI_	47	0	7	96	48	4
NMHLD	47	192	0	96
NMHLD	47	192	1	96
NMHLD	47	192	6	96
NMHLD	47	192	7	96
NMTTP	48	0	0	A	0	M1
NMTTP	48	0	1	A	0	M1
NMTTP	48	0	1	D	1	M1
NMTTP	48	0	6	A	0	M1
NMTTP	48	0	7	A	0	M1
NMTTP	48	0	7	D	0	M1
NMTTP	48	96	0	A	0	M1
NMTTP	48	96	1	A	0	M1
NMTTP	48	96	1	D	0	M1
NMTTP	48	96	6	A	0	M1
NMTTP	48	96	7	A	0	M1
NMTTP	48	96	7	D	1	M1
NMSTR	48	192	0
NMSI_	48	192	0	96	48	4
NMSTR	48	192	1
NMSI_	48	192	1	96	48	3
NMSTR	48	192	6
NMSI_	48	192	6	96	48	4
NMSTR	48	192	7
NMSI_	48	192	7	96	48	3
NMHLD	49	0	0	672
NMHLD	49	0	7	672
NMHLD	49	192	1	480
NMHLD	49	192	6	480
NMHLD	50	0	2	288
NMHLD	50	0	5	288
NMSTR	51	0	0
NMSXR	51	0	0	96	384	3
NMSTR	51	0	1
NMSXR	51	0	1	96	384	3
NMSTR	51	0	2
NMSUR	51	0	2	96	384	3
NMSTR	51	0	5
NMSUL	51	0	5	96	384	4
NMSTR	51	0	6
NMSXL	51	0	6	96	384	4
NMSTR	51	0	7
NMSXL	51	0	7	96	384	4
NMTAP	53	48	2
NMTAP	53	48	3
NMTAP	53	48	4
NMTAP	53	48	5
NMTAP	53	96	2
NMTAP	53	96	3
NMTAP	53	96	4
NMTAP	53	96	5
NMTAP	53	144	2
NMTAP	53	144	3
NMTAP	53	144	4
NMTAP	53	144	5
NMTAP	53	192	3
NMTAP	53	192	4
NMTAP	53	192	5
NMTAP	53	192	6
NMTAP	53	240	3
NMTAP	53	240	4
NMTAP	53	240	5
NMTAP	53	240	6
NMTAP	53	288	1
NMTAP	53	288	2
NMTAP	53	288	3
NMTAP	53	288	4
NMTAP	53	336	1
NMTAP	53	336	2
NMTAP	53	336	3
NMTAP	53	336	4
NMHLD	54	0	3	96
NMHLD	54	0	4	96
NMHLD	54	0	5	96
NMHLD	54	0	6	96
NMHLD	54	144	0	96
NMHLD	54	144	1	96
NMHLD	54	144	2	96
NMHLD	54	144	7	96
NMTAP	55	48	2
NMTAP	55	48	3
NMTAP	55	48	4
NMTAP	55	48	5
NMTAP	55	96	2
NMTAP	55	96	3
NMTAP	55	96	4
NMTAP	55	96	5
NMTAP	55	144	2
NMTAP	55	144	3
NMTAP	55	144	4
NMTAP	55	144	5
NMTAP	55	192	1
NMTAP	55	192	2
NMTAP	55	192	3
NMTAP	55	192	4
NMTAP	55	240	1
NMTAP	55	240	2
NMTAP	55	240	3
NMTAP	55	240	4
NMTAP	55	288	3
NMTAP	55	288	4
NMTAP	55	288	5
NMTAP	55	288	6
NMTAP	55	336	3
NMTAP	55	336	4
NMTAP	55	336	5
NMTAP	55	336	6
NMHLD	56	0	1	96
NMHLD	56	0	2	96
NMHLD	56	0	3	96
NMHLD	56	0	4	96
NMHLD	56	144	0	96
NMHLD	56	144	5	96
NMHLD	56	144	6	96
NMHLD	56	144	7	96
NMTAP	57	48	0
NMTAP	57	48	1
NMTAP	57	48	6
NMTAP	57	48	7
NMTAP	57	96	0
NMTAP	57	96	5
NMTAP	57	96	6
NMTAP	57	96	7
NMTAP	57	144	0
NMTAP	57	144	1
NMTAP	57	144	6
NMTAP	57	144	7
NMTAP	57	192	0
NMTAP	57	192	1
NMTAP	57	192	2
NMTAP	57	192	7
NMTAP	57	240	0
NMTAP	57	240	1
NMTAP	57	240	6
NMTAP	57	240	7
NMTAP	57	288	0
NMTAP	57	288	5
NMTAP	57	288	6
NMTAP	57	288	7
NMTAP	57	336	0
NMTAP	57	336	1
NMTAP	57	336	6
NMTAP	57	336	7
NMHLD	58	0	0	96
NMHLD	58	0	1	96
NMHLD	58	0	6	96
NMHLD	58	0	7	96
NMHLD	58	144	2	96
NMHLD	58	144	3	96
NMHLD	58	144	4	96
NMHLD	58	144	5	96
NMTAP	58	288	2
NMSTR	58	288	3
NMSXR	58	288	3	96	288	0
NMSTR	58	288	4
NMSXL	58	288	4	96	288	7
NMTAP	58	288	5
NMHLD	60	0	3	288
NMHLD	60	0	4	288
NMHLD	60	144	2	144
NMHLD	60	144	5	144
NMHLD	61	0	0	672
NMHLD	61	0	1	528
NMHLD	61	0	6	384
NMHLD	61	0	7	672

T_REC_TAP	456
T_REC_BRK	8
T_REC_XTP	0
T_REC_BXX	0
T_REC_HLD	118
T_REC_XHO	0
T_REC_BHO	0
T_REC_BXH	0
T_REC_STR	22
T_REC_BST	0
T_REC_XST	0
T_REC_XBS	0
T_REC_TTP	20
T_REC_THO	1
T_REC_SLD	18
T_REC_BSL	0
T_REC_ALL	643
T_NUM_TAP	498
T_NUM_BRK	8
T_NUM_HLD	119
T_NUM_SLD	18
T_NUM_ALL	643
T_JUDGE_TAP	506
T_JUDGE_HLD	378
T_JUDGE_SLD	18
T_JUDGE_ALL	902
TTM_EACHPAIRS	154
TTM_SCR_TAP	249000
TTM_SCR_BRK	20800
TTM_SCR_HLD	119000
TTM_SCR_SLD	27000
TTM_SCR_ALL	415800
TTM_SCR_S	402550
TTM_SCR_SS	415000
TTM_RAT_ACV	10019

