VERSION	0.00.00	1.04.00
FES_MODE	1
BPM_DEF	140.000	140.000	140.000	140.000
MET_DEF	4	4
RESOLUTION	384
CLK_DEF	384
COMPATIBLE_CODE	MA2

BPM	0	0	140.000
MET	0	0	4	4

NMSTR	2	288	0
NMSTR	2	336	7
NMHLD	3	0	1	96
NMSTR	3	48	6
NMSTR	3	96	4
NMSTR	3	144	5
NMSTR	3	168	5
NMSTR	3	288	7
NMSTR	3	336	0
NMHLD	4	0	6	96
NMSTR	4	48	1
NMSTR	4	96	3
NMSTR	4	144	2
NMSTR	4	168	2
NMSTR	4	336	5
NMHLD	5	0	1	144
NMSTR	5	96	2
NMSTR	5	144	3
NMHLD	5	192	6	96
NMSTR	5	288	5
NMSTR	5	336	4
NMTAP	6	0	2
NMSI_	6	0	2	96	24	6
NMTAP	6	48	3
NMSI_	6	48	3	96	24	7
NMTAP	6	192	4
NMSI_	6	192	4	96	24	0
NMTAP	6	240	5
NMSI_	6	240	5	96	24	1
NMSTR	7	0	7
NMSTR	7	48	6
NMSTR	7	96	5
NMSTR	7	144	4
NMSTR	7	192	0
NMSTR	7	216	1
NMHLD	7	264	2	72
NMSTR	7	336	3
NMTAP	8	0	5
NMSI_	8	0	5	96	24	1
NMTAP	8	48	4
NMSI_	8	48	4	96	24	0
NMTAP	8	192	3
NMSI_	8	192	3	96	24	7
NMTAP	8	240	2
NMSI_	8	240	2	96	24	6
NMTAP	9	0	7
NMSCL	9	0	7	96	96	4
NMTAP	9	96	4
NMSCL	9	96	4	96	96	1
NMTAP	9	192	1
NMSCL	9	192	1	96	96	6
BRSTR	9	288	6
NMHLD	10	0	0	192
NMSTR	10	144	6
NMHLD	10	192	6	192
NMSTR	10	288	3
NMSTR	10	336	4
NMHLD	11	0	5	192
NMSTR	11	144	2
NMSTR	11	192	2
NMSTR	11	336	1
NMHLD	12	0	1	192
NMSTR	12	144	7
NMHLD	12	192	7	192
NMSTR	12	240	6
NMSTR	12	288	5
NMSTR	12	336	4
NMHLD	13	0	3	96
NMHLD	13	96	2	96
NMSTR	13	192	0
NMSTR	13	288	5
NMSTR	13	336	6
NMHLD	14	0	7	192
NMSTR	14	144	1
NMHLD	14	192	1	192
NMSTR	14	288	4
NMSTR	14	336	3
NMHLD	15	0	2	192
NMSTR	15	144	5
NMSTR	15	192	5
NMSTR	15	336	6
NMHLD	16	0	6	192
NMSTR	16	144	0
NMHLD	16	192	0	192
NMSTR	16	240	1
NMSTR	16	288	2
NMSTR	16	336	3
NMHLD	17	0	4	96
NMHLD	17	96	5	96
BRSTR	17	192	7
NMSTR	17	288	4
NMSTR	17	336	2
NMSTR	18	0	6
NMTAP	18	96	3
NMSI_	18	96	3	96	24	7
NMSTR	18	96	4
NMSTR	18	192	0
NMSTR	18	288	5
NMSTR	18	336	6
NMTAP	19	0	1
NMSCL	19	0	1	96	48	6
NMSTR	19	96	5
NMHLD	19	144	5	96
NMSTR	19	240	6
NMSTR	19	288	5
NMSTR	19	336	4
NMTAP	20	0	3
NMSCL	20	0	3	96	48	0
NMSTR	20	96	7
NMHLD	20	144	7	96
NMSTR	20	240	6
NMSTR	20	288	4
NMSTR	20	336	2
NMSTR	21	0	1
NMSTR	21	0	3
NMSTR	21	72	3
NMSTR	21	72	5
NMSTR	21	144	0
NMSTR	21	144	4
NMSTR	21	192	2
NMSTR	21	192	6
NMSTR	21	288	4
NMSTR	21	336	3
NMSTR	22	0	0
NMSTR	22	0	1
NMSTR	22	72	5
NMSTR	22	72	6
NMSTR	22	144	1
NMSTR	22	144	3
NMSTR	22	288	3
NMSTR	22	336	4
NMSTR	23	0	6
NMSTR	23	0	7
NMSTR	23	72	1
NMSTR	23	72	2
NMSTR	23	144	4
NMSTR	23	144	6
NMSTR	23	288	6
NMSTR	23	336	6
NMTAP	24	0	5
NMSI_	24	0	5	96	24	0
NMSTR	24	96	7
NMTAP	24	192	2
NMSI_	24	192	2	96	24	7
NMSTR	24	288	0
NMTAP	25	0	0
NMSI_	25	0	0	96	24	5
NMTAP	25	96	2
NMSI_	25	96	2	96	24	7
NMTAP	25	192	4
NMSI_	25	192	4	96	24	1
NMTAP	25	288	6
NMSI_	25	288	6	96	24	3
NMSTR	26	0	1
NMSTR	26	12	0
NMSTR	26	24	7
NMSTR	26	36	6
NMSTR	26	48	5
NMSTR	26	60	4
NMSTR	26	72	3
NMSTR	26	84	2
NMSTR	26	96	1
NMSTR	26	108	0
NMSTR	26	120	7
NMSTR	26	132	6
NMSTR	26	144	5
NMSTR	26	156	4
BRSTR	26	168	2
BRSTR	26	168	3
NMSTR	26	288	4
NMSTR	26	288	6
NMSTR	26	336	5
NMSTR	27	0	1
NMSTR	27	0	3
NMSTR	27	48	2
NMSTR	27	96	1
NMSTR	27	96	5
NMSTR	27	144	0
NMSTR	27	168	7
NMSTR	27	336	5
NMTAP	28	0	1
NMSI_	28	0	1	96	24	5
NMSTR	28	96	7
NMSTR	28	144	6
NMTAP	28	192	6
NMSI_	28	192	6	96	24	3
NMSTR	28	288	0
NMSTR	28	336	1
NMSTR	29	0	2
NMTAP	29	48	5
NMSCL	29	48	5	96	48	2
NMTAP	29	72	1
NMSCL	29	72	1	96	24	6
NMSTR	29	288	5
NMSTR	29	336	6
NMTAP	30	0	7
NMSI_	30	0	7	96	24	3
NMSTR	30	96	4
NMSTR	30	144	2
NMTAP	30	192	1
NMSI_	30	192	1	96	24	5
NMSTR	30	288	7
NMSTR	30	336	6
NMSTR	31	0	2
NMSTR	31	48	0
NMSTR	31	96	6
NMSTR	31	144	5
NMHLD	31	168	4	120
NMHLD	31	168	6	120
NMSTR	31	336	4
NMTAP	32	0	2
NMSCL	32	0	2	96	24	7
NMSTR	32	96	3
NMSTR	32	144	4
NMTAP	32	192	5
NMSCR	32	192	5	96	24	0
NMSTR	32	288	4
NMSTR	32	336	3
NMTAP	33	0	2
NMSI_	33	0	2	96	24	6
NMTAP	33	48	5
NMSI_	33	48	5	96	24	1
NMTAP	33	192	3
NMSI_	33	192	3	96	24	7
NMTAP	33	240	4
NMSI_	33	240	4	96	24	0
NMSTR	34	0	2
NMSTR	34	48	6
NMSTR	34	96	1
NMSTR	34	144	5
NMTAP	34	168	2
NMSCR	34	168	2	96	24	5
NMHLD	34	168	6	120
NMSTR	35	0	1
NMSTR	35	48	4
NMSTR	35	96	6
NMSTR	35	144	2
NMHLD	35	168	1	120
NMTAP	35	168	5
NMSCL	35	168	5	96	24	2
NMSTR	35	336	6
NMHLD	36	0	4	96
NMSTR	36	48	3
NMHLD	36	96	3	96
NMSTR	36	144	1
NMSTR	36	192	1
NMSTR	36	288	0
NMSTR	36	288	4
NMSTR	36	336	6
NMSTR	37	0	1
NMSTR	37	0	5
NMSTR	37	48	3
NMHLD	37	72	2	120
NMHLD	37	72	6	120
NMSTR	37	288	4
NMSTR	37	336	2
NMTAP	38	0	1
NMSI_	38	0	1	96	24	5
NMSTR	38	96	0
NMSTR	38	144	7
NMTAP	38	192	6
NMSI_	38	192	6	96	24	2
NMSTR	38	288	0
NMSTR	38	336	1
NMSTR	39	0	6
NMSTR	39	48	7
NMSTR	39	96	1
NMSTR	39	144	2
NMHLD	39	168	1	120
NMHLD	39	168	3	120
NMSTR	39	336	4
NMTAP	40	0	4
NMSI_	40	0	4	96	24	0
NMSTR	40	96	5
NMSTR	40	144	6
NMTAP	40	192	3
NMSI_	40	192	3	96	24	7
NMSTR	40	288	2
NMTAP	40	336	0
NMSCL	40	336	0	96	240	5
NMHLD	40	360	0	312
NMTAP	42	0	5
NMSI_	42	0	5	96	192	0
NMTAP	43	0	2
NMSI_	43	0	2	96	192	7
NMTAP	44	0	0
NMSCR	44	0	0	96	96	3
NMTAP	44	192	4
NMSCR	44	192	4	96	96	7
NMTAP	45	0	0
NMSI_	45	0	0	96	192	4
NMTAP	46	0	5
NMSI_	46	0	5	96	96	1
NMTAP	46	96	1
NMSCR	46	96	1	96	96	4
NMTAP	46	192	4
NMSCR	46	192	4	96	96	7
NMTAP	46	288	7
NMSI_	46	288	7	96	96	3
NMSTR	47	0	3
NMTAP	47	96	0
NMSI_	47	96	0	96	24	4
NMHLD	48	0	0	96
NMHLD	48	0	5	96
NMHLD	48	192	2	96
NMHLD	48	192	7	96
NMSTR	49	0	2
NMSTR	49	48	1
NMSTR	49	96	0
NMSTR	49	96	2
NMSTR	49	192	5
NMSTR	49	240	6
NMSTR	49	288	5
NMSTR	49	288	7
NMSTR	50	0	0
NMSTR	50	0	6
NMSTR	50	48	7
NMSTR	50	96	0
NMSTR	50	96	6
NMSTR	50	192	1
NMSTR	50	192	7
NMSTR	50	264	0
NMSTR	50	288	1
NMSTR	50	288	7
NMSTR	50	336	0
NMSTR	50	336	6
NMSTR	51	0	3
BRSTR	51	48	6
BRSTR	51	48	7
NMSTR	51	96	4
BRSTR	51	144	0
BRSTR	51	144	1
NMSTR	51	192	2
BRSTR	51	240	6
BRSTR	51	240	7
NMSTR	51	288	5
BRSTR	51	336	0
BRSTR	51	336	1
NMSTR	52	0	2
NMSTR	52	0	3
BRSTR	52	48	0
BRSTR	52	48	6
NMSTR	52	96	4
NMSTR	52	96	5
BRSTR	52	144	1
BRSTR	52	144	7
NMTAP	52	192	3
NMSI_	52	192	3	96	24	7
NMTAP	52	192	4
NMSI_	52	192	4	96	24	0
NMSTR	52	240	3
NMSTR	52	240	4
NMSTR	53	0	1
NMSTR	53	12	0
NMSTR	53	24	7
NMSTR	53	36	6
NMSTR	53	48	5
NMSTR	53	60	4
NMSTR	53	72	3
NMSTR	53	84	2
NMSTR	53	96	1
NMSTR	53	108	0
NMSTR	53	120	7
NMSTR	53	132	6
NMSTR	53	144	5
NMSTR	53	156	4
BRSTR	53	168	2
BRSTR	53	168	3
NMSTR	53	288	4
NMSTR	53	336	2
NMTAP	54	0	6
NMSI_	54	0	6	96	24	2
NMSTR	54	48	1
NMSTR	54	96	0
NMSTR	54	144	5
NMHLD	54	168	5	120
NMSTR	54	288	3
NMSTR	54	336	2
NMTAP	55	0	1
NMSI_	55	0	1	96	24	5
NMSTR	55	48	6
NMSTR	55	96	7
NMSTR	55	144	2
NMHLD	55	168	2	120
NMSTR	55	336	5
NMTAP	56	0	4
NMSI_	56	0	4	96	24	1
NMSTR	56	96	3
NMSTR	56	144	1
NMTAP	56	192	2
NMSI_	56	192	2	96	24	6
NMSTR	56	288	5
NMSTR	56	336	7
NMSTR	57	0	1
NMTAP	57	48	1
NMSI_	57	48	1	96	48	5
NMTAP	57	72	6
NMSI_	57	72	6	96	24	2
NMSTR	57	288	5
NMSTR	57	336	6
NMTAP	58	0	7
NMSI_	58	0	7	96	24	3
NMSTR	58	96	4
NMSTR	58	144	2
NMTAP	58	192	1
NMSI_	58	192	1	96	24	4
NMSTR	58	288	5
NMSTR	58	336	7
NMSTR	59	0	6
NMSTR	59	48	1
NMSTR	59	96	4
NMSTR	59	144	2
NMSTR	59	144	6
NMHLD	59	168	1	120
NMHLD	59	168	5	120
NMSTR	59	336	4
NMTAP	60	0	1
NMSCR	60	0	1	96	24	4
NMSTR	60	96	1
NMSTR	60	144	0
NMTAP	60	192	7
NMSCL	60	192	7	96	24	4
NMSTR	60	288	7
NMSTR	60	336	0
NMTAP	61	0	2
NMSI_	61	0	2	96	24	6
NMTAP	61	48	5
NMSI_	61	48	5	96	24	1
NMTAP	61	192	4
NMSI_	61	192	4	96	24	0
NMTAP	61	240	3
NMSI_	61	240	3	96	24	7
NMSTR	62	0	1
NMSTR	62	0	5
NMSTR	62	48	6
NMSTR	62	96	0
NMSTR	62	96	4
NMSTR	62	144	1
NMTAP	62	168	3
NMSI_	62	168	3	96	24	7
NMTAP	62	168	5
NMSI_	62	168	5	96	24	1
NMSTR	63	0	2
NMSTR	63	0	6
NMSTR	63	48	0
NMSTR	63	96	1
NMSTR	63	96	5
NMSTR	63	144	6
NMTAP	63	168	2
NMSI_	63	168	2	96	24	6
NMTAP	63	168	4
NMSI_	63	168	4	96	24	0
NMSTR	63	336	1
NMHLD	64	0	3	96
NMSTR	64	48	4
NMHLD	64	96	4	96
NMSTR	64	144	6
NMSTR	64	192	6
NMSTR	64	288	5
NMSTR	64	288	6
NMSTR	64	336	2
NMSTR	64	336	3
NMSTR	65	0	5
NMSTR	65	0	6
NMSTR	65	48	2
NMSTR	65	48	3
NMTAP	65	72	2
NMSI_	65	72	2	96	24	5
NMTAP	65	72	3
NMSI_	65	72	3	96	24	6
NMSTR	65	288	6
NMSTR	65	336	7
NMTAP	66	0	1
NMSCL	66	0	1	96	24	6
NMTAP	66	48	5
NMSI_	66	48	5	96	24	1
NMTAP	66	192	6
NMSCR	66	192	6	96	24	1
NMTAP	66	240	2
NMSI_	66	240	2	96	24	6
NMSTR	67	0	0
NMSTR	67	48	7
NMSTR	67	96	3
NMSTR	67	144	1
NMSTR	67	144	5
NMHLD	67	168	0	120
NMHLD	67	168	4	120
NMSTR	67	336	4
NMTAP	68	0	6
NMSCL	68	0	6	96	24	3
NMSTR	68	96	2
NMSTR	68	144	1
NMTAP	68	192	0
NMSCR	68	192	0	96	24	3
NMSTR	68	288	5
NMSTR	68	336	7
NMSTR	69	0	3
BRSTR	69	48	6
BRSTR	69	48	7
NMSTR	69	96	4
BRSTR	69	144	0
BRSTR	69	144	1
NMSTR	69	192	2
NMSTR	69	192	3
BRSTR	69	240	0
BRSTR	69	240	6
NMSTR	69	288	4
NMSTR	69	288	5
BRSTR	69	336	1
BRSTR	69	336	7
NMSTR	70	0	0
NMSTR	70	48	4
NMSTR	70	96	2
NMSTR	70	144	6
NMHLD	70	168	0	120
NMSTR	70	288	2
NMHLD	71	0	7	96
NMSTR	71	96	5
NMHLD	71	192	0	96
NMSTR	71	288	2
NMHLD	72	0	6	96
NMSTR	72	48	5
NMSTR	72	96	3
NMHLD	72	192	1	96
NMSTR	72	240	2
NMSTR	72	288	4
NMTAP	73	0	2
NMSI_	73	0	2	96	24	6
NMTAP	73	48	5
NMSI_	73	48	5	96	24	1
NMTAP	73	192	5
NMSI_	73	192	5	96	24	1
NMTAP	73	240	2
NMSI_	73	240	2	96	24	6
NMSTR	74	0	7
NMSTR	74	48	3
NMSTR	74	96	5
NMSTR	74	144	1
NMHLD	74	168	7	120
NMSTR	74	288	5
NMHLD	75	0	0	96
NMSTR	75	96	2
NMHLD	75	192	7	96
NMSTR	75	288	5
NMHLD	76	0	1	96
NMSTR	76	48	2
NMSTR	76	96	4
NMHLD	76	192	6	96
NMSTR	76	240	5
NMSTR	76	288	3
NMSTR	77	0	3
NMSTR	77	48	2
NMSTR	77	48	5
NMSTR	77	96	4
NMSTR	77	144	3
NMSTR	77	144	7
NMSTR	77	192	1
NMSTR	77	192	4
NMSTR	77	240	0
NMSTR	77	240	5
NMSTR	77	288	4
NMSTR	77	336	3
NMSTR	77	336	7
NMSTR	78	48	4
NMSTR	78	96	1
NMSTR	78	96	5
BRSTR	79	120	0
BRSTR	79	120	1
BRSTR	79	120	2
BRSTR	79	120	3
BRSTR	79	120	4
BRSTR	79	120	5
BRSTR	79	120	6
BRSTR	79	120	7

T_REC_TAP	81
T_REC_BRK	0
T_REC_XTP	0
T_REC_BXX	0
T_REC_HLD	54
T_REC_XHO	0
T_REC_BHO	0
T_REC_BXH	0
T_REC_STR	324
T_REC_BST	34
T_REC_XST	0
T_REC_XBS	0
T_REC_TTP	0
T_REC_THO	0
T_REC_SLD	81
T_REC_BSL	0
T_REC_ALL	574
T_NUM_TAP	405
T_NUM_BRK	34
T_NUM_HLD	54
T_NUM_SLD	81
T_NUM_ALL	574
T_JUDGE_TAP	439
T_JUDGE_HLD	150
T_JUDGE_SLD	81
T_JUDGE_ALL	670
TTM_EACHPAIRS	70
TTM_SCR_TAP	202500
TTM_SCR_BRK	88400
TTM_SCR_HLD	54000
TTM_SCR_SLD	121500
TTM_SCR_ALL	466400
TTM_SCR_S	449150
TTM_SCR_SS	463000
TTM_RAT_ACV	10073

