VERSION	0.00.00	1.04.00
FES_MODE	1
BPM_DEF	175.000	175.000	175.000	175.000
MET_DEF	4	4
RESOLUTION	384
CLK_DEF	384
COMPATIBLE_CODE	MA2

BPM	0	0	175.000
MET	0	0	4	4

NMHLD	3	0	0	96
NMHLD	3	0	7	96
NMHLD	6	96	2	48
NMHLD	6	96	3	48
NMHLD	6	96	4	48
NMHLD	6	96	5	48
NMHLD	9	0	3	576
NMHLD	9	0	5	576
NMHLD	10	0	4	192
NMHLD	11	0	2	576
NMHLD	11	0	4	576
NMHLD	12	0	3	192
NMHLD	13	0	2	576
NMHLD	13	0	5	576
NMHLD	14	0	3	192
NMHLD	14	0	4	192
NMHLD	15	0	1	576
NMHLD	15	192	6	384
NMHLD	16	0	0	192
NMHLD	16	0	7	192
NMHLD	17	0	0	288
NMHLD	17	0	6	288
NMHLD	17	144	7	144
NMHLD	18	0	1	288
NMHLD	18	0	7	288
NMHLD	18	144	0	144
NMHLD	19	0	0	288
NMHLD	19	0	6	288
NMHLD	19	144	7	144
NMHLD	20	0	0	96
NMHLD	20	0	6	96
NMHLD	20	0	7	96
NMHLD	20	144	0	144
NMHLD	20	144	1	144
NMHLD	20	144	7	144
NMHLD	21	0	1	288
NMHLD	21	0	7	288
NMHLD	21	144	0	144
NMHLD	22	0	0	288
NMHLD	22	0	6	288
NMHLD	22	144	7	144
NMHLD	23	0	1	288
NMHLD	23	0	7	288
NMHLD	23	144	0	144
NMHLD	24	0	1	288
NMHLD	24	0	6	288
NMHLD	24	96	7	192
NMHLD	24	192	0	96
NMHLD	25	0	0	288
NMHLD	25	0	5	288
NMHLD	25	144	6	144
NMHLD	25	144	7	144
NMHLD	26	0	2	288
NMHLD	26	0	7	288
NMHLD	26	144	0	144
NMHLD	26	144	1	144
NMHLD	27	0	0	288
NMHLD	27	0	5	288
NMHLD	27	144	6	144
NMHLD	27	144	7	144
NMHLD	28	0	0	96
NMHLD	28	0	1	96
NMHLD	28	0	7	96
NMHLD	28	144	0	144
NMHLD	28	144	6	144
NMHLD	28	144	7	144
NMHLD	29	0	2	288
NMHLD	29	0	7	288
NMHLD	29	144	0	144
NMHLD	29	144	1	144
NMHLD	30	0	0	288
NMHLD	30	0	5	288
NMHLD	30	144	6	144
NMHLD	30	144	7	144
NMHLD	31	0	1	576
NMHLD	31	144	6	432
NMHLD	31	288	0	384
NMHLD	32	0	7	288
BRTAP	32	288	1
BRTAP	32	288	6
NMHLD	33	0	5	384
NMHLD	33	192	2	192
NMSTR	34	0	3
NMSI_	34	0	3	96	192	0
NMSI_	34	0	3	96	192	1
NMSI_	34	0	3	96	192	7
NMSTR	34	0	4
NMSI_	34	0	4	96	192	0
NMSI_	34	0	4	96	192	6
NMSI_	34	0	4	96	192	7
NMHLD	35	0	5	576
NMHLD	35	192	2	384
NMHLD	36	0	4	192
NMHLD	37	0	6	384
NMHLD	37	192	1	192
NMSTR	38	0	7
NMSUR	38	0	7	96	192	2
NMHLD	39	0	1	576
NMHLD	39	0	6	576
NMTAP	39	192	0
NMTAP	40	0	7
NMTAP	40	192	0
NMTAP	40	192	7
NMHLD	41	0	2	384
NMHLD	41	192	5	192
NMSTR	42	0	3
NMSF_	42	0	3	96	192	7
NMSTR	42	0	4
NMSF_	42	0	4	96	192	0
NMHLD	43	0	3	384
NMHLD	43	192	7	192
NMSTR	44	0	0
NMSXR	44	0	0	96	192	5
NMSTR	44	0	4
NMSXR	44	0	4	96	192	1
NMSTR	45	0	0
NMSI_	45	0	0	96	192	4
NMSV_	45	0	0	96	192	2
NMSTR	45	0	7
NMSXR	45	0	7	96	192	4
NMHLD	46	0	6	288
NMHLD	46	96	1	192
NMHLD	46	192	0	96
NMHLD	46	192	7	96
NMHLD	47	0	2	96
NMHLD	47	0	3	96
NMHLD	47	0	4	96
NMHLD	47	192	3	96
NMHLD	47	192	4	96
NMHLD	47	192	5	96
NMSTR	48	0	5
NMSF_	48	0	5	96	192	1
NMSTR	48	0	6
NMSF_	48	0	6	96	192	2
NMHLD	49	0	5	384
NMTAP	49	192	5
NMHLD	50	0	4	384
NMTAP	50	192	4
NMHLD	51	0	3	384
NMTAP	51	192	3
NMHLD	52	0	2	384
NMTAP	52	192	2
NMTAP	53	0	3
NMTAP	53	0	4
NMTAP	53	96	3
NMTAP	53	96	4
NMTAP	53	192	2
NMTAP	53	192	3
NMTAP	53	192	4
NMTAP	53	192	5
NMTAP	53	288	2
NMTAP	53	288	3
NMTAP	53	288	4
NMTAP	53	288	5
NMTAP	54	0	1
NMTAP	54	0	2
NMTAP	54	0	5
NMTAP	54	0	6
NMTAP	54	96	1
NMTAP	54	96	2
NMTAP	54	96	5
NMTAP	54	96	6
NMTAP	54	192	0
NMTAP	54	192	1
NMTAP	54	192	6
NMTAP	54	192	7
NMTAP	54	288	0
NMTAP	54	288	1
NMTAP	54	288	6
NMTAP	54	288	7
NMHLD	55	0	0	576
NMHLD	55	0	7	576
NMHLD	55	192	1	384
NMHLD	55	192	6	384
NMHLD	56	0	2	192
NMHLD	56	0	5	192
NMHLD	57	0	0	576
NMHLD	57	96	1	480
NMHLD	57	192	2	384
NMHLD	57	288	3	288
NMHLD	58	0	4	192
NMHLD	59	0	7	576
NMHLD	59	96	6	480
NMHLD	59	192	5	384
NMHLD	59	288	4	288
NMHLD	60	0	3	192
NMSTR	61	0	1
NMSCL	61	0	1	96	192	6
NMSXR	61	0	1	96	192	6
NMSTR	62	0	5
NMSCL	62	0	5	96	192	2
NMSXR	62	0	5	96	192	2
NMSTR	63	0	4
NMSI_	63	0	4	96	192	0
NMSI_	63	0	4	96	192	1
NMSI_	63	0	4	96	192	7
NMHLD	64	0	2	192
NMHLD	64	0	5	192
NMTAP	64	96	3
NMTAP	64	96	4
BRTAP	64	192	3
BRTAP	64	192	4
NMHLD	65	0	0	384
NMHLD	65	0	7	384
NMHLD	65	192	1	192
NMHLD	65	192	6	192
NMSTR	66	0	2
NMSUR	66	0	2	96	192	3
NMSTR	66	0	5
NMSUL	66	0	5	96	192	4
NMHLD	67	0	0	384
NMHLD	67	0	7	384
NMHLD	67	192	1	192
NMHLD	67	192	6	192
NMSTR	68	0	2
NMSXL	68	0	2	96	192	0
NMSTR	68	0	5
NMSXR	68	0	5	96	192	7
NMHLD	69	0	2	1344
NMTAP	69	192	6
NMHLD	70	0	6	960
NMTAP	70	192	1
NMHLD	71	0	1	576
NMHLD	71	192	7	384
BRTAP	72	192	0
NMHLD	73	0	0	288
NMHLD	73	0	6	288
NMHLD	73	144	1	144
NMHLD	73	144	5	144
NMHLD	74	0	1	288
NMHLD	74	0	7	288
NMHLD	74	144	2	144
NMHLD	74	144	6	144
NMHLD	75	0	0	288
NMHLD	75	0	6	288
NMHLD	75	144	1	144
NMHLD	75	144	5	144
NMHLD	76	0	1	96
NMHLD	76	0	2	96
NMHLD	76	0	6	96
NMHLD	76	0	7	96
NMHLD	76	144	0	96
NMHLD	76	144	1	96
NMHLD	76	144	5	96
NMHLD	76	144	6	96
NMHLD	77	0	1	288
NMHLD	77	0	7	288
NMHLD	77	144	2	144
NMHLD	77	144	6	144
NMHLD	78	0	0	288
NMHLD	78	0	6	288
NMHLD	78	144	1	144
NMHLD	78	144	5	144
NMHLD	79	0	1	288
NMHLD	79	0	7	288
NMHLD	79	144	2	144
NMHLD	79	144	6	144
NMHLD	80	0	0	96
NMHLD	80	0	1	96
NMHLD	80	0	5	96
NMHLD	80	0	6	96
NMHLD	80	144	1	96
NMHLD	80	144	2	96
NMHLD	80	144	6	96
NMHLD	80	144	7	96
NMHLD	81	0	0	288
NMHLD	81	0	1	288
NMHLD	81	0	5	288
NMHLD	81	0	6	288
NMHLD	81	144	2	144
NMHLD	81	144	4	144
NMHLD	82	0	1	288
NMHLD	82	0	2	288
NMHLD	82	0	6	288
NMHLD	82	0	7	288
NMHLD	82	144	3	144
NMHLD	82	144	5	144
NMHLD	83	0	0	288
NMHLD	83	0	1	288
NMHLD	83	0	5	288
NMHLD	83	0	6	288
NMHLD	83	144	2	144
NMHLD	83	144	4	144
NMHLD	84	0	1	96
NMHLD	84	0	2	96
NMHLD	84	0	6	96
NMHLD	84	0	7	96
NMHLD	84	144	0	96
NMHLD	84	144	1	96
NMHLD	84	144	5	96
NMHLD	84	144	6	96
NMHLD	85	0	1	288
NMHLD	85	0	2	288
NMHLD	85	0	6	288
NMHLD	85	0	7	288
NMHLD	85	144	3	144
NMHLD	85	144	5	144
NMHLD	86	0	0	288
NMHLD	86	0	1	288
NMHLD	86	0	5	288
NMHLD	86	0	6	288
NMHLD	86	144	2	144
NMHLD	86	144	4	144
NMHLD	87	0	6	672
NMHLD	87	144	1	528
NMHLD	87	288	7	384
NMHLD	88	0	0	288
BRTAP	88	288	2
BRTAP	88	288	5

T_REC_TAP	40
T_REC_BRK	7
T_REC_XTP	0
T_REC_BXX	0
T_REC_HLD	217
T_REC_XHO	0
T_REC_BHO	0
T_REC_BXH	0
T_REC_STR	18
T_REC_BST	0
T_REC_XST	0
T_REC_XBS	0
T_REC_TTP	0
T_REC_THO	0
T_REC_SLD	27
T_REC_BSL	0
T_REC_ALL	309
T_NUM_TAP	58
T_NUM_BRK	7
T_NUM_HLD	217
T_NUM_SLD	27
T_NUM_ALL	309
T_JUDGE_TAP	65
T_JUDGE_HLD	1138
T_JUDGE_SLD	27
T_JUDGE_ALL	1230
TTM_EACHPAIRS	88
TTM_SCR_TAP	29000
TTM_SCR_BRK	18200
TTM_SCR_HLD	217000
TTM_SCR_SLD	40500
TTM_SCR_ALL	304700
TTM_SCR_S	294900
TTM_SCR_SS	304000
TTM_RAT_ACV	10023

