VERSION	0.00.00	1.04.00
FES_MODE	1
BPM_DEF	135.000	135.000	135.000	135.000
MET_DEF	4	4
RESOLUTION	384
CLK_DEF	384
COMPATIBLE_CODE	MA2

BPM	0	0	135.000
MET	0	0	4	4

NMTAP	2	0	7
NMTAP	2	192	6
NMTAP	3	0	5
NMTAP	3	192	4
NMTAP	3	192	5
NMSTR	4	0	0
NMSTR	4	192	1
NMSTR	5	0	2
NMSTR	5	192	2
NMSTR	5	192	3
NMSTR	6	0	0
NMTAP	6	0	7
NMSTR	6	192	1
NMTAP	6	192	6
NMSTR	7	0	2
NMTAP	7	0	5
NMSTR	7	192	3
NMTAP	7	192	4
NMSTR	8	0	2
NMTAP	8	0	5
NMSTR	8	192	1
NMTAP	8	192	6
NMSTR	9	0	0
NMTAP	9	0	7
NMSTR	10	0	0
NMSCR	10	0	0	96	192	3
NMTAP	10	0	7
NMSCL	10	0	7	96	192	4
NMSTR	11	0	3
NMSCL	11	0	3	96	192	0
NMTAP	11	0	4
NMSCR	11	0	4	96	192	7
NMSTR	12	0	0
NMSI_	12	0	0	96	192	3
NMTAP	12	0	7
NMSI_	12	0	7	96	192	4
NMSTR	13	0	3
NMSI_	13	0	3	96	192	0
NMTAP	13	0	4
NMSI_	13	0	4	96	192	7
NMSTR	14	0	0
NMTAP	14	0	7
NMSTR	14	192	2
NMTAP	14	192	5
NMSTR	15	0	3
NMTAP	15	0	4
NMSTR	15	96	2
NMTAP	15	96	5
NMSTR	15	192	1
NMSTR	15	192	3
NMTAP	15	192	4
NMTAP	15	192	6
NMHLD	16	0	7	768
NMHLD	16	192	0	576
NMSTR	17	0	1
NMSI_	17	0	1	96	96	3
NMTAP	17	0	6
NMSI_	17	0	6	96	96	4
BRSTR	18	0	1
BRTAP	18	0	6
NMHLD	19	0	1	1440
NMTAP	19	0	5
NMSTR	19	96	2
NMTAP	19	96	4
NMTAP	19	96	6
NMTAP	19	192	6
NMSTR	19	288	2
NMTAP	19	288	5
NMTAP	19	288	7
NMTAP	20	0	5
NMSTR	20	96	2
NMTAP	20	96	4
NMTAP	20	96	6
NMTAP	20	192	6
NMSTR	20	288	2
NMTAP	20	288	5
NMTAP	20	288	7
NMTAP	21	0	6
NMTAP	21	0	7
NMSTR	21	96	3
NMTAP	21	96	6
NMTAP	21	96	7
NMTAP	21	192	4
NMTAP	21	192	5
NMSTR	21	288	3
NMTAP	21	288	4
NMTAP	21	288	5
NMTAP	22	0	6
NMTAP	22	0	7
NMSTR	22	96	2
NMTAP	22	96	5
NMTAP	22	96	7
NMTAP	22	192	4
NMTAP	22	192	6
NMSTR	22	288	0
NMTAP	22	288	4
NMTAP	22	288	5
NMSTR	23	0	2
NMHLD	23	0	6	1440
NMSTR	23	96	1
NMSTR	23	96	3
NMTAP	23	96	5
NMSTR	23	192	1
NMSTR	23	288	0
NMSTR	23	288	2
NMTAP	23	288	5
NMSTR	24	0	2
NMSTR	24	96	1
NMSTR	24	96	3
NMTAP	24	96	5
NMSTR	24	192	1
NMSTR	24	288	0
NMSTR	24	288	2
NMTAP	24	288	5
NMSTR	25	0	0
NMSTR	25	0	1
NMSTR	25	96	0
NMSTR	25	96	1
NMTAP	25	96	4
NMSTR	25	192	2
NMSTR	25	192	3
NMSTR	25	288	2
NMSTR	25	288	3
NMTAP	25	288	4
NMSTR	26	0	0
NMSTR	26	0	1
NMSTR	26	96	0
NMSTR	26	96	2
NMTAP	26	96	5
NMSTR	26	192	1
NMSTR	26	192	3
NMSTR	26	288	2
NMSTR	26	288	3
NMTAP	26	288	7
NMSTR	27	0	0
NMHLD	27	0	3	192
NMHLD	27	0	4	192
NMTAP	27	0	7
NMSTR	27	96	1
NMTAP	27	96	6
NMHLD	27	192	0	192
NMHLD	27	192	7	192
NMSTR	27	288	2
NMTAP	27	288	5
NMHLD	28	0	3	192
NMHLD	28	0	4	192
NMSTR	28	96	1
NMTAP	28	96	6
NMSTR	28	192	0
NMTAP	28	192	7
NMSTR	28	288	1
NMSTR	28	288	2
NMTAP	28	288	5
NMTAP	28	288	6
NMHLD	29	0	3	192
NMHLD	29	0	4	192
NMSTR	29	96	2
NMTAP	29	96	5
NMHLD	29	192	0	192
NMHLD	29	192	7	192
NMSTR	29	288	1
NMTAP	29	288	6
NMHLD	30	0	3	192
NMHLD	30	0	4	192
NMSTR	30	96	2
NMTAP	30	96	5
NMSTR	30	192	0
NMTAP	30	192	7
NMSTR	30	288	1
NMSTR	30	288	2
NMTAP	30	288	5
NMTAP	30	288	6
NMHLD	31	0	1	192
NMSTR	31	0	2
NMTAP	31	0	5
NMHLD	31	0	6	192
NMSTR	31	96	0
NMTAP	31	96	7
NMHLD	31	192	2	192
NMHLD	31	192	5	192
NMSTR	31	288	3
NMTAP	31	288	4
NMHLD	32	0	1	192
NMHLD	32	0	6	192
NMSTR	32	96	0
NMTAP	32	96	7
NMHLD	32	192	2	192
NMHLD	32	192	5	192
NMSTR	32	288	3
NMTAP	32	288	4
NMSTR	33	0	1
NMTAP	33	0	6
NMSTR	33	192	0
NMSTR	33	192	3
NMTAP	33	192	4
NMTAP	33	192	7
NMSTR	34	0	2
NMSCR	34	0	2	96	192	5
NMTAP	34	0	6
NMSCR	34	0	6	96	192	1
NMSTR	35	0	1
NMHLD	35	0	2	192
NMHLD	35	0	5	192
NMTAP	35	0	6
NMSTR	35	96	3
NMTAP	35	96	4
NMHLD	35	192	1	192
NMHLD	35	192	6	192
NMSTR	35	288	0
NMTAP	35	288	7
NMHLD	36	0	2	192
NMHLD	36	0	5	192
NMSTR	36	96	3
NMTAP	36	96	4
NMHLD	36	192	1	192
NMHLD	36	192	6	192
NMSTR	36	288	0
NMTAP	36	288	7
NMSTR	37	0	2
NMTAP	37	0	5
NMSTR	37	192	0
NMSTR	37	192	3
NMTAP	37	192	4
NMTAP	37	192	7
NMSTR	38	0	1
NMSCL	38	0	1	96	192	6
NMTAP	38	0	5
NMSCL	38	0	5	96	192	2
NMSTR	39	0	0
NMTAP	39	0	7
NMSTR	39	96	0
NMTAP	39	96	7
NMSTR	39	192	1
NMTAP	39	192	6
NMSTR	39	288	1
NMTAP	39	288	6
NMSTR	40	0	2
NMTAP	40	0	5
NMSTR	40	96	2
NMTAP	40	96	5
NMSTR	40	192	3
NMTAP	40	192	4
NMSTR	40	288	3
NMTAP	40	288	4
NMHLD	41	0	4	768
NMHLD	41	192	3	576
NMHLD	42	0	6	384
NMHLD	42	192	1	192
BRSTR	43	192	0
BRTAP	43	192	7
NMHLD	44	0	2	1440
NMSTR	44	0	3
NMTAP	44	0	4
NMTAP	44	0	5
NMSCR	44	0	5	96	144	0
NMSTR	44	96	3
NMSTR	44	192	3
NMSTR	44	288	3
NMSTR	45	0	1
NMTAP	45	0	6
NMSCL	45	0	6	96	144	3
NMTAP	45	0	7
NMSTR	45	96	1
NMSTR	45	192	1
NMSTR	45	288	1
NMSTR	46	0	3
NMTAP	46	0	4
NMTAP	46	0	5
NMSCR	46	0	5	96	144	0
NMSTR	46	96	3
NMSTR	46	192	3
NMSTR	46	288	3
NMSTR	47	0	1
NMTAP	47	0	6
NMSCL	47	0	6	96	144	3
NMTAP	47	0	7
NMSTR	47	96	1
NMSTR	47	192	1
NMSTR	47	288	1
NMSTR	48	0	2
NMSCL	48	0	2	96	144	7
NMSTR	48	0	3
NMTAP	48	0	4
NMHLD	48	0	5	1440
NMTAP	48	96	4
NMTAP	48	192	4
NMTAP	48	288	4
NMSTR	49	0	0
NMSTR	49	0	1
NMSCR	49	0	1	96	144	4
NMTAP	49	0	6
NMTAP	49	96	6
NMTAP	49	192	6
NMTAP	49	288	6
NMSTR	50	0	2
NMSCL	50	0	2	96	144	7
NMSTR	50	0	3
NMTAP	50	0	4
NMTAP	50	96	4
NMTAP	50	192	4
NMTAP	50	288	4
NMSTR	51	0	0
NMSTR	51	0	1
NMSCR	51	0	1	96	144	4
NMTAP	51	0	6
NMTAP	51	96	6
NMTAP	51	192	6
NMTAP	51	288	6
NMHLD	52	0	0	672
NMHLD	52	0	3	672
NMTAP	52	192	4
NMSV_	52	192	4	96	192	1
NMTAP	52	192	7
NMSV_	52	192	7	96	192	2
NMTAP	53	288	5
NMTAP	53	288	6
NMHLD	54	0	4	672
NMHLD	54	0	7	672
NMSTR	54	192	0
NMSV_	54	192	0	96	192	5
NMSTR	54	192	3
NMSV_	54	192	3	96	192	6
NMSTR	55	288	1
NMSTR	55	288	2
NMHLD	56	0	1	576
NMHLD	56	0	6	576
NMSTR	56	192	0
NMTAP	56	192	7
NMSTR	57	0	3
NMTAP	57	0	4
NMSTR	57	96	2
NMTAP	57	96	5
NMSTR	57	192	0
NMTAP	57	192	7
NMSTR	58	0	0
NMSCR	58	0	0	96	192	3
NMTAP	58	0	6
NMSCL	58	0	6	96	192	3
NMSTR	59	0	1
NMSCR	59	0	1	96	192	4
NMTAP	59	0	7
NMSCL	59	0	7	96	192	4
NMSTR	60	0	1
NMSTR	60	0	3
NMTAP	60	0	4
NMTAP	60	0	6
BRSTR	60	192	0
BRTAP	60	192	7

T_REC_TAP	134
T_REC_BRK	3
T_REC_XTP	0
T_REC_BXX	0
T_REC_HLD	44
T_REC_XHO	0
T_REC_BHO	0
T_REC_BXH	0
T_REC_STR	134
T_REC_BST	3
T_REC_XST	0
T_REC_XBS	0
T_REC_TTP	0
T_REC_THO	0
T_REC_SLD	30
T_REC_BSL	0
T_REC_ALL	348
T_NUM_TAP	268
T_NUM_BRK	6
T_NUM_HLD	44
T_NUM_SLD	30
T_NUM_ALL	348
T_JUDGE_TAP	274
T_JUDGE_HLD	380
T_JUDGE_SLD	30
T_JUDGE_ALL	684
TTM_EACHPAIRS	116
TTM_SCR_TAP	134000
TTM_SCR_BRK	15600
TTM_SCR_HLD	44000
TTM_SCR_SLD	45000
TTM_SCR_ALL	238600
TTM_SCR_S	230900
TTM_SCR_SS	238000
TTM_RAT_ACV	10025

