VERSION	0.00.00	1.05.00
FES_MODE	0
BPM_DEF	170.000	170.000	170.000	170.000
MET_DEF	4	4
RESOLUTION	384
CLK_DEF	384
COMPATIBLE_CODE	MA2

BPM	0	0	170.000
MET	0	0	4	4

NMTAP	1	240	5
NMTAP	1	288	4
NMTAP	1	336	3
NMTAP	2	0	2
NMSTR	2	96	1
NMSXL	2	96	1	96	192	4
NMTAP	2	96	3
NMTAP	2	192	4
NMTAP	2	288	5
NMTAP	2	336	5
NMTAP	3	48	6
NMTAP	3	96	6
NMTAP	3	144	4
NMTAP	3	240	3
NMTAP	3	240	5
NMTAP	3	288	3
NMTAP	3	288	5
NMTAP	4	0	4
NMTAP	4	48	5
NMTAP	4	96	3
NMTAP	4	144	2
NMTAP	4	192	2
NMTAP	4	240	3
NMTAP	4	288	4
NMSTR	4	336	5
NMSXL	4	336	5	96	192	0
NMTAP	5	48	4
NMTAP	5	144	2
NMTAP	5	240	3
NMTAP	5	288	3
NMTAP	6	0	2
NMTAP	6	96	4
NMTAP	6	192	5
NMTAP	6	240	4
NMTAP	6	288	3
NMHLD	6	336	2	96
NMTAP	7	48	3
NMTAP	7	96	4
NMTAP	7	144	5
NMTAP	7	240	2
NMTAP	7	240	4
NMSTR	7	288	2
NMSCR	7	288	2	96	48	3
NMSTR	7	288	4
NMSUR	7	288	4	96	96	3
CNSUL	8	48	3	0	144	4
CNSI_	8	96	3	0	336	0
CNSI_	8	192	4	0	240	7
EXTAP	9	240	0
EXTAP	9	240	7
NMTAP	9	336	0
NMTAP	9	336	7
NMSTR	10	0	1
NMSI_	10	0	1	96	48	4
NMTAP	10	48	1
NMTAP	10	96	5
NMTAP	10	144	6
NMSTR	10	192	7
NMSI_	10	192	7	96	48	3
NMTAP	10	240	7
NMHLD	10	288	4	96
NMTAP	11	0	2
NMTAP	11	48	1
NMTAP	11	96	0
NMTAP	11	144	7
NMHLD	11	192	2	48
NMHLD	11	192	6	48
NMHLD	11	288	1	48
NMHLD	11	288	5	48
NMSTR	12	0	6
NMSI_	12	0	6	96	48	3
NMTAP	12	48	6
NMTAP	12	96	2
NMTAP	12	144	1
NMSTR	12	192	0
NMSI_	12	192	0	96	48	4
NMTAP	12	240	0
NMHLD	12	288	3	96
NMTAP	13	0	5
NMTAP	13	48	4
NMTAP	13	96	3
NMTAP	13	144	2
NMHLD	13	192	1	48
NMHLD	13	192	5	48
NMHLD	13	288	2	48
NMHLD	13	288	6	48
NMTAP	14	0	3
NMTAP	14	0	5
NMTAP	14	48	5
NMTAP	14	96	4
NMSTR	14	96	5
NMSI_	14	96	5	96	96	0
NMTAP	14	144	5
NMHLD	14	192	5	96
CNSUL	14	288	0	0	48	3
NMTAP	15	0	2
NMTAP	15	48	2
NMSTR	15	96	2
NMSI_	15	96	2	96	96	7
NMTAP	15	96	3
NMTAP	15	144	2
NMHLD	15	192	2	96
CNSUR	15	288	7	0	48	4
NMTAP	16	0	5
NMTAP	16	48	5
NMTAP	16	96	4
NMSTR	16	96	5
NMSI_	16	96	5	96	48	0
NMTAP	16	144	5
NMHLD	16	192	5	96
CNSV_	16	240	0	0	96	1
CNSI_	16	336	1	0	96	4
NMTAP	17	96	6
NMSTR	17	192	7
NMSI_	17	192	7	96	48	3
NMTAP	17	240	2
NMHLD	17	288	1	96
BRTAP	17	288	7
NMSTR	18	0	5
NMSI_	18	0	5	96	48	0
NMTAP	18	48	5
NMTAP	18	96	1
NMTAP	18	144	2
NMSTR	18	192	3
NMSI_	18	192	3	96	48	7
NMTAP	18	240	3
NMHLD	18	288	0	96
NMTAP	19	0	6
NMTAP	19	48	5
NMTAP	19	96	4
NMTAP	19	144	3
NMHLD	19	192	2	48
NMHLD	19	192	6	48
NMHLD	19	288	1	48
NMHLD	19	288	5	48
NMSTR	20	0	2
NMSI_	20	0	2	96	48	7
NMTAP	20	48	2
NMTAP	20	96	6
NMTAP	20	144	5
NMSTR	20	192	4
NMSI_	20	192	4	96	48	0
NMTAP	20	240	4
NMHLD	20	288	7	96
NMTAP	21	0	1
NMTAP	21	48	0
NMTAP	21	96	7
NMTAP	21	144	6
NMHLD	21	192	1	48
NMHLD	21	192	5	48
NMHLD	21	288	2	48
NMHLD	21	288	6	48
NMTAP	22	0	1
NMTAP	22	0	7
NMTAP	22	48	1
NMTAP	22	96	0
NMSTR	22	96	1
NMSI_	22	96	1	96	96	4
NMTAP	22	144	1
NMHLD	22	192	1	96
CNSUL	22	288	4	0	48	7
NMTAP	23	0	6
NMTAP	23	48	6
NMSTR	23	96	6
NMSI_	23	96	6	96	96	3
NMTAP	23	96	7
NMTAP	23	144	6
NMHLD	23	192	6	96
CNSUR	23	288	3	0	48	0
NMTAP	24	0	1
NMTAP	24	48	1
NMTAP	24	96	0
NMSTR	24	96	1
NMSI_	24	96	1	96	48	4
NMTAP	24	144	1
NMHLD	24	192	1	96
CNSV_	24	240	4	0	48	5
CNSI_	24	288	5	0	144	0
NMTAP	25	96	2
NMTAP	25	192	0
NMTAP	25	240	1
NMTAP	25	240	7
NMSTR	25	288	1
NMSI_	25	288	1	96	96	5
NMTAP	25	288	7
NMSTR	26	0	5
NMSI_	26	0	5	96	96	0
NMSTR	26	96	0
NMSI_	26	96	0	96	96	4
NMSTR	26	192	4
NMSCL	26	192	4	96	96	1
NMTAP	26	288	6
NMHLD	26	336	6	96
NMTAP	27	48	7
NMTAP	27	96	7
NMTAP	27	192	5
NMTAP	27	216	4
NMTAP	27	240	5
NMTAP	27	264	4
NMSTR	27	288	6
NMSI_	27	288	6	96	96	2
NMSTR	28	0	2
NMSI_	28	0	2	96	96	7
NMSTR	28	96	7
NMSI_	28	96	7	96	96	3
NMSTR	28	192	3
NMSCR	28	192	3	96	96	6
NMTAP	28	288	1
NMHLD	28	336	1	96
NMTAP	29	48	0
NMTAP	29	96	0
NMTAP	29	144	2
NMTAP	29	144	7
NMTAP	29	240	4
NMTAP	29	240	5
NMTAP	29	288	4
NMSTR	29	288	5
NMSI_	29	288	5	96	96	0
NMSTR	30	0	0
NMSI_	30	0	0	96	96	3
NMSTR	30	96	3
NMSI_	30	96	3	96	96	7
NMSTR	30	192	7
NMSCL	30	192	7	96	96	4
NMTAP	30	288	1
NMHLD	30	336	1	96
NMTAP	31	48	2
NMTAP	31	96	2
NMTAP	31	192	1
NMTAP	31	216	3
NMTAP	31	240	1
NMTAP	31	264	3
NMSTR	31	288	2
NMSI_	31	288	2	96	96	7
NMSTR	32	0	7
NMSI_	32	0	7	96	96	4
NMSTR	32	96	4
NMSI_	32	96	4	96	96	0
NMSTR	32	192	0
NMSCR	32	192	0	96	96	3
NMTAP	32	288	6
NMTAP	32	336	6
NMSTR	33	0	7
NMSI_	33	0	7	96	48	4
NMSTR	33	96	3
NMSCR	33	96	3	96	48	6
NMTTP	33	192	2	A	0	M1
NMTTP	33	204	2	D	0	M1
NMTTP	33	216	1	A	0	M1
NMTTP	33	228	1	D	0	M1
NMTTP	33	240	0	A	0	M1
BXTAP	33	288	1
BXTAP	33	288	5
NMHLD	34	0	2	96
NMHLD	34	0	4	96
NMHLD	34	192	4	96
NMHLD	34	192	6	96
NMTTP	34	336	5	B	0	M1
NMTAP	35	48	7
NMTAP	35	96	0
NMTAP	35	144	1
NMTTP	35	144	4	E	0	M1
NMTAP	35	192	1
NMTAP	35	240	0
NMTAP	35	288	7
NMTAP	35	336	6
NMHLD	36	0	3	96
NMHLD	36	0	5	96
NMHLD	36	192	1	96
NMHLD	36	192	3	96
NMSTR	36	336	2
NMSXR	36	336	2	96	192	4
NMTTP	37	144	5	E	0	M1
NMTAP	37	240	6
NMTAP	37	288	6
NMTAP	37	336	4
NMTAP	38	0	5
NMTAP	38	96	6
NMTAP	38	96	7
NMTAP	38	192	0
NMTAP	38	192	1
NMTAP	38	288	2
NMTAP	38	288	3
NMSTR	38	336	2
NMSCL	38	336	2	96	48	0
NMTAP	38	336	3
NMSTR	39	48	5
NMSCL	39	48	5	96	48	3
NMTAP	39	240	1
NMTAP	39	288	1
NMTAP	39	336	3
NMTAP	40	0	2
NMTAP	40	48	3
NMTAP	40	96	4
NMSTR	40	144	5
NMSXL	40	144	5	96	240	3
NMTAP	40	240	3
NMTAP	40	336	2
NMHLD	41	192	3	48
NMHLD	41	288	2	48
NMHLD	41	288	4	48
NMHLD	42	0	1	288
NMTTP	42	0	5	E	0	M1
NMTTP	42	96	4	B	0	M1
NMTTP	42	192	3	B	0	M1
NMTTP	42	288	3	E	0	M1
NMHLD	43	0	0	288
NMTTP	43	0	5	E	0	M1
NMTTP	43	96	4	B	0	M1
NMTTP	43	192	3	B	0	M1
NMTTP	43	288	3	E	0	M1
NMTTP	44	0	5	E	0	M1
NMHLD	44	0	7	288
NMTTP	44	96	4	B	0	M1
NMTTP	44	192	3	B	0	M1
NMTTP	44	288	3	E	0	M1
NMTTP	45	0	5	E	0	M1
NMHLD	45	0	6	288
NMTTP	45	96	4	B	0	M1
NMTTP	45	192	3	B	0	M1
NMTTP	45	288	3	E	0	M1
NMTTP	46	0	5	E	0	M1
NMTAP	46	0	7
NMTTP	46	96	4	B	0	M1
NMTAP	46	96	7
NMTTP	46	192	3	B	0	M1
NMTAP	46	192	7
NMTTP	46	288	3	E	0	M1
NMTAP	46	288	7
NMTAP	47	0	0
NMTTP	47	0	5	E	0	M1
NMTAP	47	96	0
NMTTP	47	96	4	B	0	M1
NMTAP	47	192	0
NMTTP	47	192	3	B	0	M1
NMSTR	47	288	0
NMSXR	47	288	0	96	288	2
NMTTP	47	288	3	E	0	M1
NMTHO	48	0	5	192	E	0	M1
NMTAP	49	0	1
NMTAP	49	24	3
NMTAP	49	48	1
NMTAP	49	72	3
NMTAP	49	96	2
NMTAP	49	120	4
NMTAP	49	144	2
NMTAP	49	168	4
NMTAP	49	192	3
NMTAP	49	216	5
NMTAP	49	240	3
NMTAP	49	264	5
BRTAP	49	288	4
NMHLD	50	0	5	48
NMHLD	50	0	6	48
NMHLD	50	96	5	48
NMHLD	50	96	6	48
NMTAP	50	192	4
NMTAP	50	192	7
NMTAP	50	264	0
NMTAP	50	264	3
NMTAP	50	336	1
NMTAP	50	336	2
NMHLD	51	0	1	48
NMHLD	51	0	2	48
NMHLD	51	96	1	48
NMHLD	51	96	2	48
NMTAP	51	192	0
NMTAP	51	192	3
NMTAP	51	264	4
NMTAP	51	264	7
NMTAP	51	336	5
NMTAP	51	336	6
NMHLD	52	0	5	48
NMHLD	52	0	6	48
NMHLD	52	96	0	48
NMHLD	52	96	7	48
NMTAP	52	192	1
NMTAP	52	192	2
NMTAP	52	288	0
NMTAP	52	288	3
NMSTR	52	336	0
NMSXR	52	336	0	96	144	1
NMSTR	52	336	3
NMSXL	52	336	3	96	144	2
NMTAP	53	288	1
NMTAP	53	288	2
NMSTR	54	0	0
NMSI_	54	0	0	96	48	4
NMTAP	54	48	0
NMSTR	54	96	6
NMSI_	54	96	6	96	48	1
NMTAP	54	144	6
NMSTR	54	192	3
NMSI_	54	192	3	96	48	0
NMTAP	54	288	6
NMSTR	55	0	7
NMSI_	55	0	7	96	48	3
NMTAP	55	48	7
NMSTR	55	96	1
NMSI_	55	96	1	96	48	6
NMTAP	55	144	1
NMSTR	55	192	4
NMSI_	55	192	4	96	48	7
NMTAP	55	288	1
NMTAP	56	0	0
NMTAP	56	48	0
NMTAP	56	96	6
NMTAP	56	144	6
NMTAP	56	192	4
NMTAP	56	240	4
NMTAP	56	288	2
NMTAP	56	336	2
EXTAP	57	0	4
NMTAP	57	24	5
NMTAP	57	48	6
NMTAP	57	72	7
NMTAP	57	96	0
NMTAP	57	120	1
NMTAP	57	144	2
NMTAP	57	168	3
EXTAP	57	192	4
BRSTR	57	288	7
NMSI_	57	288	7	96	48	1
NMSI_	57	288	7	96	48	5
NMSTR	58	0	7
NMSI_	58	0	7	96	48	3
NMSTR	58	96	7
NMSF_	58	96	7	96	48	3
NMTAP	58	192	7
EXTAP	58	288	1
EXTAP	58	288	5
EXTAP	58	336	1
EXTAP	58	336	5
NMSTR	59	0	0
NMSI_	59	0	0	96	48	2
NMSTR	59	48	0
NMSI_	59	48	0	96	48	6
NMSTR	59	96	0
NMSI_	59	96	0	96	48	4
NMTAP	59	288	3
NMSTR	59	288	5
NMSI_	59	288	5	96	48	2
NMSTR	60	0	1
NMSI_	60	0	1	96	48	6
CNSI_	60	48	2	0	48	4
CNSI_	60	144	6	0	48	0
NMTAP	60	192	4
NMTAP	60	240	4
NMTAP	60	288	0
NMTAP	60	336	0
NMSTR	61	0	5
NMSCR	61	0	5	96	72	0
NMSTR	61	48	7
NMSCR	61	48	7	96	72	2
NMSTR	61	96	1
NMSCR	61	96	1	96	72	4
NMTAP	61	144	3
NMTAP	61	192	5
EXTAP	61	288	0
NMTAP	62	0	2
NMTAP	62	0	4
NMTAP	62	48	2
NMSTR	62	96	2
NMSCL	62	96	2	96	96	7
NMTAP	62	96	3
NMTAP	62	144	2
NMHLD	62	192	2	96
CNSUR	62	288	7	0	48	4
NMTAP	63	0	6
NMTAP	63	48	6
NMSTR	63	96	6
NMSCL	63	96	6	96	96	3
NMTAP	63	96	7
NMTAP	63	144	6
NMHLD	63	192	6	96
CNSUR	63	288	3	0	48	0
NMTAP	64	0	2
NMTAP	64	48	2
NMSTR	64	96	2
NMSI_	64	96	2	96	48	7
NMTAP	64	96	3
NMTAP	64	144	2
NMHLD	64	192	2	96
NMTAP	64	288	0
NMTAP	64	336	0
NMTAP	65	48	4
NMTAP	65	48	6
NMTAP	65	96	4
NMTAP	65	96	6
NMTAP	65	144	3
NMTAP	65	192	2
NMTAP	65	216	4
NMTAP	65	240	2
NMTAP	65	264	4
BRSTR	65	288	3
NMSI_	65	288	3	96	48	1
NMSI_	65	288	3	96	48	5
NMSTR	66	0	3
NMSI_	66	0	3	96	48	7
NMSTR	66	96	3
NMSF_	66	96	3	96	48	7
NMTAP	66	192	3
EXTAP	66	288	1
EXTAP	66	288	5
EXTAP	66	336	1
EXTAP	66	336	5
NMSTR	67	0	4
NMSI_	67	0	4	96	48	6
NMSTR	67	48	4
NMSI_	67	48	4	96	48	2
NMSTR	67	96	4
NMSI_	67	96	4	96	48	0
NMSTR	67	288	1
NMSV_	67	288	1	96	48	6
NMTAP	67	288	7
NMSTR	68	0	5
NMSV_	68	0	5	96	48	2
CNSI_	68	48	6	0	48	0
CNSI_	68	144	2	0	48	4
NMTAP	68	192	0
NMTAP	68	240	0
NMTAP	68	288	4
NMTAP	68	336	4
NMSTR	69	0	1
NMSCR	69	0	1	96	72	4
NMSTR	69	48	3
NMSCR	69	48	3	96	72	6
NMSTR	69	96	5
NMSCR	69	96	5	96	72	0
NMTAP	69	144	7
NMTAP	69	192	1
EXTAP	69	288	5
NMTAP	70	0	0
NMTAP	70	0	6
NMTAP	70	48	6
NMSTR	70	96	6
NMSCL	70	96	6	96	96	3
NMTAP	70	96	7
NMTAP	70	144	6
NMHLD	70	192	6	96
CNSUR	70	288	3	0	48	0
NMTAP	71	0	2
NMTAP	71	48	2
NMSTR	71	96	2
NMSCL	71	96	2	96	96	7
NMTAP	71	96	3
NMTAP	71	144	2
NMHLD	71	192	2	96
CNSUR	71	288	7	0	48	4
NMTAP	72	0	6
NMTAP	72	48	6
NMSTR	72	96	6
NMSI_	72	96	6	96	48	3
NMTAP	72	96	7
NMTAP	72	144	6
NMHLD	72	192	6	96
NMTAP	72	288	4
NMSTR	72	336	4
NMSCR	72	336	4	96	144	3
NMTTP	73	48	0	C	1	M1
EXSTR	73	192	7
NMSI_	73	192	7	96	48	3
BRTAP	73	288	7
NMTAP	74	0	2
NMTAP	74	48	1
NMTAP	74	96	1
NMTAP	74	96	3
NMTAP	74	144	1
NMHLD	74	192	1	96
NMTTP	74	288	3	E	0	M1
NMTAP	75	0	5
NMTAP	75	48	6
NMTAP	75	96	4
NMTAP	75	96	6
NMTAP	75	144	6
NMHLD	75	192	6	96
NMTTP	75	288	5	E	0	M1
NMTAP	76	0	2
NMTAP	76	48	1
NMTAP	76	96	1
NMTAP	76	96	3
NMTAP	76	144	1
NMHLD	76	192	1	96
NMTTP	76	288	3	E	0	M1
NMTAP	77	0	5
NMTAP	77	48	6
NMTAP	77	96	2
NMTAP	77	96	7
NMTAP	77	144	1
NMSTR	77	192	0
NMSI_	77	192	0	96	48	2
NMSTR	77	192	6
NMSI_	77	192	6	96	48	3
NMTAP	77	288	0
NMTAP	77	288	6
NMTAP	78	0	5
NMTAP	78	48	6
NMTAP	78	96	4
NMTAP	78	96	6
NMTAP	78	144	6
NMHLD	78	192	6	96
NMTTP	78	288	5	E	0	M1
NMTAP	79	0	2
NMTAP	79	48	1
NMTAP	79	96	1
NMTAP	79	96	3
NMTAP	79	144	1
NMHLD	79	192	1	96
NMTTP	79	288	3	E	0	M1
NMTAP	80	0	5
NMTAP	80	48	6
NMTAP	80	96	4
NMTAP	80	96	6
NMTAP	80	144	6
NMHLD	80	192	6	96
NMTTP	80	288	5	E	0	M1
NMTAP	81	0	3
NMTAP	81	48	2
NMTAP	81	48	4
NMTAP	81	96	2
NMTAP	81	96	4
NMTAP	81	192	3
NMTAP	81	192	5
NMTAP	81	240	6
BRSTR	81	288	7
NMSCL	81	288	7	96	48	4
NMTAP	81	336	0
NMSTR	82	0	1
NMSI_	82	0	1	96	48	7
NMTAP	82	0	7
NMTAP	82	96	1
NMHLD	82	96	3	96
NMTAP	82	192	5
NMTAP	82	240	4
NMTAP	82	288	3
NMSTR	82	336	2
NMSCR	82	336	2	96	48	5
NMTAP	83	48	6
NMTAP	83	96	7
NMHLD	83	144	0	96
NMTAP	83	240	4
NMTAP	83	288	3
NMTAP	83	336	2
NMTAP	84	0	1
NMTAP	84	0	3
NMTAP	84	48	4
NMTAP	84	96	5
NMHLD	84	144	6	192
NMTTP	84	192	6	E	0	M1
NMTTP	84	240	5	E	0	M1
NMTTP	84	288	4	E	0	M1
NMTHO	84	336	3	288	E	0	M1
NMTTP	85	48	1	E	0	M1
NMTTP	85	96	0	E	0	M1
NMTTP	85	144	7	E	0	M1
EXTAP	85	240	5
EXSTR	85	288	5
NMSCR	85	288	5	96	48	7
NMHLD	86	0	3	48
NMHLD	86	96	0	48
NMHLD	86	96	2	48
NMHLD	86	192	4	48
NMHLD	86	192	6	48
NMSTR	86	288	7
NMSLL	86	288	7	96	96	3
NMSTR	87	0	3
NMSLL	87	0	3	96	96	7
NMTAP	87	96	7
NMTAP	87	192	3
NMSTR	87	288	2
NMSUR	87	288	2	96	192	4
NMTAP	88	0	4
NMTAP	88	192	5
NMTTP	88	336	1	B	0	M1
NMTTP	88	336	1	E	0	M1
NMTTP	88	336	2	B	0	M1
NMTTP	88	336	3	B	0	M1
NMTTP	88	336	3	E	0	M1
NMTTP	88	336	3	A	0	M1
NMTTP	88	336	3	D	0	M1
NMTTP	88	336	4	B	0	M1
NMTTP	88	336	4	E	0	M1
NMTTP	88	336	4	A	0	M1
NMTTP	88	336	4	D	0	M1
NMTTP	88	336	5	B	0	M1
NMTTP	88	336	5	E	0	M1
NMTTP	88	336	6	B	0	M1
NMTTP	88	336	7	E	0	M1

T_REC_TAP	329
T_REC_BRK	3
T_REC_XTP	15
T_REC_BXX	2
T_REC_HLD	78
T_REC_XHO	0
T_REC_BHO	0
T_REC_BXH	0
T_REC_STR	84
T_REC_BST	3
T_REC_XST	2
T_REC_XBS	0
T_REC_TTP	60
T_REC_THO	2
T_REC_SLD	91
T_REC_BSL	0
T_REC_ALL	669
T_NUM_TAP	490
T_NUM_BRK	8
T_NUM_HLD	80
T_NUM_SLD	91
T_NUM_ALL	669
T_JUDGE_TAP	498
T_JUDGE_HLD	148
T_JUDGE_SLD	91
T_JUDGE_ALL	737
TTM_EACHPAIRS	88
TTM_SCR_TAP	245000
TTM_SCR_BRK	20800
TTM_SCR_HLD	80000
TTM_SCR_SLD	136500
TTM_SCR_ALL	482300
TTM_SCR_S	467100
TTM_SCR_SS	481500
TTM_RAT_ACV	10016

