VERSION	0.00.00	1.05.00
FES_MODE	0
BPM_DEF	170.000	170.000	170.000	170.000
MET_DEF	4	4
RESOLUTION	384
CLK_DEF	384
COMPATIBLE_CODE	MA2

BPM	0	0	170.000
MET	0	0	4	4

NMHLD	2	0	2	384
NMTTP	2	192	3	E	0	M1
NMTTP	2	288	4	E	0	M1
NMTTP	3	0	5	E	0	M1
NMTTP	3	192	2	B	0	M1
NMTTP	3	192	3	B	0	M1
NMHLD	4	0	5	384
NMTTP	4	192	5	E	0	M1
NMTTP	4	288	4	E	0	M1
NMTTP	5	0	3	E	0	M1
NMTTP	5	192	4	B	0	M1
NMTTP	5	192	5	B	0	M1
NMHLD	6	0	1	384
NMTTP	6	192	2	E	0	M1
NMTTP	6	288	3	E	0	M1
NMTTP	7	0	4	E	0	M1
NMTTP	7	192	2	B	0	M1
NMTTP	7	192	5	B	0	M1
BRHLD	8	0	3	192
NMHLD	8	0	4	336
EXTAP	9	240	3
EXTAP	9	240	4
NMTAP	9	336	2
NMHLD	10	0	2	96
NMTAP	10	96	3
NMTAP	10	192	1
NMTAP	10	240	1
NMTAP	10	288	0
NMTAP	11	0	6
NMTAP	11	0	7
NMTAP	11	96	6
NMTAP	11	96	7
NMTAP	11	192	5
NMTAP	11	240	5
NMTAP	11	288	4
NMTAP	12	0	5
NMTAP	12	96	4
NMTAP	12	96	6
NMTAP	12	192	7
NMTAP	12	288	0
NMTAP	12	288	6
NMTAP	13	0	1
NMTAP	13	96	0
NMTAP	13	96	2
NMTAP	13	192	2
NMTAP	13	192	3
EXTAP	14	0	1
EXTAP	14	48	1
EXTAP	14	96	1
NMTAP	14	192	0
NMTAP	14	192	2
NMTAP	14	288	0
NMTAP	14	288	2
EXTAP	15	0	6
EXTAP	15	48	6
EXTAP	15	96	6
NMTAP	15	192	5
NMTAP	15	192	7
NMTAP	15	288	5
NMTAP	15	288	7
NMTAP	16	0	0
NMTAP	16	0	6
NMTAP	16	96	0
NMTAP	16	96	6
NMTAP	16	192	1
NMTAP	16	192	7
NMSTR	16	288	1
NMSCR	16	288	1	96	192	6
NMSUR	16	288	1	96	192	6
NMTAP	16	288	7
NMTAP	18	0	1
NMTAP	18	0	7
NMTAP	18	96	1
NMTAP	18	96	7
NMTAP	18	192	2
NMTAP	18	240	2
NMTAP	18	288	3
NMTAP	19	0	4
NMTAP	19	0	5
NMTAP	19	96	4
NMTAP	19	96	5
NMTAP	19	192	6
NMTAP	19	240	6
NMTAP	19	288	7
NMTAP	20	0	6
NMTAP	20	0	7
NMTAP	20	96	6
NMTAP	20	96	7
NMTAP	20	192	4
NMTAP	20	192	5
NMTAP	20	288	4
NMTAP	20	288	5
NMTAP	21	0	2
NMTAP	21	0	3
NMTAP	21	96	2
NMTAP	21	96	3
NMTAP	21	192	1
NMTAP	21	192	7
NMTAP	22	0	2
NMTAP	22	48	2
NMTAP	22	96	2
NMTAP	22	192	1
NMTAP	22	192	3
NMTAP	22	288	1
NMTAP	22	288	3
NMTAP	23	0	5
NMTAP	23	48	5
NMTAP	23	96	5
NMTAP	23	192	4
NMTAP	23	192	6
NMTAP	23	288	4
NMTAP	23	288	6
NMSTR	24	0	5
NMSI_	24	0	5	96	96	2
NMSTR	24	192	0
NMSCR	24	192	0	96	288	7
NMTAP	26	0	2
NMTAP	26	96	2
NMHLD	26	192	1	384
NMTAP	26	192	3
NMTAP	26	288	3
NMTAP	27	0	2
NMTAP	27	96	2
NMTAP	27	192	3
NMTAP	28	0	5
NMTAP	28	96	5
NMTAP	28	192	4
NMHLD	28	192	6	384
NMTAP	28	288	4
NMTAP	29	0	5
NMTAP	29	96	5
NMTAP	29	192	4
NMTAP	30	0	2
NMTAP	30	96	2
NMTAP	30	192	1
NMHLD	30	192	3	384
NMTAP	30	288	1
NMTAP	31	0	2
NMTAP	31	96	2
NMTAP	31	192	4
NMTAP	32	0	5
NMTAP	32	96	5
NMHLD	32	192	4	288
NMTAP	32	192	6
NMTAP	32	288	6
NMTAP	33	0	5
NMTAP	33	96	5
NMTAP	33	192	3
NMTAP	33	192	6
NMTTP	34	0	5	E	0	M1
NMTTP	34	0	6	E	0	M1
NMTHO	34	192	3	144	E	0	M1
NMTHO	34	192	4	144	E	0	M1
NMTTP	35	144	0	C	0	M1
NMTTP	36	0	2	E	0	M1
NMTTP	36	0	3	E	0	M1
NMTHO	36	192	4	144	E	0	M1
NMTHO	36	192	5	144	E	0	M1
NMTTP	37	144	0	C	0	M1
NMTTP	38	0	0	E	0	M1
NMTTP	38	0	7	E	0	M1
NMTHO	38	192	4	144	E	0	M1
NMTHO	38	192	5	144	E	0	M1
NMTTP	39	144	2	E	0	M1
NMTHO	40	0	2	336	B	0	M1
NMTHO	40	0	5	336	B	0	M1
NMTHO	40	192	0	144	C	1	M1
EXTAP	41	192	0
EXTAP	41	192	7
EXTAP	41	288	0
EXTAP	41	288	7
NMHLD	42	0	1	576
NMSTR	42	192	3
NMSXR	42	192	3	96	288	4
NMHLD	44	0	6	576
NMSTR	44	192	4
NMSXL	44	192	4	96	288	3
NMTHO	46	0	1	192	B	0	M1
NMTHO	46	0	2	192	B	0	M1
NMTHO	46	0	3	192	B	0	M1
NMTHO	47	0	4	192	B	0	M1
NMTHO	47	0	5	192	B	0	M1
NMTHO	47	0	6	192	B	0	M1
NMSTR	48	0	3
NMSXR	48	0	3	96	480	0
NMSTR	48	0	7
NMSXR	48	0	7	96	480	4
NMTAP	50	0	1
NMTAP	50	0	3
NMTAP	50	96	1
NMTAP	50	96	3
NMHLD	50	192	2	72
NMHLD	50	264	3	72
NMTAP	50	336	1
NMTAP	51	0	1
NMTAP	51	96	0
NMTAP	51	96	7
NMHLD	51	192	6	72
NMHLD	51	264	4	72
NMTAP	51	336	5
NMSTR	52	0	5
NMSI_	52	0	5	96	96	0
NMSTR	52	192	1
NMSI_	52	192	1	96	96	5
NMTAP	53	0	7
NMTAP	53	96	7
NMTAP	53	192	0
NMTAP	53	192	6
NMTAP	54	0	1
NMTAP	54	0	7
NMTAP	54	96	1
NMTAP	54	96	7
NMHLD	54	192	0	72
NMHLD	54	264	7	72
NMTAP	54	336	1
NMTAP	55	0	1
NMTAP	55	96	2
NMTAP	55	96	3
NMHLD	55	192	4	72
NMHLD	55	264	3	72
NMTAP	55	336	5
NMSTR	56	0	5
NMSCR	56	0	5	96	96	0
NMSTR	56	192	1
NMSCR	56	192	1	96	96	4
NMTAP	57	0	5
NMTAP	57	96	4
NMTAP	57	96	6
NMTAP	57	192	3
NMTAP	57	192	7
BRHLD	58	0	0	48
BRHLD	58	0	1	48
NMHLD	58	96	0	48
NMHLD	58	96	1	48
NMHLD	58	192	6	48
NMHLD	58	192	7	48
NMHLD	58	288	6	48
NMHLD	58	288	7	48
NMHLD	59	0	4	48
NMHLD	59	0	5	48
NMHLD	59	96	6	48
NMHLD	59	96	7	48
NMHLD	59	192	0	48
NMHLD	59	192	1	48
NMHLD	59	288	2	48
NMHLD	59	288	3	48
NMHLD	60	0	5	48
NMHLD	60	96	4	48
NMHLD	60	96	6	48
NMHLD	60	192	2	48
NMHLD	60	288	1	48
NMHLD	60	288	3	48
NMTAP	61	0	7
NMTAP	61	48	7
NMTAP	61	96	0
NMTAP	61	96	6
BRTAP	61	192	1
BRTAP	61	192	5
NMTAP	62	0	6
NMTAP	62	48	6
NMTAP	62	96	6
NMTAP	62	144	6
NMTAP	62	192	6
NMTAP	62	288	5
NMTAP	62	288	7
NMTAP	63	0	1
NMTAP	63	48	1
NMTAP	63	96	1
NMTAP	63	144	1
NMTAP	63	192	1
NMTAP	63	288	0
NMTAP	63	288	2
NMSTR	64	0	3
NMSCL	64	0	3	96	96	0
NMSTR	64	192	6
NMSCL	64	192	6	96	96	3
NMTAP	65	0	7
NMTAP	65	96	7
NMTAP	65	192	1
NMTAP	65	192	5
BXSTR	66	0	6
NMSI_	66	0	6	96	48	3
BXSTR	66	0	7
NMSI_	66	0	7	96	48	3
NMSTR	66	192	0
NMSI_	66	192	0	96	48	4
NMSTR	66	192	1
NMSI_	66	192	1	96	48	4
NMSTR	67	0	6
NMSI_	67	0	6	96	48	3
NMSTR	67	0	7
NMSI_	67	0	7	96	48	3
NMTAP	67	192	0
NMTAP	67	192	1
NMTAP	67	288	0
NMTAP	67	288	1
NMTAP	68	0	2
NMTAP	68	48	2
NMTAP	68	96	3
NMTAP	68	192	5
NMTAP	68	240	5
NMTAP	68	288	4
NMTAP	69	0	6
NMTAP	69	0	7
NMTAP	69	96	6
NMTAP	69	96	7
NMTAP	69	192	0
NMTAP	69	192	4
NMTAP	70	0	1
NMTAP	70	48	1
NMTAP	70	96	1
NMTAP	70	144	1
NMTAP	70	192	1
NMTAP	70	288	0
NMTAP	70	288	2
NMTAP	71	0	6
NMTAP	71	48	6
NMTAP	71	96	6
NMTAP	71	144	6
NMTAP	71	192	6
NMTAP	71	288	5
NMTAP	71	288	7
NMSTR	72	0	0
NMSI_	72	0	0	96	48	2
NMSTR	72	0	4
NMSI_	72	0	4	96	48	6
EXSTR	72	192	3
NMSI_	72	192	3	96	48	1
EXSTR	72	192	7
NMSI_	72	192	7	96	48	5
EXTAP	73	0	0
EXTAP	73	0	4
EXTAP	73	96	0
EXTAP	73	96	4
NMTAP	73	192	1
NMTAP	73	192	5
NMTAP	74	0	6
NMTAP	74	48	6
NMTAP	74	96	7
NMHLD	74	192	5	96
NMTAP	74	288	4
NMTAP	75	0	4
NMTAP	75	0	5
NMTAP	75	96	3
NMTAP	75	96	4
NMHLD	75	192	2	96
NMTAP	75	288	3
NMTAP	76	0	1
NMTAP	76	48	1
NMTAP	76	96	0
NMHLD	76	192	2	96
NMTAP	76	288	3
NMTAP	77	0	2
NMTAP	77	0	3
NMTAP	77	96	3
NMTAP	77	96	4
NMHLD	77	192	5	96
NMTAP	77	288	4
NMTAP	78	0	4
NMTAP	78	0	6
NMTAP	78	96	4
NMTAP	78	96	6
NMTAP	78	192	3
NMTAP	78	192	5
NMTAP	78	288	2
NMTAP	78	288	4
NMTAP	79	0	1
NMTAP	79	0	3
NMTAP	79	96	1
NMTAP	79	96	3
NMTAP	79	192	2
NMTAP	79	192	4
NMTAP	79	288	3
NMTAP	79	288	5
NMSTR	80	0	4
NMSCL	80	0	4	96	192	0
NMHLD	80	0	6	288
NMTAP	81	0	6
NMTAP	81	0	7
NMTAP	81	96	6
NMTAP	81	96	7
NMTAP	81	192	0
NMTAP	81	192	4
BRTAP	82	0	1
BRTAP	82	0	3
NMTAP	82	96	1
NMTAP	82	96	3
NMTAP	82	192	7
NMTAP	82	240	7
NMTAP	82	288	0
NMTAP	82	288	7
NMTAP	83	0	5
NMTAP	83	48	5
NMTAP	83	96	4
NMTAP	83	144	6
NMTAP	83	240	3
NMTAP	83	240	7
NMTAP	83	288	3
NMTAP	83	288	7
NMTAP	84	0	1
NMTAP	84	48	1
NMTAP	84	96	7
NMTAP	84	144	7
NMTAP	84	192	0
NMTAP	84	240	0
NMTAP	84	288	6
NMHLD	84	336	6	96
NMTAP	85	48	4
NMTAP	85	96	4
NMTAP	85	144	5
NMTAP	85	240	3
NMTAP	85	240	4
NMTAP	85	288	3
NMTAP	85	288	4
NMSTR	86	0	2
NMSI_	86	0	2	96	48	7
NMTAP	86	0	3
NMTAP	86	192	4
NMSTR	86	192	5
NMSI_	86	192	5	96	48	0
NMSTR	87	0	2
NMSCL	87	0	2	96	192	5
NMSTR	87	0	3
NMSUL	87	0	3	96	192	4
NMTTP	88	0	3	E	0	M1
NMTTP	88	192	4	E	0	M1
NMTTP	88	336	5	E	0	M1

T_REC_TAP	260
T_REC_BRK	4
T_REC_XTP	16
T_REC_BXX	0
T_REC_HLD	45
T_REC_XHO	0
T_REC_BHO	3
T_REC_BXH	0
T_REC_STR	24
T_REC_BST	0
T_REC_XST	2
T_REC_XBS	2
T_REC_TTP	27
T_REC_THO	15
T_REC_SLD	29
T_REC_BSL	0
T_REC_ALL	427
T_NUM_TAP	329
T_NUM_BRK	9
T_NUM_HLD	60
T_NUM_SLD	29
T_NUM_ALL	427
T_JUDGE_TAP	335
T_JUDGE_HLD	204
T_JUDGE_SLD	29
T_JUDGE_ALL	568
TTM_EACHPAIRS	104
TTM_SCR_TAP	164500
TTM_SCR_BRK	23400
TTM_SCR_HLD	60000
TTM_SCR_SLD	43500
TTM_SCR_ALL	291400
TTM_SCR_S	281800
TTM_SCR_SS	290500
TTM_RAT_ACV	10030

