VERSION	0.00.00	1.05.00
FES_MODE	0
BPM_DEF	180.000	180.000	180.000	180.000
MET_DEF	4	4
RESOLUTION	384
CLK_DEF	384
COMPATIBLE_CODE	MA2

BPM	0	0	180.000
MET	0	0	4	4

NMTTP	1	0	1	E	0	M1
NMTTP	1	48	2	E	0	M1
NMTTP	1	96	3	E	0	M1
NMTTP	1	144	4	E	0	M1
NMTAP	2	0	4
NMTAP	2	96	4
NMTAP	2	192	4
NMTAP	2	288	4
NMTTP	3	0	0	E	0	M1
NMTAP	3	0	4
NMTTP	3	48	1	E	0	M1
NMTTP	3	96	2	E	0	M1
NMTAP	3	96	4
NMTTP	3	144	3	E	0	M1
NMTAP	3	192	4
NMTAP	3	288	4
NMTAP	4	0	4
NMTAP	4	96	4
NMTAP	4	192	3
NMTAP	4	192	5
NMTAP	4	288	3
NMTAP	4	288	6
NMTTP	5	0	0	E	0	M1
NMTAP	5	0	3
NMTTP	5	48	7	E	0	M1
NMTAP	5	96	3
NMTTP	5	96	6	E	0	M1
NMTTP	5	144	5	E	0	M1
NMTAP	5	192	3
NMTAP	5	288	3
NMTAP	6	0	3
NMTAP	6	96	3
NMTAP	6	192	3
NMTAP	6	288	3
NMTAP	7	0	3
NMTTP	7	0	5	E	0	M1
NMTTP	7	48	6	E	0	M1
NMTAP	7	96	3
NMTTP	7	96	7	E	0	M1
NMTTP	7	144	0	E	0	M1
NMTAP	7	192	3
NMTAP	7	288	3
NMTAP	8	0	3
NMTAP	8	96	3
NMSTR	8	192	4
NMSI_	8	192	4	96	48	7
NMTAP	8	288	1
BRTAP	8	288	4
NMTAP	9	0	0
NMTAP	9	48	7
NMTAP	9	96	6
NMHLD	9	144	5	432
NMSTR	9	192	4
NMSI_	9	192	4	96	48	7
NMTAP	9	288	4
NMSTR	10	0	0
NMSI_	10	0	0	96	48	4
NMTAP	10	96	0
NMSTR	10	192	3
NMSI_	10	192	3	96	48	0
NMTAP	10	288	3
NMTAP	10	288	6
NMTAP	11	0	7
NMTAP	11	48	0
NMTAP	11	96	1
NMHLD	11	144	2	432
NMSTR	11	192	3
NMSI_	11	192	3	96	48	0
NMTAP	11	288	3
NMSTR	12	0	7
NMSI_	12	0	7	96	48	3
NMTAP	12	96	7
NMSTR	12	192	4
NMSI_	12	192	4	96	48	7
NMTAP	12	288	1
NMTAP	12	288	4
NMTAP	13	0	0
NMTAP	13	48	7
NMTAP	13	96	6
NMHLD	13	144	5	432
NMSTR	13	192	4
NMSI_	13	192	4	96	48	7
NMTAP	13	288	4
NMSTR	14	0	0
NMSI_	14	0	0	96	48	4
NMTAP	14	96	0
NMSTR	14	192	3
NMSI_	14	192	3	96	48	0
NMTAP	14	288	3
NMTAP	14	288	6
NMTAP	15	0	7
NMTAP	15	48	7
NMTAP	15	96	1
NMTAP	15	144	1
NMTAP	15	192	5
NMTAP	15	240	5
NMTAP	15	288	3
NMTAP	15	336	3
NMTAP	16	0	2
NMTAP	16	0	4
NMHLD	16	48	2	48
NMHLD	16	48	4	48
NMTAP	16	144	3
NMTAP	16	144	5
NMHLD	16	192	3	48
NMHLD	16	192	5	48
EXSTR	16	288	2
NMSCL	16	288	2	96	48	7
NMTAP	17	0	3
NMTAP	17	48	4
NMSTR	17	96	5
NMSCR	17	96	5	96	48	0
NMTAP	17	144	5
NMTAP	17	192	4
NMSTR	17	288	2
NMSI_	17	288	2	96	48	6
NMTAP	18	0	3
NMSTR	18	96	4
NMSI_	18	96	4	96	48	7
NMSTR	18	192	1
NMSI_	18	192	1	96	48	3
EXSTR	18	288	5
NMSCR	18	288	5	96	48	0
NMTAP	19	0	4
NMTAP	19	48	3
NMSTR	19	96	2
NMSCL	19	96	2	96	48	7
NMTAP	19	144	2
NMTAP	19	192	3
EXSTR	19	288	5
NMSI_	19	288	5	96	48	1
NMTAP	20	0	4
NMSTR	20	96	3
NMSI_	20	96	3	96	48	0
NMSTR	20	192	6
NMSI_	20	192	6	96	48	4
NMSTR	20	288	2
NMSCL	20	288	2	96	48	7
NMTAP	21	0	3
NMTAP	21	48	4
NMSTR	21	96	5
NMSCR	21	96	5	96	48	0
NMTAP	21	144	5
NMTAP	21	192	4
NMSTR	21	288	2
NMSI_	21	288	2	96	48	6
NMTAP	22	0	3
NMSTR	22	96	4
NMSI_	22	96	4	96	48	7
NMSTR	22	192	1
NMSI_	22	192	1	96	48	3
EXSTR	22	288	5
NMSCR	22	288	5	96	48	0
NMTAP	23	0	4
NMTAP	23	48	3
NMTAP	23	96	2
NMHLD	23	144	2	144
EXSTR	23	192	3
NMSCR	23	192	3	96	48	6
NMSTR	24	0	4
NMSCL	24	0	4	96	48	1
NMTAP	24	48	5
NMTAP	24	96	5
NMSTR	24	192	3
NMSI_	24	192	3	96	48	7
NMTAP	24	288	1
NMTAP	25	0	0
NMTAP	25	48	1
NMTAP	25	48	7
NMTAP	25	96	2
NMTAP	25	96	6
NMTAP	25	144	3
NMHLD	25	144	5	528
NMSTR	25	192	4
NMSI_	25	192	4	96	48	0
NMSTR	25	288	4
NMSI_	25	288	4	96	48	6
NMSTR	26	0	4
NMSI_	26	0	4	96	48	2
NMSTR	26	96	4
NMSXL	26	96	4	96	144	3
NMTAP	27	0	7
NMTAP	27	48	0
NMTAP	27	48	6
NMTAP	27	96	1
NMTAP	27	96	5
NMHLD	27	144	2	528
NMTAP	27	144	4
NMSTR	27	192	3
NMSI_	27	192	3	96	48	7
NMSTR	27	288	3
NMSI_	27	288	3	96	48	1
NMSTR	28	0	3
NMSI_	28	0	3	96	48	5
NMSTR	28	96	3
NMSXR	28	96	3	96	144	4
NMTAP	29	0	0
NMTAP	29	48	1
NMTAP	29	48	7
NMTAP	29	96	2
NMTAP	29	96	6
NMTAP	29	144	3
NMHLD	29	144	5	528
NMSTR	29	192	4
NMSI_	29	192	4	96	48	2
NMSTR	29	288	4
NMSI_	29	288	4	96	48	0
NMSTR	30	0	4
NMSI_	30	0	4	96	48	6
NMSTR	30	96	4
NMSXR	30	96	4	96	192	0
NMTAP	31	0	6
NMTAP	31	48	6
NMTAP	31	96	0
NMTAP	31	144	0
NMTAP	31	192	7
NMTAP	31	240	7
NMTAP	31	288	4
NMTAP	31	336	4
NMTAP	32	0	6
NMTAP	32	24	7
NMTAP	32	48	0
NMTAP	32	72	1
NMTAP	32	96	2
NMTAP	32	120	3
NMTAP	32	144	4
NMTAP	32	168	5
NMTAP	32	192	4
NMTAP	32	204	3
NMTAP	32	216	2
NMTAP	32	228	1
NMTAP	32	240	0
NMTAP	32	252	7
NMTAP	32	264	6
NMTAP	32	276	5
NMSTR	32	288	4
NMSI_	32	288	4	96	1536	0
NMHLD	33	0	4	4416
NMTAP	44	288	3
NMTAP	44	312	4
NMTAP	44	336	3
NMTAP	44	360	4
NMTAP	45	0	3
NMTAP	45	48	4
NMTAP	45	96	4
NMTAP	45	144	3
NMTAP	45	192	4
NMTAP	45	240	4
NMTAP	45	288	3
NMTAP	45	336	4
EXTAP	46	0	4
NMTAP	46	48	3
NMTAP	46	96	4
NMTAP	46	144	4
NMTAP	46	192	3
NMTAP	46	240	4
NMTAP	46	288	3
NMTAP	46	312	4
NMTAP	46	336	3
NMTAP	46	360	4
EXTAP	47	0	3
NMTAP	47	48	4
NMTAP	47	96	4
NMTAP	47	144	3
NMTAP	47	192	4
NMTAP	47	240	4
NMTAP	47	288	3
NMTAP	47	336	4
EXTAP	48	0	4
NMTAP	48	48	3
NMTAP	48	96	4
NMTAP	48	144	4
NMTAP	48	192	3
NMTAP	48	216	4
NMTAP	48	240	3
NMTAP	48	264	4
NMTAP	48	288	3
NMTAP	48	312	4
NMTAP	48	336	3
NMTAP	48	360	4
EXTAP	49	0	3
NMTAP	49	48	4
NMTAP	49	96	4
NMTAP	49	144	3
NMTAP	49	192	4
NMTAP	49	240	4
NMTAP	49	288	3
NMTAP	49	336	4
EXTAP	50	0	4
NMTAP	50	48	3
NMTAP	50	96	4
NMTAP	50	144	4
NMTAP	50	192	3
NMTAP	50	240	4
NMTAP	50	288	3
NMTAP	50	312	4
NMTAP	50	336	3
NMTAP	50	360	4
EXTAP	51	0	3
NMTAP	51	48	4
NMTAP	51	96	4
NMTAP	51	144	3
NMTAP	51	192	4
NMTAP	51	240	4
NMTAP	51	288	3
NMTAP	51	336	4
EXTAP	52	0	4
NMTAP	52	48	3
NMTAP	52	96	4
NMTAP	52	144	3
NMTAP	52	168	4
NMTAP	52	192	3
NMTAP	52	216	4
NMTAP	52	240	3
NMTAP	52	264	4
NMSTR	52	288	2
NMSI_	52	288	2	96	48	7
BRTAP	53	0	6
NMTAP	53	48	6
NMTAP	53	96	0
NMTAP	53	144	0
NMTAP	53	192	5
NMTAP	53	240	4
NMSTR	53	288	6
NMSI_	53	288	6	96	48	0
NMTAP	53	336	6
NMTAP	54	0	3
NMSTR	54	48	2
NMSI_	54	48	2	96	48	6
NMTAP	54	96	2
NMTAP	54	144	3
NMSTR	54	192	4
NMSI_	54	192	4	96	48	7
NMTAP	54	240	4
NMSTR	54	288	0
NMSCR	54	288	0	96	48	3
NMTAP	54	336	0
NMTAP	55	0	7
NMTAP	55	48	7
NMTAP	55	96	7
NMTAP	55	144	7
NMTAP	55	192	3
NMTAP	55	240	5
NMSTR	55	288	1
NMSI_	55	288	1	96	48	7
NMTAP	55	336	1
NMTAP	56	0	4
NMSTR	56	48	5
NMSI_	56	48	5	96	48	1
NMTAP	56	96	5
NMTAP	56	144	4
NMSTR	56	192	3
NMSI_	56	192	3	96	48	0
NMTAP	56	240	3
NMSTR	56	288	7
NMSCL	56	288	7	96	48	4
NMTAP	56	336	7
NMTAP	57	0	0
NMTAP	57	48	0
NMTAP	57	96	0
NMTAP	57	144	0
NMTAP	57	192	7
NMTAP	57	240	1
NMSTR	57	288	5
NMSI_	57	288	5	96	48	3
NMTAP	57	336	5
NMTAP	58	0	0
NMSTR	58	48	1
NMSI_	58	48	1	96	48	5
NMTAP	58	96	1
NMTAP	58	144	0
NMSTR	58	192	7
NMSI_	58	192	7	96	48	4
NMTAP	58	240	7
NMSTR	58	288	3
NMSCL	58	288	3	96	48	0
NMTAP	58	336	3
NMTAP	59	0	4
NMTAP	59	48	4
NMTAP	59	96	4
NMTAP	59	144	4
NMTAP	59	192	0
NMTAP	59	240	3
NMSTR	59	288	1
NMSI_	59	288	1	96	48	7
NMTAP	59	336	1
NMTAP	60	0	4
NMTAP	60	48	5
NMTAP	60	96	5
NMTAP	60	144	4
NMTAP	60	192	3
NMTAP	60	192	6
NMSTR	60	288	7
NMSCL	60	288	7	96	192	2
BXTAP	61	0	0
NMTTP	61	96	2	E	0	M1
NMTTP	61	144	1	E	0	M1
NMTTP	61	192	0	E	0	M1
CNSCR	61	192	2	0	192	7
NMTAP	61	288	0
NMSTR	62	0	0
NMSI_	62	0	0	96	48	4
NMTAP	62	96	4
NMSTR	62	144	5
NMSI_	62	144	5	96	48	2
NMTAP	62	240	1
NMSTR	62	288	0
NMSCR	62	288	0	96	192	5
NMTAP	63	0	4
NMTTP	63	96	6	E	0	M1
NMTTP	63	144	7	E	0	M1
NMTTP	63	192	0	E	0	M1
CNSCL	63	192	5	0	192	0
NMTAP	63	288	7
NMSTR	64	0	7
NMSI_	64	0	7	96	48	3
NMTAP	64	96	3
NMSTR	64	144	2
NMSI_	64	144	2	96	48	0
NMTAP	64	240	3
NMSTR	64	288	4
NMSCR	64	288	4	96	192	1
NMTAP	65	0	0
NMTTP	65	96	2	E	0	M1
NMTTP	65	144	3	E	0	M1
CNSCL	65	192	1	0	192	4
NMTTP	65	192	4	E	0	M1
NMTAP	65	288	3
NMSTR	66	0	3
NMSI_	66	0	3	96	48	7
NMTAP	66	96	5
NMSTR	66	144	6
NMSI_	66	144	6	96	48	2
NMTAP	66	240	1
NMSTR	66	288	0
NMSI_	66	288	0	96	48	4
NMTAP	67	0	6
NMTAP	67	48	6
NMTAP	67	96	4
NMTAP	67	144	5
NMTAP	67	192	1
NMTAP	67	240	1
NMTAP	67	288	3
NMTAP	67	336	2
NMTAP	68	0	5
NMTAP	68	48	7
NMTAP	68	96	0
NMTAP	68	144	2
NMSTR	68	192	4
NMSI_	68	192	4	96	48	0
NMTAP	68	240	3
EXTAP	68	288	4
BRHLD	69	0	2	288
NMTAP	69	96	0
NMTAP	69	144	7
NMTAP	69	240	3
NMSTR	69	288	4
NMSI_	69	288	4	96	48	2
BRHLD	70	0	0	96
NMTAP	70	0	4
NMTAP	70	96	2
BRHLD	70	144	3	96
NMTAP	70	240	2
EXSTR	70	288	1
NMSCL	70	288	1	96	48	6
NMTAP	71	0	1
BRHLD	71	0	5	288
NMTAP	71	96	7
NMTAP	71	144	0
NMTAP	71	240	4
NMSTR	71	288	3
NMSI_	71	288	3	96	48	5
NMTAP	72	0	3
BRHLD	72	0	7	96
NMTAP	72	96	5
BRHLD	72	144	4	96
NMTAP	72	240	5
EXSTR	72	288	6
NMSCR	72	288	6	96	48	1
BRHLD	73	0	2	288
NMTAP	73	0	6
NMTAP	73	96	0
NMTAP	73	144	7
NMTAP	73	240	3
NMSTR	73	288	4
NMSI_	73	288	4	96	48	2
BRHLD	74	0	1	96
NMTAP	74	0	4
NMTAP	74	96	2
BRHLD	74	144	3	96
NMTAP	74	240	2
EXSTR	74	288	1
NMSCR	74	288	1	96	48	4
NMTAP	75	0	1
BRHLD	75	0	5	288
NMTAP	75	96	4
NMTAP	75	144	3
NMTAP	75	240	7
NMSTR	75	288	0
NMSI_	75	288	0	96	48	4
NMTAP	76	0	0
BRHLD	76	0	6	96
NMTAP	76	96	5
BRHLD	76	144	4	96
NMTAP	76	240	5
BRTAP	76	288	3
BRTAP	76	288	6
NMSTR	77	0	2
NMSI_	77	0	2	96	48	0
NMTAP	77	48	2
NMSTR	77	96	7
NMSI_	77	96	7	96	48	3
NMTAP	77	144	7
NMSTR	77	192	1
NMSI_	77	192	1	96	48	4
NMTAP	77	240	1
NMSTR	77	288	6
NMSLR	77	288	6	96	144	2
NMTAP	77	336	6
EXTAP	78	0	3
NMTAP	78	48	3
NMTAP	78	96	3
CNSI_	78	144	2	0	96	7
EXTAP	78	144	4
NMTAP	78	192	4
NMTAP	78	240	4
CNSI_	78	240	7	0	48	5
EXTAP	78	288	3
NMSTR	79	0	5
NMSI_	79	0	5	96	48	7
NMTAP	79	48	5
NMSTR	79	96	0
NMSI_	79	96	0	96	48	4
NMTAP	79	144	0
NMSTR	79	192	6
NMSI_	79	192	6	96	48	3
NMTAP	79	240	6
NMSTR	79	288	1
NMSLL	79	288	1	96	144	5
NMTAP	79	336	1
EXTAP	80	0	4
NMTAP	80	48	4
NMTAP	80	96	4
EXTAP	80	144	3
CNSI_	80	144	5	0	96	0
NMTAP	80	192	3
CNSI_	80	240	0	0	48	2
NMTAP	80	240	3
NMTAP	80	288	4
NMSTR	81	0	1
NMSI_	81	0	1	96	48	3
NMTAP	81	48	1
NMSTR	81	96	4
NMSI_	81	96	4	96	48	0
NMTAP	81	144	4
NMSTR	81	192	2
NMSI_	81	192	2	96	48	7
NMTAP	81	240	2
NMSTR	81	288	5
NMSLL	81	288	5	96	144	1
NMTAP	81	336	5
EXTAP	82	0	0
NMTAP	82	48	0
NMTAP	82	96	0
CNSI_	82	144	1	0	96	4
EXTAP	82	144	7
NMTAP	82	192	7
CNSI_	82	240	4	0	48	6
NMTAP	82	240	7
EXTAP	82	288	0
NMSTR	83	0	6
NMSI_	83	0	6	96	48	4
NMTAP	83	48	6
NMSTR	83	96	3
NMSI_	83	96	3	96	48	7
NMTAP	83	144	3
NMSTR	83	192	5
NMSI_	83	192	5	96	48	0
NMTAP	83	240	5
NMTAP	83	288	2
NMTAP	84	0	1
NMTAP	84	24	7
NMTAP	84	48	1
NMTAP	84	96	2
NMTAP	84	144	4
NMSTR	84	192	6
NMSI_	84	192	6	96	48	4
NMTAP	84	240	0
NMTAP	84	288	2
BRTAP	84	288	6
NMTTP	85	0	1	A	1	M1
NMTHO	85	0	2	672	E	1	M1
NMSTR	85	96	3
NMSV_	85	96	3	96	48	0
NMTAP	85	144	3
NMSTR	85	192	3
NMSI_	85	192	3	96	48	7
BRTAP	86	0	4
NMTAP	86	48	4
NMTAP	86	96	3
BRTAP	86	144	7
NMTAP	86	192	0
NMTAP	86	240	3
BRTAP	86	288	4
NMTHO	87	0	6	672	E	1	M1
NMSTR	87	96	4
NMSV_	87	96	4	96	48	7
NMTAP	87	144	4
NMSTR	87	192	4
NMSI_	87	192	4	96	48	0
BRTAP	88	0	3
NMTAP	88	48	3
NMTAP	88	96	4
BRTAP	88	144	0
NMTAP	88	192	7
NMTAP	88	240	3
BRTAP	88	288	4
NMTHO	89	0	2	672	E	1	M1
NMSTR	89	96	0
NMSV_	89	96	0	96	48	3
NMTAP	89	144	0
NMSTR	89	192	0
NMSI_	89	192	0	96	48	4
BRTAP	90	0	7
NMTAP	90	48	7
NMTAP	90	96	0
BRTAP	90	144	4
NMTAP	90	192	3
NMTAP	90	240	0
BRTAP	90	288	7
NMTHO	91	0	6	672	E	1	M1
NMSTR	91	96	4
NMSV_	91	96	4	96	48	7
NMTAP	91	144	4
NMSTR	91	192	4
NMSI_	91	192	4	96	48	0
BRTAP	92	0	3
NMTAP	92	48	3
NMTAP	92	96	4
BRTAP	92	144	0
NMTAP	92	192	7
NMTAP	92	240	4
BRTAP	92	288	3
BRTAP	93	0	1
BRTAP	93	0	4
NMTAP	93	48	2
NMTAP	93	72	3
NMSTR	93	96	2
NMSI_	93	96	2	96	48	7
NMTAP	93	144	5
NMSTR	93	192	6
NMSI_	93	192	6	96	48	3
NMTAP	93	240	6
NMSTR	93	288	0
NMSCR	93	288	0	96	48	3
NMTAP	93	336	0
EXSTR	94	0	0
NMSCL	94	0	0	96	48	5
NMTAP	94	96	4
BRTAP	94	144	4
NMTAP	94	192	3
NMTAP	94	240	3
BRTAP	94	288	2
NMTAP	94	312	4
NMTAP	94	336	2
NMTAP	94	360	4
NMTTP	95	0	3	E	1	M1
NMTAP	95	48	5
NMTAP	95	72	4
NMSTR	95	96	5
NMSI_	95	96	5	96	48	0
NMTAP	95	144	2
NMSTR	95	192	1
NMSI_	95	192	1	96	48	4
NMTAP	95	240	1
NMSTR	95	288	7
NMSCL	95	288	7	96	48	4
NMTAP	95	336	7
EXSTR	96	0	7
NMSCR	96	0	7	96	48	2
NMTAP	96	96	3
BRTAP	96	144	3
NMTAP	96	192	4
NMTAP	96	240	4
BRTAP	96	288	1
NMTAP	96	312	3
NMTAP	96	336	1
NMTAP	96	360	3
NMTTP	97	0	1	E	1	M1
NMTAP	97	48	6
NMTAP	97	72	7
NMSTR	97	96	6
NMSI_	97	96	6	96	48	3
NMTAP	97	144	1
NMSTR	97	192	2
NMSI_	97	192	2	96	48	7
NMTAP	97	240	2
NMSTR	97	288	4
NMSCR	97	288	4	96	48	7
NMTAP	97	336	4
EXSTR	98	0	4
NMSCL	98	0	4	96	48	1
NMTAP	98	96	0
BRTAP	98	144	0
NMTAP	98	192	1
NMTAP	98	192	7
NMTAP	98	240	2
NMTAP	98	240	6
BRTAP	98	288	5
NMTAP	98	312	3
NMTAP	98	336	5
NMTAP	98	360	3
NMTTP	99	0	5	E	1	M1
NMTAP	99	48	2
NMTAP	99	72	3
NMSTR	99	96	2
NMSI_	99	96	2	96	48	0
NMTAP	99	144	5
NMTAP	99	192	7
NMTAP	99	240	7
NMTAP	99	288	0
NMTAP	99	336	0
BRTAP	100	0	6
NMTAP	100	24	5
NMTAP	100	48	4
NMTAP	100	72	3
NMTAP	100	96	2
NMTAP	100	120	1
BXTAP	100	144	0
NMTAP	100	168	7
NMTAP	100	192	0
NMTAP	100	204	1
NMTAP	100	216	2
NMTAP	100	228	3
NMTAP	100	240	4
NMTAP	100	252	5
NMTAP	100	264	6
NMTAP	100	276	7
EXSTR	100	288	0
NMSI_	100	288	0	96	1536	4
BRTAP	101	0	0

T_REC_TAP	406
T_REC_BRK	27
T_REC_XTP	16
T_REC_BXX	2
T_REC_HLD	12
T_REC_XHO	0
T_REC_BHO	12
T_REC_BXH	0
T_REC_STR	100
T_REC_BST	0
T_REC_XST	12
T_REC_XBS	0
T_REC_TTP	29
T_REC_THO	4
T_REC_SLD	112
T_REC_BSL	0
T_REC_ALL	732
T_NUM_TAP	563
T_NUM_BRK	41
T_NUM_HLD	16
T_NUM_SLD	112
T_NUM_ALL	732
T_JUDGE_TAP	592
T_JUDGE_HLD	255
T_JUDGE_SLD	112
T_JUDGE_ALL	959
TTM_EACHPAIRS	32
TTM_SCR_TAP	281500
TTM_SCR_BRK	106600
TTM_SCR_HLD	16000
TTM_SCR_SLD	168000
TTM_SCR_ALL	572100
TTM_SCR_S	551000
TTM_SCR_SS	568000
TTM_RAT_ACV	10072

