VERSION	0.00.00	1.05.00
FES_MODE	0
BPM_DEF	180.000	180.000	180.000	180.000
MET_DEF	4	4
RESOLUTION	384
CLK_DEF	384
COMPATIBLE_CODE	MA2

BPM	0	0	180.000
MET	0	0	4	4

EXTAP	1	0	2
EXTAP	1	48	3
EXTAP	1	96	4
EXTAP	1	144	5
NMTAP	2	192	4
NMTAP	2	288	4
NMTAP	3	0	2
NMTAP	3	48	3
NMTAP	3	96	4
NMTAP	3	144	5
NMTAP	4	192	4
NMTAP	4	288	4
NMTAP	5	0	3
NMTAP	5	48	4
NMTAP	5	96	5
NMTAP	5	144	6
NMTAP	6	192	4
NMTAP	6	288	4
NMTAP	7	0	5
NMTAP	7	48	4
NMTAP	7	96	3
NMTAP	7	144	2
NMTAP	8	192	2
NMTAP	8	192	4
BRTAP	8	288	1
BRTAP	8	288	5
NMHLD	9	0	1	96
NMTAP	9	96	0
NMHLD	9	192	6	96
NMTAP	9	288	7
NMTAP	10	0	1
NMTAP	10	48	1
NMTAP	10	96	0
NMTAP	10	192	2
NMTAP	10	192	3
NMTAP	10	288	3
NMTAP	10	288	4
NMHLD	11	0	5	96
NMTAP	11	96	4
NMHLD	11	192	2	96
NMTAP	11	288	3
NMTAP	12	0	5
NMTAP	12	48	5
NMTAP	12	96	4
NMTAP	12	192	3
NMTAP	12	192	5
NMTAP	12	288	2
NMTAP	12	288	6
NMHLD	13	0	6	96
NMTAP	13	96	7
NMHLD	13	192	1	96
NMTAP	13	288	0
NMTAP	14	0	6
NMTAP	14	48	6
NMTAP	14	96	7
NMTAP	14	192	4
NMTAP	14	192	5
NMTAP	14	288	3
NMTAP	14	288	6
NMTAP	15	0	1
NMTAP	15	48	1
NMTAP	15	96	0
NMTAP	15	96	1
NMTAP	15	192	6
NMTAP	15	240	6
NMTAP	15	288	6
NMSTR	15	288	7
NMSCR	15	288	7	96	288	4
BRTAP	16	288	7
NMSTR	17	0	6
NMSI_	17	0	6	96	96	2
NMSTR	17	192	0
NMSI_	17	192	0	96	96	4
NMSTR	18	0	7
NMSI_	18	0	7	96	96	3
NMHLD	18	192	1	96
NMHLD	18	288	3	96
BXSTR	19	0	2
NMSI_	19	0	2	96	96	7
NMSTR	19	192	6
NMSI_	19	192	6	96	96	3
NMSTR	20	0	1
NMSI_	20	0	1	96	96	7
NMHLD	20	192	6	96
NMHLD	20	288	5	96
BXSTR	21	0	4
NMSI_	21	0	4	96	96	0
NMSTR	21	192	1
NMSCR	21	192	1	96	96	4
NMSTR	22	0	5
NMSCR	22	0	5	96	96	0
NMTAP	22	192	1
NMTAP	22	288	2
BXTAP	23	0	1
BXTAP	23	0	3
NMTAP	23	96	2
NMTAP	23	96	4
NMTAP	23	144	2
NMTAP	23	144	4
NMTAP	23	240	3
NMTAP	23	240	5
NMSTR	23	288	3
NMSI_	23	288	3	96	96	0
NMTAP	23	288	5
BRTAP	24	192	7
NMTAP	24	288	2
NMTAP	24	288	6
NMTAP	25	0	6
NMTAP	25	48	5
NMTAP	25	96	4
NMHLD	25	144	3	96
EXTAP	25	288	2
EXTAP	25	288	4
NMTAP	26	0	2
NMTAP	26	48	2
NMTAP	26	96	3
NMTAP	26	144	3
NMTAP	26	192	1
NMTAP	26	288	1
NMTAP	26	288	4
EXTAP	27	0	6
NMTAP	27	48	5
NMTAP	27	96	4
NMHLD	27	144	3	96
EXTAP	27	288	2
EXTAP	27	288	4
NMTAP	28	0	5
NMTAP	28	48	5
NMTAP	28	96	4
NMTAP	28	144	4
NMTAP	28	192	6
NMTAP	28	288	3
NMTAP	28	288	7
NMTAP	29	0	6
NMTAP	29	48	5
NMTAP	29	96	4
NMHLD	29	144	3	96
EXTAP	29	288	2
EXTAP	29	288	4
EXTAP	30	0	1
NMTAP	30	48	1
NMSTR	30	96	0
NMSI_	30	96	0	96	96	3
NMSI_	30	96	0	96	96	5
NMTAP	31	0	4
NMTAP	31	48	4
NMTAP	31	96	2
NMTAP	31	144	2
NMTAP	31	192	5
NMTAP	31	240	5
NMTAP	31	288	1
NMTAP	31	336	1
NMTAP	32	0	6
NMTAP	32	48	6
NMTAP	32	96	0
NMTAP	32	144	0
NMTAP	32	192	0
NMTAP	32	240	0
NMTAP	32	288	1
NMTAP	32	288	7
BXHLD	33	0	3	768
BXTAP	33	0	5
NMTHO	35	0	0	768	C	0	M1
NMTTP	37	0	0	E	0	M1
NMTTP	38	0	0	C	0	M1
NMTTP	39	0	4	E	0	M1
NMTTP	40	0	0	C	0	M1
NMSTR	41	0	0
NMSCR	41	0	0	96	288	3
NMSTR	42	0	4
NMSCR	42	0	4	96	288	7
NMSTR	43	0	1
NMSCR	43	0	1	96	288	4
NMTHO	44	0	6	192	E	0	M1
NMTTP	44	192	4	E	0	M1
BXTAP	45	0	4
BXHLD	45	0	5	384
NMTAP	45	144	4
NMSTR	45	288	6
NMSCR	45	288	6	96	288	3
NMHLD	47	0	4	384
NMTAP	47	0	5
NMTAP	47	144	5
NMSTR	47	288	3
NMSCL	47	288	3	96	288	6
NMHLD	49	0	4	144
NMTAP	49	0	5
NMHLD	49	144	3	240
NMSTR	49	288	2
NMSCR	49	288	2	96	288	7
NMHLD	51	0	0	144
NMTAP	51	0	1
NMHLD	51	144	7	144
NMTAP	51	288	6
NMTHO	52	0	0	192	C	0	M1
EXTAP	52	288	0
EXTAP	52	288	7
BXTAP	53	0	1
BXTAP	53	0	6
NMTAP	53	96	2
NMTAP	53	144	2
NMTAP	53	192	3
NMTAP	53	288	0
NMTAP	53	288	4
NMTAP	54	0	1
NMTAP	54	48	1
NMTAP	54	96	3
NMTAP	54	192	2
NMTAP	54	192	4
NMTAP	54	288	3
NMTAP	54	288	5
BXTAP	55	0	2
BXTAP	55	0	6
NMTAP	55	96	5
NMTAP	55	144	5
NMTAP	55	192	4
NMTAP	55	288	3
NMTAP	55	288	7
NMTAP	56	0	6
NMTAP	56	48	6
NMTAP	56	96	4
NMTAP	56	192	3
NMTAP	56	192	5
NMTAP	56	288	2
NMTAP	56	288	4
BXTAP	57	0	1
BXTAP	57	0	5
NMTAP	57	96	6
NMTAP	57	144	6
NMTAP	57	192	7
NMTAP	57	288	0
NMTAP	57	288	4
NMTAP	58	0	5
NMTAP	58	48	5
NMTAP	58	96	7
NMTAP	58	192	0
NMTAP	58	192	6
NMTAP	58	288	1
NMTAP	58	288	7
BXTAP	59	0	2
BXTAP	59	0	6
NMTAP	59	96	1
NMTAP	59	144	1
NMTAP	59	192	0
NMTAP	59	288	1
NMTAP	59	288	7
NMHLD	60	0	1	96
NMHLD	60	0	7	96
NMHLD	60	144	2	96
NMHLD	60	144	6	96
NMTAP	60	288	3
NMTAP	60	288	5
NMSTR	61	0	6
NMSI_	61	0	6	96	96	3
NMTAP	61	192	2
NMTAP	61	240	2
NMSTR	61	288	2
NMSCL	61	288	2	96	144	7
NMSTR	61	288	3
NMSUL	61	288	3	96	144	6
NMTAP	62	288	0
NMTAP	62	288	5
NMSTR	63	0	1
NMSI_	63	0	1	96	96	4
NMTAP	63	0	4
NMTAP	63	192	5
NMTAP	63	240	5
NMSTR	63	288	4
NMSUR	63	288	4	96	144	1
NMSTR	63	288	5
NMSCR	63	288	5	96	144	0
NMTAP	64	288	2
NMTAP	64	288	7
NMTAP	65	0	6
NMTAP	65	48	6
NMTAP	65	96	4
NMTAP	65	144	4
NMTAP	65	192	5
NMTAP	65	288	2
NMTAP	65	288	4
NMTAP	66	0	1
NMTAP	66	48	1
NMTAP	66	96	3
NMTAP	66	144	3
NMTAP	66	192	2
NMTAP	66	288	3
NMTAP	66	288	5
NMTAP	67	0	2
NMTAP	67	48	2
NMTAP	67	96	6
NMTAP	67	144	6
NMTAP	67	192	0
NMTAP	67	240	0
EXSTR	67	288	0
NMSI_	67	288	0	96	144	3
BXSTR	67	288	7
BRSI_	67	288	7	96	144	4
NMTAP	68	288	2
NMTAP	68	288	5
BRTAP	69	0	0
BRTAP	69	0	1
NMTAP	69	96	6
NMTAP	69	96	7
NMTAP	69	144	6
NMTAP	69	144	7
NMTAP	69	240	4
NMTAP	69	240	5
NMTAP	69	288	4
NMTAP	69	288	5
NMHLD	70	0	1	288
NMTAP	70	96	3
NMTAP	70	144	3
NMTAP	70	240	0
NMTAP	70	288	0
BRTAP	71	0	4
BRTAP	71	0	6
NMTAP	71	96	2
NMTAP	71	96	3
NMTAP	71	144	2
NMTAP	71	144	3
NMTAP	71	240	0
NMTAP	71	240	1
NMTAP	71	288	0
NMTAP	71	288	1
NMHLD	72	0	6	288
NMTAP	72	96	7
NMTAP	72	144	7
NMTAP	72	240	4
NMTAP	72	288	4
BRTAP	73	0	0
BRTAP	73	0	5
NMTAP	73	96	6
NMTAP	73	96	7
NMTAP	73	144	6
NMTAP	73	144	7
NMTAP	73	240	0
NMTAP	73	240	1
NMTAP	73	288	0
NMTAP	73	288	1
NMHLD	74	0	2	96
NMHLD	74	0	3	96
NMHLD	74	144	3	96
NMHLD	74	144	4	96
NMTAP	74	288	4
NMTAP	74	288	5
BRTAP	75	0	6
NMTAP	75	48	6
NMTAP	75	96	4
NMTAP	75	144	4
NMTAP	75	192	5
NMTAP	75	240	5
NMTAP	75	288	3
NMTAP	75	336	3
EXTAP	76	0	7
NMTAP	76	96	0
NMTAP	76	96	6
NMTAP	76	144	0
NMTAP	76	144	6
NMTAP	76	240	2
NMTAP	76	240	4
NMTAP	76	288	2
NMTAP	76	288	4
BRTAP	77	0	1
BRTAP	77	0	5
NMTAP	77	96	6
NMTAP	77	144	7
NMSTR	77	192	0
NMSI_	77	192	0	96	96	4
NMHLD	78	0	6	96
NMTAP	78	96	5
NMHLD	78	144	5	96
NMTAP	78	240	4
NMTAP	78	288	4
NMTAP	79	0	2
NMTAP	79	0	6
NMTAP	79	96	1
NMTAP	79	144	0
NMSTR	79	192	7
NMSI_	79	192	7	96	96	3
NMHLD	80	0	1	96
NMTAP	80	96	2
NMHLD	80	144	2	96
NMTAP	80	240	3
NMTAP	80	288	3
BRTAP	81	0	1
BRTAP	81	0	5
NMTAP	81	96	0
NMTAP	81	144	7
NMSTR	81	192	6
NMSCL	81	192	6	96	96	3
NMHLD	82	0	2	96
NMTAP	82	96	1
NMHLD	82	144	1	96
NMTAP	82	240	0
NMTAP	82	288	0
NMTAP	83	0	0
NMTAP	83	0	7
NMTAP	83	96	6
NMTAP	83	144	6
NMTAP	83	192	7
NMSTR	83	288	6
NMSCL	83	288	6	96	192	1
NMSTR	83	288	7
NMSUL	83	288	7	96	192	0
BXTAP	84	288	0
BXTAP	84	288	7
NMSTR	85	0	0
NMSI_	85	0	0	96	48	4
NMSTR	85	0	1
NMSI_	85	0	1	96	48	3
NMSTR	85	192	6
NMSI_	85	192	6	96	48	4
NMSTR	85	192	7
NMSI_	85	192	7	96	48	3
EXTAP	86	0	0
EXTAP	86	0	1
NMTAP	86	96	2
NMTAP	86	96	3
NMTAP	86	144	2
NMTAP	86	144	3
NMTAP	86	240	4
NMTAP	86	240	5
NMTAP	86	288	4
NMTAP	86	288	5
NMSTR	87	0	6
NMSI_	87	0	6	96	48	4
NMSTR	87	0	7
NMSI_	87	0	7	96	48	3
NMSTR	87	192	0
NMSI_	87	192	0	96	48	4
NMSTR	87	192	1
NMSI_	87	192	1	96	48	3
EXTAP	88	0	6
EXTAP	88	0	7
NMTAP	88	96	4
NMTAP	88	96	5
NMTAP	88	144	4
NMTAP	88	144	5
NMTAP	88	240	2
NMTAP	88	240	3
NMTAP	88	288	2
NMTAP	88	288	3
NMSTR	89	0	0
NMSI_	89	0	0	96	48	4
NMSTR	89	0	1
NMSI_	89	0	1	96	48	5
NMSTR	89	192	6
NMSI_	89	192	6	96	48	2
NMSTR	89	192	7
NMSI_	89	192	7	96	48	3
EXTAP	90	0	1
EXTAP	90	0	4
NMTAP	90	96	0
NMTAP	90	96	5
NMTAP	90	144	0
NMTAP	90	144	5
NMTAP	90	240	2
NMTAP	90	240	7
NMTAP	90	288	2
NMTAP	90	288	7
NMTAP	91	0	0
NMTAP	91	48	1
NMHLD	91	96	2	96
NMTAP	91	192	0
NMTAP	91	240	7
NMSTR	91	288	6
NMSI_	91	288	6	96	96	2
CNSI_	92	96	2	0	96	4
CNSI_	92	192	4	0	96	0
NMTAP	92	288	1
BRTAP	93	0	2
BRTAP	93	0	7
NMTAP	93	96	3
NMTAP	93	144	3
NMTAP	93	192	5
NMTAP	93	240	4
NMTAP	93	288	6
NMTAP	93	336	6
NMTAP	94	0	0
NMTAP	94	96	1
NMTAP	94	96	7
NMTAP	94	144	1
NMTAP	94	144	7
NMTAP	94	240	2
NMTAP	94	240	3
NMTAP	94	288	2
NMTAP	94	288	3
BRTAP	95	0	0
BRTAP	95	0	5
NMTAP	95	96	4
NMTAP	95	144	4
NMTAP	95	192	2
NMTAP	95	240	3
NMTAP	95	288	1
NMTAP	95	336	1
NMTAP	96	0	7
NMTAP	96	96	0
NMTAP	96	96	6
NMTAP	96	144	0
NMTAP	96	144	6
NMTAP	96	240	4
NMTAP	96	240	5
NMTAP	96	288	4
NMTAP	96	288	5
NMHLD	97	0	2	96
NMTAP	97	96	0
NMTAP	97	144	0
NMTAP	97	192	1
NMTAP	97	192	7
NMTAP	97	288	3
NMHLD	97	288	5	96
NMTAP	98	0	7
NMTAP	98	48	7
NMTAP	98	96	0
NMTAP	98	96	6
NMTAP	98	192	2
NMTAP	98	192	4
NMTAP	98	288	2
NMTAP	98	288	4
NMTAP	99	0	1
NMTAP	99	48	1
NMTAP	99	96	3
NMTAP	99	144	2
NMTAP	99	192	5
NMTAP	99	240	5
NMTAP	99	288	4
NMTAP	99	336	6
NMTAP	100	0	0
NMTAP	100	48	0
NMTAP	100	96	0
NMTAP	100	144	0
NMTAP	100	192	1
NMTAP	100	192	7
NMTAP	100	240	1
NMTAP	100	240	7
BXSTR	100	288	2
BRSV_	100	288	2	96	96	0
BXSTR	100	288	6
BRSV_	100	288	6	96	96	4

T_REC_TAP	343
T_REC_BRK	19
T_REC_XTP	21
T_REC_BXX	14
T_REC_HLD	37
T_REC_XHO	0
T_REC_BHO	0
T_REC_BXH	2
T_REC_STR	40
T_REC_BST	0
T_REC_XST	1
T_REC_XBS	5
T_REC_TTP	5
T_REC_THO	3
T_REC_SLD	44
T_REC_BSL	3
T_REC_ALL	537
T_NUM_TAP	410
T_NUM_BRK	43
T_NUM_HLD	40
T_NUM_SLD	44
T_NUM_ALL	537
T_JUDGE_TAP	448
T_JUDGE_HLD	142
T_JUDGE_SLD	47
T_JUDGE_ALL	637
TTM_EACHPAIRS	121
TTM_SCR_TAP	205000
TTM_SCR_BRK	111800
TTM_SCR_HLD	40000
TTM_SCR_SLD	66000
TTM_SCR_ALL	422800
TTM_SCR_S	405950
TTM_SCR_SS	418500
TTM_RAT_ACV	10102

