VERSION	0.00.00	1.05.00
FES_MODE	0
BPM_DEF	140.000	140.000	140.000	140.000
MET_DEF	4	4
RESOLUTION	384
CLK_DEF	384
COMPATIBLE_CODE	MA2

BPM	0	0	140.000
MET	0	0	4	4

NMTAP	1	0	3
NMHLD	1	0	6	96
NMSTR	1	96	4
NMSUL	1	96	4	96	96	3
NMHLD	2	0	1	96
NMTAP	2	0	4
NMSTR	2	96	3
NMSUR	2	96	3	96	96	4
NMTAP	3	0	3
NMHLD	3	0	6	96
NMSTR	3	96	4
NMSUR	3	96	4	96	96	7
NMTAP	4	0	6
NMSTR	4	0	7
NMSV_	4	0	7	96	48	2
NMTTP	4	168	5	A	0	M1
NMTTP	4	216	0	C	0	M1
NMTTP	4	264	0	A	0	M1
NMTTP	4	264	1	D	0	M1
NMTAP	5	0	6
NMTAP	5	0	7
NMHLD	5	96	1	72
NMTAP	5	168	0
NMTAP	5	216	2
NMHLD	5	264	2	72
NMTAP	5	336	3
NMTAP	6	0	2
NMTAP	6	0	3
NMHLD	6	96	5	72
NMTAP	6	168	4
NMTAP	6	216	6
NMHLD	6	264	6	72
NMTAP	6	336	7
NMTAP	7	0	6
NMTAP	7	48	0
NMTAP	7	48	7
NMTAP	7	96	0
NMTAP	7	96	1
NMTAP	7	168	2
NMTAP	7	168	4
NMTAP	7	216	2
NMTAP	7	216	4
NMTAP	7	288	3
NMTAP	7	288	5
NMTAP	7	336	3
NMTAP	7	336	5
BRTAP	8	0	6
BRTAP	8	0	7
NMTAP	8	48	0
NMTAP	8	48	1
BRTAP	8	96	2
BRTAP	8	96	3
NMTAP	8	144	4
NMTAP	8	144	5
BRSTR	8	192	0
NMSI_	8	192	0	96	48	4
BRSTR	8	192	7
NMSI_	8	192	7	96	48	3
NMTAP	9	0	6
NMTAP	9	24	4
NMTAP	9	48	5
NMTAP	9	72	3
NMTAP	9	96	4
NMTAP	9	144	2
NMTAP	9	144	3
NMHLD	9	192	1	48
NMHLD	9	240	2	48
NMHLD	9	288	3	48
NMTAP	9	336	4
NMTAP	10	0	3
NMTAP	10	24	5
NMTAP	10	48	4
NMTAP	10	72	6
NMSTR	10	96	4
NMSV_	10	96	4	96	48	3
NMTAP	10	144	7
NMTAP	10	192	7
CNSCL	10	240	3	0	48	1
EXTAP	10	288	0
NMTAP	11	0	1
NMTAP	11	24	3
NMTAP	11	48	2
NMTAP	11	72	4
NMTAP	11	96	3
NMTAP	11	144	4
NMTAP	11	144	5
NMHLD	11	192	6	48
NMHLD	11	240	5	48
NMHLD	11	288	4	48
NMTAP	11	336	3
NMTAP	12	0	4
NMTAP	12	24	2
NMTAP	12	48	3
NMTAP	12	72	1
NMTAP	12	96	2
NMTAP	12	144	1
NMTAP	12	144	3
BXTAP	12	192	2
BXTAP	12	192	4
BXTAP	12	240	3
BXTAP	12	240	5
BXTAP	12	288	4
BXTAP	12	288	6
NMTAP	13	0	5
NMTAP	13	24	7
NMTAP	13	48	6
NMTAP	13	72	0
NMTAP	13	96	7
NMTAP	13	144	0
NMTAP	13	144	1
NMHLD	13	192	2	48
NMHLD	13	240	1	48
NMHLD	13	288	0	48
NMTAP	13	336	7
NMTAP	14	0	0
NMTAP	14	24	6
NMTAP	14	48	7
NMTAP	14	72	5
NMSTR	14	96	7
NMSV_	14	96	7	96	48	0
NMTAP	14	144	4
CNSCR	14	240	0	0	48	2
NMTTP	14	288	3	B	0	M1
NMTTP	14	288	3	A	0	M1
NMTAP	15	0	2
NMTAP	15	24	0
NMTAP	15	48	1
NMTAP	15	72	7
NMTAP	15	96	0
NMTAP	15	144	6
NMTAP	15	144	7
NMHLD	15	192	5	48
NMHLD	15	240	3	48
NMHLD	15	288	1	48
NMTAP	15	336	7
NMSTR	16	0	6
NMSI_	16	0	6	96	48	2
NMSTR	16	0	7
NMSI_	16	0	7	96	48	3
NMTAP	16	96	6
NMTAP	16	96	7
BXTAP	16	192	0
BXTAP	16	192	1
BXTAP	16	240	2
BXTAP	16	240	7
BXTAP	16	288	3
BXTAP	16	288	6
NMSTR	17	0	5
NMSI_	17	0	5	96	48	3
NMTAP	17	48	3
NMTAP	17	48	6
NMTAP	17	96	3
NMTAP	17	144	2
NMSTR	17	192	1
NMSI_	17	192	1	96	48	3
NMTAP	17	240	0
NMTAP	17	240	3
NMTAP	17	288	4
NMTAP	17	336	5
NMSTR	18	0	6
NMSI_	18	0	6	96	48	4
NMSTR	18	48	4
NMSI_	18	48	4	96	48	2
NMSTR	18	96	2
NMSCR	18	96	2	96	96	6
NMTAP	18	144	1
NMTAP	18	192	0
NMTTP	18	288	1	E	0	M1
NMSTR	19	0	2
NMSI_	19	0	2	96	48	4
NMTAP	19	48	1
NMTAP	19	48	4
NMTAP	19	96	4
NMTAP	19	144	5
NMSTR	19	192	6
NMSI_	19	192	6	96	48	4
NMTAP	19	240	4
NMTAP	19	240	7
NMTAP	19	288	3
NMTAP	19	336	2
EXTAP	20	0	1
EXTAP	20	0	3
EXSTR	20	96	3
NMSI_	20	96	3	96	24	5
EXSTR	20	96	4
NMSI_	20	96	4	96	48	6
EXSTR	20	192	3
NMSI_	20	192	3	96	48	1
EXSTR	20	192	4
NMSI_	20	192	4	96	24	2
CNSCR	20	216	5	0	24	6
EXTAP	20	288	3
EXTAP	20	288	4
CNSCL	20	312	2	0	24	1
EXSTR	21	0	1
NMSI_	21	0	1	96	48	7
NMTAP	21	48	1
NMTAP	21	96	7
NMTAP	21	144	6
NMSTR	21	192	5
NMSI_	21	192	5	96	48	7
NMTAP	21	240	4
NMTAP	21	288	7
NMTAP	21	336	0
NMSTR	22	0	1
NMSI_	22	0	1	96	48	7
NMTAP	22	48	2
NMSTR	22	96	6
NMSI_	22	96	6	96	48	2
NMTAP	22	144	5
NMHLD	22	192	1	48
CNSI_	22	240	2	0	48	6
EXTAP	22	288	1
NMTAP	22	336	0
EXTAP	22	336	5
NMTAP	23	0	0
NMTAP	23	0	4
NMTAP	23	48	0
NMTAP	23	48	3
NMTAP	23	96	3
NMTAP	23	96	7
NMTAP	23	144	3
NMTAP	23	144	7
NMTAP	23	192	3
NMTAP	23	192	6
NMTAP	23	240	3
NMTAP	23	240	6
NMTAP	23	288	3
NMTAP	23	288	5
NMTAP	23	336	3
NMTAP	23	336	5
NMSTR	24	0	3
NMSI_	24	0	3	96	24	5
NMSTR	24	0	4
NMSI_	24	0	4	96	24	2
EXTAP	24	96	3
EXTAP	24	96	4
CNSCL	24	120	2	0	24	1
CNSCR	24	120	5	0	24	6
BRTAP	24	192	0
BRTAP	24	192	7
NMHLD	25	0	0	96
NMTAP	25	0	1
NMTAP	25	96	3
NMTAP	25	168	1
NMHLD	25	192	1	48
NMTAP	25	240	2
NMTAP	25	288	1
NMTAP	25	336	0
NMTAP	25	336	3
NMTAP	26	0	4
NMHLD	26	0	7	96
NMTAP	26	96	5
NMTAP	26	168	6
NMHLD	26	192	6	48
NMTAP	26	240	5
NMTAP	26	288	6
NMTAP	26	336	4
NMTAP	26	336	7
NMTAP	27	0	0
NMHLD	27	0	3	96
NMTAP	27	96	2
NMTAP	27	168	1
NMTAP	27	192	0
NMTAP	27	240	0
NMTAP	27	240	1
NMTAP	27	288	0
NMTAP	27	288	7
NMTAP	27	336	6
NMTAP	27	336	7
NMTAP	28	0	0
NMTAP	28	0	5
NMTAP	28	96	4
NMTAP	28	96	6
NMTAP	28	168	6
NMTAP	28	192	7
NMTAP	28	240	0
NMTAP	28	240	6
NMTAP	28	288	1
NMTAP	28	288	7
NMTAP	28	336	0
NMHLD	28	336	1	336
NMTAP	29	0	2
NMTAP	29	48	3
NMTAP	29	96	4
NMTAP	29	144	5
NMTAP	29	192	6
NMTAP	29	240	7
NMTAP	29	288	0
NMTAP	29	336	2
NMTAP	29	336	3
NMTAP	30	0	0
NMTAP	30	0	1
NMTAP	30	48	7
NMTAP	30	96	6
NMTAP	30	96	7
NMTAP	30	144	5
NMTAP	30	192	3
NMTAP	30	192	4
NMTAP	30	240	2
NMTAP	30	288	0
NMTAP	30	288	1
NMTAP	30	336	3
NMTAP	30	336	6
NMTAP	31	0	2
NMTAP	31	24	2
NMTAP	31	48	5
NMTAP	31	72	5
NMTAP	31	96	1
NMTAP	31	120	1
NMTAP	31	144	4
NMTAP	31	168	4
NMTAP	31	192	0
NMTAP	31	216	0
NMTAP	31	240	3
NMTAP	31	264	3
NMTAP	31	288	7
NMTAP	31	312	7
NMTAP	31	336	2
NMTAP	31	360	2
BXSTR	32	0	6
NMSI_	32	0	6	96	48	2
BRTAP	32	96	6
BXTAP	32	216	0
BXTAP	32	216	4
BRTAP	32	264	2
BRTAP	32	264	6
BRTAP	32	288	2
BRTAP	32	288	6
NMTAP	33	0	3
NMTAP	33	0	5
NMSTR	33	48	0
NMSI_	33	48	0	96	48	4
NMTAP	33	48	1
NMTAP	33	96	3
NMTAP	33	96	4
NMTAP	33	144	0
NMTAP	33	144	6
NMTAP	33	192	7
NMTAP	33	216	7
NMTAP	33	264	3
NMHLD	33	264	6	72
NMTAP	33	336	5
NMTAP	33	360	6
NMTAP	34	0	3
NMTAP	34	24	4
NMTAP	34	48	2
NMTAP	34	72	5
NMTAP	34	96	0
NMTAP	34	120	7
NMTAP	34	144	2
NMHLD	34	168	3	48
NMTTP	34	216	0	A	0	M1
NMTTP	34	240	1	A	0	M1
NMTTP	34	264	2	A	0	M1
NMTAP	34	312	6
NMTAP	34	336	6
NMTAP	34	360	4
NMTAP	35	0	5
NMTAP	35	48	1
NMTAP	35	72	0
NMHLD	35	96	2	48
NMTAP	35	144	3
NMTAP	35	168	3
NMTAP	35	216	0
NMTAP	35	216	6
NMTAP	35	264	4
NMTAP	35	264	5
NMTAP	35	288	4
NMSTR	35	336	1
NMSCL	35	336	1	96	48	5
NMTAP	35	336	7
NMTAP	36	48	1
NMTAP	36	48	3
NMHLD	36	96	4	72
BXTAP	36	168	5
BRTAP	36	216	3
BRTAP	36	216	7
BRTAP	36	264	1
BRTAP	36	264	5
BRTAP	36	288	1
BRTAP	36	288	5
NMTAP	36	336	2
NMTAP	36	360	3
NMHLD	37	0	2	48
NMTAP	37	48	6
NMHLD	37	96	0	48
NMTAP	37	96	3
NMTAP	37	144	2
NMTAP	37	192	4
NMTAP	37	216	4
NMHLD	37	264	1	72
NMTAP	37	264	5
NMTAP	37	336	2
NMTAP	37	360	1
NMTAP	38	0	4
NMTAP	38	24	3
NMTAP	38	48	5
NMTAP	38	72	2
NMTAP	38	96	7
NMTAP	38	120	0
NMTAP	38	144	5
NMHLD	38	168	4	48
NMTTP	38	216	7	A	0	M1
NMTTP	38	240	6	A	0	M1
NMTTP	38	264	5	A	0	M1
NMTAP	38	312	1
NMTAP	38	336	1
NMTAP	38	360	3
NMHLD	39	0	2	48
NMTAP	39	48	6
NMTAP	39	72	4
NMHLD	39	96	5	48
NMTAP	39	144	7
NMTAP	39	168	6
NMTAP	39	192	0
NMTAP	39	216	5
NMTAP	39	240	0
NMTAP	39	264	7
NMTAP	39	288	1
NMTAP	39	312	0
NMTAP	39	336	2
NMTAP	39	360	7
NMSTR	40	0	3
NMSI_	40	0	3	96	48	7
NMTAP	40	96	3
BXTAP	40	168	4
BRTAP	40	216	1
BRTAP	40	216	5
BRTAP	40	264	3
BRTAP	40	264	7
BRTAP	40	288	3
BRTAP	40	288	7
NMTAP	40	336	2
NMTAP	40	336	6
NMSTR	41	0	1
NMSI_	41	0	1	96	48	3
NMTAP	41	48	0
NMTAP	41	48	4
NMTAP	41	96	1
NMSTR	41	96	5
NMSI_	41	96	5	96	48	2
NMTAP	41	144	6
NMTAP	41	192	0
NMTAP	41	192	5
NMTAP	41	240	7
NMTAP	41	288	1
NMTAP	41	288	5
NMSTR	41	336	6
NMSI_	41	336	6	96	48	2
NMSTR	42	0	2
NMSCL	42	0	2	96	48	0
NMSTR	42	48	0
NMSI_	42	48	0	96	48	4
NMTAP	42	96	7
NMTAP	42	144	7
CNSCR	42	192	4	0	48	6
EXTAP	42	216	1
NMTAP	42	240	2
NMTAP	42	264	3
NMTAP	42	312	6
NMTAP	42	336	6
NMTAP	42	360	4
NMTAP	43	0	5
NMTAP	43	48	2
NMTAP	43	72	3
NMTAP	43	96	2
NMTAP	43	144	1
NMHLD	43	168	7	48
NMTAP	43	216	3
NMTAP	43	264	6
NMHLD	43	288	0	48
NMSTR	43	336	4
NMSI_	43	336	4	96	48	0
NMTAP	44	48	2
BXTAP	44	48	4
NMHLD	44	96	3	48
BXTAP	44	168	0
BXTAP	44	168	3
BRTAP	44	216	4
BRTAP	44	216	7
BRTAP	44	264	0
BRTAP	44	264	3
BRTAP	44	288	0
BRTAP	44	288	3
NMSTR	45	0	6
NMSI_	45	0	6	96	48	4
NMTAP	45	48	1
NMTAP	45	48	7
NMSTR	45	96	2
NMSI_	45	96	2	96	48	5
NMTAP	45	96	6
NMTAP	45	144	1
NMTAP	45	192	2
NMTAP	45	240	0
NMTAP	45	288	2
NMTAP	45	288	6
NMSTR	45	336	1
NMSI_	45	336	1	96	48	5
NMSTR	46	0	5
NMSCR	46	0	5	96	48	7
NMSTR	46	48	7
NMSI_	46	48	7	96	48	3
NMTAP	46	96	0
NMTAP	46	144	0
CNSCL	46	192	3	0	48	1
EXTAP	46	216	6
NMTAP	46	240	5
NMTAP	46	264	4
EXTAP	46	288	0
NMTAP	46	312	1
NMTAP	46	336	2
NMTAP	46	360	3
EXTAP	47	0	4
NMTAP	47	0	6
NMTAP	47	48	6
NMTAP	47	72	7
EXTAP	47	96	4
NMTAP	47	144	1
NMTAP	47	168	0
EXTAP	47	192	3
NMTAP	47	240	6
NMTAP	47	264	7
EXTAP	47	288	3
NMTAP	47	336	1
NMTAP	47	360	0
EXSTR	48	0	4
BRSF_	48	0	4	96	48	0
BRTAP	48	96	4
BXTAP	48	216	2
BXTAP	48	216	6
BRTAP	48	264	0
BRTAP	48	264	4
BRTAP	48	288	0
BRTAP	48	288	4
NMSTR	49	0	2
NMSXR	49	0	2	96	192	4
NMSTR	49	96	7
NMSI_	49	96	7	96	96	5
NMSTR	50	0	5
NMSV_	50	0	5	96	96	6
NMSTR	50	96	7
NMSI_	50	96	7	96	96	2
CNSI_	50	192	6	0	48	4
CNSCL	50	240	4	0	48	3
NMSTR	51	0	1
NMSXR	51	0	1	96	240	6
NMSTR	51	96	4
NMSCR	51	96	4	96	24	5
CNSI_	51	216	5	0	120	2
EXSTR	52	0	2
NMSLR	52	0	2	96	96	7
EXSTR	52	0	6
NMSLR	52	0	6	96	96	3
EXTAP	52	288	2
EXTAP	52	288	6
NMHLD	53	0	4	96
NMTAP	53	0	5
NMSTR	53	96	5
NMSI_	53	96	5	96	48	2
NMTAP	53	168	3
NMTAP	53	216	1
CNSI_	53	240	2	0	48	4
NMHLD	53	264	0	120
NMHLD	54	0	3	96
NMSTR	54	96	2
NMSI_	54	96	2	96	48	5
NMTAP	54	168	4
NMTAP	54	216	6
CNSI_	54	240	5	0	48	3
NMHLD	54	264	7	120
NMHLD	55	0	4	96
NMSTR	55	96	5
NMSI_	55	96	5	96	48	2
NMTAP	55	168	3
NMTAP	55	216	1
NMTAP	55	264	0
NMSTR	55	288	0
BRSCR	55	288	0	96	48	3
NMTAP	56	0	0
BRSTR	56	0	4
BRSCR	56	0	4	96	48	7
BRTAP	56	96	1
NMTAP	56	96	4
BRTAP	56	192	2
BRTAP	56	192	6
NMTAP	56	240	5
NMTAP	56	264	5
EXTAP	56	288	3
EXTAP	56	288	4
NMSTR	57	0	2
NMSI_	57	0	2	96	48	4
NMTAP	57	0	4
NMTAP	57	48	6
NMSTR	57	48	7
NMSV_	57	48	7	96	48	4
NMTAP	57	96	2
NMTAP	57	96	5
NMTAP	57	144	7
NMTAP	57	192	2
NMTAP	57	216	2
NMTAP	57	264	3
NMHLD	57	264	6	72
NMTAP	57	336	5
NMTAP	57	360	6
NMTAP	58	0	0
NMTAP	58	24	7
NMTAP	58	48	3
NMTAP	58	72	4
NMTAP	58	96	1
NMTAP	58	120	2
NMTAP	58	144	0
NMHLD	58	168	7	48
NMTTP	58	216	4	A	0	M1
NMTTP	58	240	3	A	0	M1
NMTTP	58	264	2	A	0	M1
NMTAP	58	312	1
NMTAP	58	336	1
NMTAP	58	360	0
NMTAP	59	0	1
NMTAP	59	48	6
NMTAP	59	72	7
NMTAP	59	96	6
NMTAP	59	144	4
NMTAP	59	144	5
NMTAP	59	168	4
NMTAP	59	168	5
NMTAP	59	216	0
NMTAP	59	216	1
NMTAP	59	264	2
NMTAP	59	264	3
NMTAP	59	288	2
NMTAP	59	288	3
NMSTR	59	336	6
NMSCL	59	336	6	96	48	2
NMTAP	59	336	7
NMTAP	60	48	2
NMTAP	60	48	6
NMHLD	60	96	1	72
BXTAP	60	168	2
BRTAP	60	216	0
BRTAP	60	216	7
BRTAP	60	264	3
BRTAP	60	264	5
BRTAP	60	288	3
BRTAP	60	288	5
NMTAP	60	336	6
NMTAP	60	360	4
NMHLD	61	0	6	48
NMTAP	61	48	1
NMTAP	61	96	4
NMHLD	61	96	7	48
NMTAP	61	144	5
NMTAP	61	192	3
NMTAP	61	216	3
NMHLD	61	264	1	72
NMTAP	61	264	5
NMTAP	61	336	2
NMTAP	61	360	1
NMTAP	62	0	7
NMTAP	62	24	0
NMTAP	62	48	4
NMTAP	62	72	3
NMTAP	62	96	6
NMSTR	62	120	5
NMSI_	62	120	5	96	48	1
NMTAP	62	144	7
NMTAP	62	168	4
EXTAP	62	216	5
NMTAP	62	264	0
NMTAP	62	288	0
BXTAP	63	0	1
NMTAP	63	24	4
NMTAP	63	48	2
NMTAP	63	72	6
BXTAP	63	96	4
NMTAP	63	120	5
NMTAP	63	144	1
NMTAP	63	168	3
BXTAP	63	192	7
NMTAP	63	216	5
NMTAP	63	240	3
NMTAP	63	264	6
BXTAP	63	288	2
NMTAP	63	312	4
NMTAP	63	336	0
NMTAP	63	360	6
BRSTR	64	0	4
BRSF_	64	0	4	96	48	0
BRTAP	64	96	4
BXTAP	64	216	1
BXTAP	64	216	7
BRTAP	64	264	2
BRTAP	64	264	6
BRTAP	64	288	2
BRTAP	64	288	6
NMHLD	65	0	1	48
BRHLD	65	0	3	48
BRHLD	65	96	4	48
NMHLD	65	96	6	48
NMHLD	65	192	2	48
BRHLD	65	192	3	48
NMSTR	65	288	0
NMSV_	65	288	0	96	48	6
BRSTR	65	288	6
NMSV_	65	288	6	96	48	0
BXSTR	66	0	0
NMSCR	66	0	0	96	24	2
BXSTR	66	0	6
NMSCL	66	0	6	96	48	4
BXTAP	66	96	0
BXTAP	66	96	6
CNSI_	66	120	2	0	24	4
NMTTP	66	216	1	B	0	M1
NMTTP	66	216	5	B	0	M1
BRTAP	66	264	0
BRTAP	66	264	6
BRTAP	66	288	0
BRTAP	66	288	6

T_REC_TAP	397
T_REC_BRK	52
T_REC_XTP	21
T_REC_BXX	30
T_REC_HLD	53
T_REC_XHO	0
T_REC_BHO	3
T_REC_BXH	0
T_REC_STR	49
T_REC_BST	5
T_REC_XST	8
T_REC_XBS	3
T_REC_TTP	18
T_REC_THO	0
T_REC_SLD	61
T_REC_BSL	4
T_REC_ALL	704
T_NUM_TAP	493
T_NUM_BRK	97
T_NUM_HLD	53
T_NUM_SLD	61
T_NUM_ALL	704
T_JUDGE_TAP	583
T_JUDGE_HLD	85
T_JUDGE_SLD	65
T_JUDGE_ALL	733
TTM_EACHPAIRS	140
TTM_SCR_TAP	246500
TTM_SCR_BRK	252200
TTM_SCR_HLD	53000
TTM_SCR_SLD	91500
TTM_SCR_ALL	643200
TTM_SCR_S	614500
TTM_SCR_SS	633500
TTM_RAT_ACV	10153

