VERSION	0.00.00	1.05.00
FES_MODE	0
BPM_DEF	140.000	140.000	140.000	140.000
MET_DEF	4	4
RESOLUTION	384
CLK_DEF	384
COMPATIBLE_CODE	MA2

BPM	0	0	140.000
MET	0	0	4	4

NMSTR	1	0	1
NMSLR	1	0	1	96	192	5
NMSTR	2	0	6
NMSLL	2	0	6	96	192	2
NMSTR	3	0	2
NMSLL	3	0	2	96	192	6
NMSTR	4	0	6
NMSLL	4	0	6	96	192	2
NMHLD	5	0	1	96
NMTAP	5	0	3
NMTAP	5	96	3
NMHLD	5	192	2	96
NMTAP	5	192	3
NMTAP	5	288	3
NMTAP	6	0	3
NMHLD	6	0	4	96
NMTAP	6	96	3
NMTAP	6	192	3
NMHLD	6	192	5	96
NMTAP	6	288	3
NMTAP	7	0	6
NMTAP	7	48	6
NMTAP	7	96	4
NMTAP	7	192	1
NMTAP	7	240	1
NMTAP	7	288	3
BRTAP	8	0	0
BRTAP	8	0	1
BRTAP	8	96	6
BRTAP	8	96	7
BRTAP	8	192	3
BRTAP	8	192	4
BXTAP	8	288	2
BXTAP	8	288	5
NMTAP	9	0	1
NMTAP	9	48	1
NMTAP	9	96	0
NMTAP	9	192	1
NMTAP	9	192	7
NMTAP	9	288	0
NMTAP	9	288	5
NMTAP	10	0	6
NMTAP	10	48	7
NMSTR	10	96	0
NMSCR	10	96	0	96	96	3
NMTAP	11	0	6
NMTAP	11	48	6
NMTAP	11	96	7
NMTAP	11	192	0
NMTAP	11	192	6
NMTAP	11	288	2
NMTAP	11	288	7
NMTAP	12	0	1
NMTAP	12	48	0
NMSTR	12	96	7
BRSI_	12	96	7	96	96	2
BRSI_	12	96	7	96	96	4
NMTAP	13	0	1
NMTAP	13	48	1
NMTAP	13	96	3
NMTAP	13	192	4
NMTAP	13	192	6
NMTAP	13	288	1
NMTAP	13	288	7
NMTAP	14	0	1
NMTAP	14	48	2
NMSTR	14	96	3
NMSCL	14	96	3	96	96	0
NMSUL	14	96	3	96	96	7
NMTAP	15	0	6
NMTAP	15	48	6
NMTAP	15	96	4
NMTAP	15	144	4
NMHLD	15	192	5	96
NMHLD	15	288	2	96
NMTAP	16	0	0
NMTAP	16	48	0
NMTAP	16	96	0
BRTAP	16	192	1
BRTAP	16	192	7
BRTAP	16	288	3
BRTAP	16	288	5
NMSTR	17	0	1
NMSCL	17	0	1	96	96	6
NMTAP	17	0	3
NMTAP	17	192	5
NMTAP	17	240	5
NMTAP	17	288	4
NMTAP	17	288	5
NMTAP	18	0	3
NMTAP	18	0	4
NMSTR	18	96	2
NMSCL	18	96	2	96	96	7
NMSTR	18	96	3
NMSUL	18	96	3	96	96	7
NMTAP	19	0	4
NMSTR	19	0	6
NMSCR	19	0	6	96	96	1
NMTAP	19	192	2
NMTAP	19	240	2
NMTAP	19	288	2
NMTAP	19	288	3
NMTAP	20	0	5
NMTAP	20	48	5
NMTAP	20	96	4
NMTAP	20	96	5
BRTAP	20	192	7
BRTAP	20	240	7
BRTAP	20	288	0
BRTAP	20	288	6
NMSTR	21	0	2
NMSCR	21	0	2	96	96	5
NMTAP	21	0	7
NMTAP	21	192	6
NMTAP	21	240	6
NMTAP	21	288	6
NMTAP	21	288	7
NMTAP	22	0	0
NMTAP	22	0	7
NMSTR	22	96	0
NMSUR	22	96	0	96	96	5
NMSTR	22	96	1
NMSCR	22	96	1	96	96	4
NMTAP	23	0	6
NMTAP	23	48	6
NMTAP	23	96	0
NMTAP	23	144	0
NMTAP	23	192	7
NMTAP	23	240	7
NMTAP	23	288	1
NMTAP	23	336	1
BRTAP	24	0	0
BRSTR	24	0	1
NMSI_	24	0	1	96	48	5
BXTAP	24	192	7
NMTAP	25	0	6
NMHLD	25	96	6	1440
NMTAP	25	192	4
NMTAP	25	288	4
NMTTP	26	0	5	E	0	M1
NMTTP	26	96	6	E	0	M1
NMTTP	26	192	7	E	0	M1
NMTTP	26	288	0	E	0	M1
NMTTP	27	0	1	E	0	M1
NMTTP	27	96	0	C	0	M1
NMTTP	27	192	5	E	0	M1
NMTTP	27	288	4	E	0	M1
NMTTP	28	0	3	E	0	M1
NMTTP	28	96	0	C	0	M1
NMTTP	28	192	5	B	0	M1
NMTTP	28	192	6	B	0	M1
NMHLD	29	0	7	96
NMHLD	29	96	0	96
BXHLD	29	192	1	192
NMTTP	29	288	2	B	0	M1
NMTTP	29	288	3	B	0	M1
NMHLD	30	0	0	96
NMHLD	30	96	7	96
BXHLD	30	192	6	192
NMTTP	30	288	4	B	0	M1
NMTTP	30	288	5	B	0	M1
NMTAP	31	0	2
NMTAP	31	48	2
NMTAP	31	96	2
NMTAP	31	144	2
NMTAP	31	192	7
NMTAP	31	240	7
NMTAP	31	288	7
NMTAP	31	336	7
BRTAP	32	0	0
BRTAP	32	0	6
BRTAP	32	96	1
BRTAP	32	96	5
EXTAP	32	216	4
EXTAP	32	264	3
EXTAP	32	264	5
EXTAP	32	288	3
EXTAP	32	288	5
NMTAP	33	0	6
NMTAP	33	48	6
NMTAP	33	96	5
NMTAP	33	96	7
NMTAP	33	192	1
NMTAP	33	240	1
NMTAP	33	288	0
NMTAP	33	288	2
NMTAP	34	0	4
NMTAP	34	48	4
NMTAP	34	96	3
NMTAP	34	144	2
NMTAP	34	192	1
NMTAP	34	240	0
NMSTR	34	288	1
NMSCR	34	288	1	96	96	4
NMTAP	34	288	7
NMSTR	35	0	0
NMSCL	35	0	0	96	96	5
NMTAP	35	192	4
NMTAP	35	240	4
NMTAP	35	288	3
NMTAP	35	288	5
NMTAP	36	0	6
NMTAP	36	48	6
NMTAP	36	96	1
NMTAP	36	96	5
NMTAP	36	168	2
NMTAP	36	168	4
EXTAP	36	216	3
EXTAP	36	264	2
EXTAP	36	264	4
EXTAP	36	288	2
EXTAP	36	288	4
NMTAP	37	0	4
NMTAP	37	0	5
NMTAP	37	48	4
NMTAP	37	48	5
NMTAP	37	96	3
NMTAP	37	96	6
NMTAP	37	192	2
NMTAP	37	192	3
NMTAP	37	240	2
NMTAP	37	240	3
NMTAP	37	288	1
NMTAP	37	288	4
NMTAP	38	0	1
NMTAP	38	48	1
NMTAP	38	96	3
NMTAP	38	144	4
NMTAP	38	192	5
NMTAP	38	240	0
NMTAP	38	240	6
NMTAP	38	288	0
NMHLD	38	288	6	96
NMHLD	39	0	4	96
NMHLD	39	96	3	96
NMTAP	39	192	1
EXTAP	39	288	1
EXTAP	39	288	3
NMTAP	40	0	1
NMTAP	40	48	1
NMTAP	40	96	2
NMTAP	40	96	6
NMTAP	40	168	3
NMTAP	40	168	5
EXTAP	40	216	4
BXTAP	40	264	3
BXTAP	40	264	5
BXTAP	40	288	3
BXTAP	40	288	5
NMHLD	41	0	4	48
NMHLD	41	0	6	48
NMHLD	41	96	4	48
NMHLD	41	96	6	48
NMHLD	41	192	3	48
NMHLD	41	192	4	48
NMHLD	41	288	1	48
NMHLD	41	288	3	48
NMTAP	42	0	0
NMTAP	42	48	0
NMTAP	42	96	2
NMTAP	42	144	2
NMTAP	42	192	4
NMTAP	42	240	4
NMHLD	42	288	6	96
NMSTR	43	0	7
NMSI_	43	0	7	96	48	2
NMSTR	43	192	0
NMSI_	43	192	0	96	48	5
NMTAP	43	192	1
NMTAP	44	0	6
NMTAP	44	48	6
NMTAP	44	96	1
NMTAP	44	96	5
NMTAP	44	168	2
NMTAP	44	168	4
EXTAP	44	216	3
BXTAP	44	264	2
BXTAP	44	264	4
BXTAP	44	288	2
BXTAP	44	288	4
NMHLD	45	0	1	48
NMHLD	45	0	3	48
NMHLD	45	96	1	48
NMHLD	45	96	3	48
NMHLD	45	192	3	48
NMHLD	45	192	4	48
NMHLD	45	288	4	48
NMHLD	45	288	6	48
NMTAP	46	0	7
NMTAP	46	48	7
NMTAP	46	96	5
NMTAP	46	144	5
NMTAP	46	192	3
NMTAP	46	240	3
NMTAP	46	288	1
NMTAP	46	336	1
NMTAP	47	0	0
NMTAP	47	0	1
NMTAP	47	96	5
NMTAP	47	96	6
NMTAP	47	192	2
NMTAP	47	192	3
NMTAP	47	288	4
NMTAP	47	288	5
NMTAP	48	0	2
NMTAP	48	48	1
NMTAP	48	96	0
NMTAP	48	96	4
EXTAP	48	216	2
BXTAP	48	264	1
BXTAP	48	264	3
BXTAP	48	288	1
BXTAP	48	288	3
NMSTR	49	0	3
NMSCL	49	0	3	96	288	5
CNSUL	50	0	5	0	288	3
NMTTP	51	0	3	E	0	M1
NMTTP	51	96	2	E	0	M1
NMTTP	51	192	0	C	0	M1
NMTTP	51	192	0	E	0	M1
NMTTP	51	288	7	E	0	M1
NMTTP	52	0	6	E	0	M1
NMTTP	52	96	5	E	0	M1
NMTTP	52	192	0	C	0	M1
NMTTP	52	192	4	E	0	M1
EXHLD	53	0	0	384
NMTTP	53	192	2	B	0	M1
NMTTP	53	192	3	E	0	M1
NMTTP	53	288	4	B	0	M1
NMTTP	53	288	5	E	0	M1
NMHLD	54	0	6	384
NMTTP	54	192	7	B	0	M1
NMTTP	54	192	7	E	0	M1
NMTTP	54	288	5	B	0	M1
NMTTP	54	288	5	E	0	M1
NMTHO	55	0	4	192	E	0	M1
NMTTP	55	192	0	C	0	M1
BRTAP	56	0	0
BRTAP	56	0	7
BRTAP	56	96	1
BRTAP	56	96	6
NMTAP	56	192	3
NMTAP	56	240	4
BRTAP	56	288	2
BRSTR	56	288	5
NMSI_	56	288	5	96	48	0
NMSTR	57	0	1
NMSI_	57	0	1	96	48	4
NMTAP	57	96	7
NMTAP	57	192	6
NMTAP	57	240	6
NMSTR	57	288	6
NMSI_	57	288	6	96	48	4
NMSTR	57	288	7
NMSI_	57	288	7	96	48	3
NMTAP	58	96	0
NMTAP	58	96	1
NMTAP	58	192	2
NMTAP	58	240	3
NMTAP	58	288	1
NMTAP	58	288	4
NMTAP	59	0	3
NMTAP	59	0	6
NMTAP	59	96	0
NMTAP	59	96	1
NMTAP	59	144	0
NMTAP	59	144	1
NMTAP	59	192	0
NMTAP	59	192	1
NMTAP	59	288	4
NMTAP	59	288	6
NMTAP	60	0	2
NMTAP	60	48	2
NMTAP	60	96	1
NMTAP	60	96	5
NMTAP	60	168	0
NMTAP	60	168	6
EXTAP	60	216	7
EXTAP	60	264	0
EXTAP	60	264	6
EXTAP	60	288	0
EXSTR	60	288	6
NMSI_	60	288	6	96	48	3
NMSTR	61	0	2
NMSI_	61	0	2	96	48	7
NMTAP	61	96	4
NMTAP	61	192	5
NMTAP	61	240	5
NMSTR	61	288	4
NMSI_	61	288	4	96	48	1
NMSTR	61	288	5
NMSI_	61	288	5	96	48	0
NMTAP	62	96	2
NMTAP	62	96	7
NMTAP	62	192	0
NMTAP	62	192	4
NMTAP	62	240	0
NMTAP	62	240	4
NMTAP	62	288	0
NMTAP	62	288	4
NMTAP	63	0	6
NMTAP	63	0	7
NMTAP	63	96	0
NMTAP	63	96	2
NMTAP	63	192	4
NMTAP	63	192	5
NMTAP	63	288	1
NMTAP	63	288	3
NMTTP	64	0	5	B	0	M1
NMTTP	64	0	5	E	0	M1
NMTTP	64	0	6	E	1	M1
NMTTP	64	96	2	B	0	M1
NMTTP	64	96	2	E	1	M1
NMTTP	64	96	3	E	0	M1
BXTAP	64	216	0
BXTAP	64	216	7
BXTAP	64	264	1
BXTAP	64	264	6
BXSTR	64	288	1
NMSI_	64	288	1	96	96	4
BXTAP	64	288	6
CNSI_	65	96	4	0	96	7
CNSI_	65	192	7	0	96	2
CNSI_	65	288	2	0	96	5
NMHLD	66	0	6	168
NMHLD	66	96	0	72
BXTAP	66	216	1
BXTAP	66	216	7
BXTAP	66	264	2
BXTAP	66	264	6
BXTAP	66	288	2
BXTAP	66	288	6

T_REC_TAP	221
T_REC_BRK	24
T_REC_XTP	19
T_REC_BXX	26
T_REC_HLD	34
T_REC_XHO	1
T_REC_BHO	0
T_REC_BXH	2
T_REC_STR	25
T_REC_BST	2
T_REC_XST	1
T_REC_XBS	1
T_REC_TTP	40
T_REC_THO	1
T_REC_SLD	29
T_REC_BSL	2
T_REC_ALL	428
T_NUM_TAP	306
T_NUM_BRK	57
T_NUM_HLD	36
T_NUM_SLD	29
T_NUM_ALL	428
T_JUDGE_TAP	359
T_JUDGE_HLD	108
T_JUDGE_SLD	31
T_JUDGE_ALL	498
TTM_EACHPAIRS	104
TTM_SCR_TAP	153000
TTM_SCR_BRK	148200
TTM_SCR_HLD	36000
TTM_SCR_SLD	43500
TTM_SCR_ALL	380700
TTM_SCR_S	363750
TTM_SCR_SS	375000
TTM_RAT_ACV	10152

