VERSION	0.00.00	1.05.00
FES_MODE	0
BPM_DEF	180.000	180.000	180.000	180.000
MET_DEF	4	4
RESOLUTION	384
CLK_DEF	384
COMPATIBLE_CODE	MA2

BPM	0	0	180.000
MET	0	0	4	4

NMTAP	1	288	0
NMTAP	1	312	7
NMTAP	1	336	0
NMTAP	1	360	7
BRTAP	2	0	0
NMTAP	2	96	1
NMHLD	2	96	3	144
NMTAP	2	240	2
NMTAP	2	288	1
NMTAP	2	288	3
NMTAP	3	0	3
NMTAP	3	0	4
NMHLD	3	96	4	144
NMTAP	3	96	6
NMTAP	3	240	5
NMTAP	3	288	4
NMTAP	3	288	6
NMTAP	4	0	2
NMTAP	4	0	3
NMHLD	4	96	1	144
NMTAP	4	240	0
NMTAP	4	288	2
NMTAP	4	288	7
NMTAP	5	0	3
NMTAP	5	0	6
NMTAP	5	72	5
NMTAP	5	96	4
NMHLD	5	144	2	96
NMTAP	5	144	4
NMTAP	5	240	3
NMTAP	5	288	2
NMTAP	5	288	4
NMTAP	5	336	1
NMTAP	5	360	3
BRTAP	6	0	2
NMTAP	6	48	3
NMTAP	6	96	4
NMTAP	6	144	5
NMTAP	6	192	2
NMTAP	6	192	6
NMTAP	6	240	3
NMTAP	6	288	4
NMTAP	6	336	5
NMTAP	7	0	4
NMTAP	7	0	6
NMTAP	7	48	5
NMTAP	7	96	4
NMTAP	7	144	3
NMTAP	7	192	2
NMTAP	7	192	6
NMTAP	7	240	5
NMTAP	7	288	4
NMTAP	7	336	3
NMTTP	8	0	6	A	0	M1
NMTTP	8	48	5	A	0	M1
NMTTP	8	96	4	A	0	M1
NMTTP	8	144	3	A	0	M1
NMTTP	8	192	6	D	0	M1
NMTTP	8	240	5	D	0	M1
NMTTP	8	288	4	D	0	M1
NMTTP	8	336	3	D	0	M1
EXSTR	9	0	1
NMSI_	9	0	1	96	48	5
NMSTR	9	96	0
NMSI_	9	96	0	96	48	4
NMSTR	9	192	7
NMSI_	9	192	7	96	48	3
NMSTR	9	288	6
NMSI_	9	288	6	96	48	2
BRSTR	10	0	5
NMSI_	10	0	5	96	96	7
CNSCR	10	192	7	0	192	0
CNSI_	11	0	0	0	192	2
CNSI_	11	192	2	0	192	5
NMTHO	12	192	6	384	E	0	M1
NMTHO	13	0	2	192	E	0	M1
NMTTP	13	192	0	C	0	M1
BXTAP	14	0	1
BXSTR	14	0	7
NMSLL	14	0	7	96	192	0
NMSTR	14	192	0
NMSI_	14	192	0	96	96	5
NMSTR	15	0	1
NMSI_	15	0	1	96	96	5
CNSI_	15	0	5	0	96	1
NMSTR	15	192	2
NMSI_	15	192	2	96	96	5
CNSI_	15	192	5	0	96	2
BXHLD	16	0	0	96
CNSI_	16	0	5	0	96	3
NMHLD	16	192	1	96
NMHLD	16	192	3	96
BXTAP	17	0	2
BXHLD	17	0	4	96
NMTAP	17	192	3
NMTAP	17	240	3
NMTAP	17	264	4
BRTAP	17	288	2
BRTAP	17	288	5
NMSTR	18	0	1
NMSCR	18	0	1	96	96	4
NMTAP	18	96	0
NMSTR	18	192	7
NMSCR	18	192	7	96	96	2
NMTAP	18	288	6
NMSTR	19	0	5
NMSCR	19	0	5	96	96	0
NMTAP	19	96	4
NMSTR	19	192	3
NMSCR	19	192	3	96	96	6
NMTAP	19	288	2
NMSTR	20	0	1
NMSCL	20	0	1	96	96	6
NMTAP	20	96	2
NMSTR	20	192	3
NMSCL	20	192	3	96	96	0
NMTAP	20	288	4
NMSTR	21	0	5
NMSCL	21	0	5	96	96	2
NMTAP	21	96	6
NMSTR	21	192	7
NMSCL	21	192	7	96	96	4
NMTTP	21	288	0	C	0	M1
BRTAP	22	0	0
NMTAP	22	48	0
NMTAP	22	96	1
NMTAP	22	144	1
NMTAP	22	192	2
NMTAP	22	240	2
NMTAP	22	288	3
NMTAP	22	336	3
NMTAP	23	0	4
NMTAP	23	48	4
NMTAP	23	96	5
NMTAP	23	144	5
NMTAP	23	192	6
NMTAP	23	240	6
NMTAP	23	288	7
NMTAP	23	336	7
NMTAP	24	0	0
NMTAP	24	24	7
NMTAP	24	48	0
NMTAP	24	72	7
NMTAP	24	96	0
NMTAP	24	120	7
NMTAP	24	144	0
NMTAP	24	168	7
BRTAP	24	192	0
EXTAP	24	208	1
EXTAP	24	224	2
NMTAP	24	240	6
EXTAP	24	256	5
EXTAP	24	272	4
NMSTR	24	288	0
NMSI_	24	288	0	96	96	6
EXTAP	24	304	1
EXTAP	24	320	2
NMTAP	24	336	6
EXTAP	24	352	5
EXTAP	24	368	4
CNSI_	25	96	6	0	96	2
CNSI_	25	192	2	0	96	4
NMHLD	25	288	7	24
NMHLD	25	336	7	24
BRTAP	26	0	0
BRTAP	26	0	6
NMTAP	26	96	1
NMTAP	26	96	4
NMTAP	26	144	2
NMTAP	26	168	3
NMTAP	26	192	1
NMTAP	26	240	0
NMTAP	26	288	1
NMTAP	26	288	7
NMTAP	26	336	6
NMTAP	26	360	4
NMTAP	27	0	5
NMTAP	27	48	3
NMTAP	27	96	2
NMTAP	27	96	4
NMTAP	27	144	1
NMTAP	27	168	0
NMTAP	27	192	1
NMTAP	27	240	6
NMTAP	27	264	7
NMTAP	27	288	6
NMTAP	27	336	0
NMTAP	27	336	5
NMTAP	28	0	1
NMTAP	28	0	4
NMTAP	28	48	2
NMTAP	28	96	3
NMTAP	28	96	6
NMTAP	28	144	5
NMTAP	28	168	4
NMTAP	28	192	5
NMTAP	28	240	3
NMTAP	28	288	2
NMTAP	28	288	4
NMTAP	28	336	1
NMTAP	28	360	0
NMTAP	29	0	1
NMTAP	29	48	6
NMTAP	29	72	7
NMTAP	29	96	6
NMTAP	29	144	5
NMTAP	29	168	3
NMTAP	29	192	6
NMTAP	29	216	4
NMTAP	29	240	6
NMTAP	29	264	4
NMSTR	29	288	5
NMSCR	29	288	5	96	48	0
NMTAP	29	312	3
NMTAP	29	336	6
BRTAP	30	0	4
BRTAP	30	0	5
NMTAP	30	96	1
NMTAP	30	144	1
NMTAP	30	168	0
NMTAP	30	192	2
NMTAP	30	240	3
NMTAP	30	240	7
NMTAP	30	288	4
NMTAP	30	288	6
NMTAP	30	336	5
NMTAP	30	360	3
NMTAP	31	0	4
NMTAP	31	48	1
NMTAP	31	48	3
NMTAP	31	96	0
NMTAP	31	96	4
NMTAP	31	144	6
NMTAP	31	168	7
NMTAP	31	192	5
NMTAP	31	240	0
NMTAP	31	240	4
NMTAP	31	288	1
NMTAP	31	288	3
NMTAP	31	336	2
NMTAP	31	360	4
NMHLD	32	0	3	48
NMTAP	32	48	5
NMTAP	32	72	4
NMHLD	32	96	6	48
NMTAP	32	144	1
NMTAP	32	168	0
NMHLD	32	192	2	48
NMTAP	32	240	6
NMTAP	32	264	7
NMHLD	32	288	5	48
NMTAP	32	336	4
NMSTR	33	0	3
NMSI_	33	0	3	96	48	7
NMSTR	33	0	6
NMSI_	33	0	6	96	48	3
NMTAP	33	96	3
NMTAP	33	96	6
NMTAP	33	192	0
NMTAP	33	216	1
NMTAP	33	240	2
NMTAP	33	264	3
NMTAP	33	288	6
NMTAP	33	312	5
NMTAP	33	336	4
NMTAP	33	360	3
BRSTR	34	0	1
NMSI_	34	0	1	96	48	4
NMTAP	34	96	1
NMTAP	34	96	7
NMTAP	34	168	6
NMHLD	34	192	6	48
NMTAP	34	240	5
NMHLD	34	288	4	48
NMTAP	34	336	5
NMSTR	35	0	6
NMSI_	35	0	6	96	48	3
NMTAP	35	96	0
NMTAP	35	96	6
NMTAP	35	168	1
NMHLD	35	192	1	48
NMTAP	35	240	2
NMHLD	35	288	3	48
NMTAP	35	336	2
NMSTR	36	0	1
NMSI_	36	0	1	96	48	7
NMTAP	36	96	1
NMTAP	36	96	4
NMTAP	36	168	5
NMHLD	36	192	5	48
NMTAP	36	240	7
NMSTR	36	288	6
NMSI_	36	288	6	96	48	2
NMSI_	36	288	6	96	48	3
EXTAP	37	0	6
NMSTR	37	96	0
NMSI_	37	96	0	96	48	4
NMSI_	37	96	0	96	48	5
EXTAP	37	192	0
NMTAP	37	288	3
NMTAP	37	288	6
BRTAP	38	0	5
NMTAP	38	48	3
NMTAP	38	96	1
NMTAP	38	144	1
NMTAP	38	168	0
NMHLD	38	192	2	48
NMTAP	38	240	7
NMSTR	38	288	6
NMSI_	38	288	6	96	48	3
NMTAP	38	336	4
NMTAP	38	336	5
BRTAP	39	0	6
NMTAP	39	48	0
NMTAP	39	96	2
NMTAP	39	144	5
NMTAP	39	168	4
NMHLD	39	192	6	48
NMTAP	39	240	3
NMTAP	39	288	2
NMTAP	39	288	7
NMTAP	39	336	2
NMTAP	39	336	7
BRTAP	40	0	1
NMTAP	40	24	0
NMTAP	40	48	1
NMTAP	40	72	0
NMTAP	40	96	2
NMTAP	40	120	7
NMTAP	40	144	3
NMTAP	40	168	6
BRTAP	40	192	4
NMTAP	40	216	5
NMTAP	40	240	4
NMTAP	40	264	5
NMTAP	40	288	3
NMTAP	40	312	4
NMTAP	40	336	2
NMTAP	40	360	3
BRTAP	41	0	0
NMTTP	41	96	2	B	0	M1
NMTTP	41	96	3	B	0	M1
NMTTP	41	96	3	E	0	M1
BRTAP	41	96	6
BRTAP	41	192	0
NMTTP	41	192	4	B	0	M1
NMTTP	41	192	5	B	0	M1
NMTTP	41	192	5	E	0	M1
NMTAP	41	288	0
NMTAP	41	312	7
NMTAP	41	336	0
NMTAP	41	360	7
NMSTR	42	0	1
NMSCL	42	0	1	96	48	6
NMSTR	42	0	6
NMSCL	42	0	6	96	48	3
NMTAP	42	96	1
NMSTR	42	96	6
NMSLR	42	96	6	96	96	2
EXTAP	42	192	4
CNSI_	42	288	2	0	48	4
NMSTR	43	0	6
NMSI_	43	0	6	96	48	4
NMSTR	43	48	4
NMSV_	43	48	4	96	48	2
NMTAP	43	96	6
NMSTR	43	192	0
NMSI_	43	192	0	96	48	5
NMSI_	43	192	0	96	48	6
NMTAP	43	240	1
NMSTR	43	288	0
NMSCR	43	288	0	96	48	1
CNSI_	44	48	1	0	48	5
CNSCL	44	96	5	0	48	4
CNSI_	44	144	4	0	48	2
NMTTP	44	192	0	E	0	M1
NMTTP	44	216	1	E	0	M1
NMTTP	44	240	2	E	0	M1
NMTTP	44	264	3	E	0	M1
NMTTP	44	288	4	E	0	M1
NMTTP	44	312	5	E	0	M1
NMTTP	44	336	6	E	0	M1
NMTTP	44	360	7	E	0	M1
NMSTR	45	0	1
NMSLR	45	0	1	96	96	7
NMTAP	45	48	0
NMSTR	45	96	7
NMSUL	45	96	7	96	120	3
NMSUR	45	96	7	96	120	5
NMTAP	45	144	6
NMSTR	46	0	1
NMSCR	46	0	1	96	48	4
NMSTR	46	0	6
NMSCR	46	0	6	96	48	1
NMSTR	46	96	1
NMSLL	46	96	1	96	96	5
NMTAP	46	96	6
EXTAP	46	192	3
CNSI_	46	288	5	0	48	3
NMSTR	47	0	1
NMSI_	47	0	1	96	48	3
NMSTR	47	48	3
NMSV_	47	48	3	96	48	5
NMTAP	47	96	1
NMSTR	47	192	7
NMSI_	47	192	7	96	48	1
NMSI_	47	192	7	96	48	2
NMTAP	47	240	6
NMSTR	47	288	7
NMSCL	47	288	7	96	48	6
CNSI_	48	48	6	0	48	2
CNSCR	48	96	2	0	48	3
CNSI_	48	144	3	0	48	5
NMTAP	48	192	0
NMTAP	48	216	7
NMTAP	48	240	6
NMTAP	48	264	5
NMTAP	48	288	4
NMTAP	48	312	3
NMTAP	48	336	2
NMTAP	48	360	1
NMHLD	49	0	7	48
NMHLD	49	48	1	48
NMHLD	49	96	3	48
NMHLD	49	144	5	48
NMSTR	49	192	7
NMSI_	49	192	7	96	48	3
NMSI_	49	192	7	96	48	5
NMTAP	49	288	7
BRSTR	50	0	1
NMSI_	50	0	1	96	48	3
BRSTR	50	0	4
NMSI_	50	0	4	96	48	7
NMTAP	50	96	1
NMSTR	50	96	4
NMSLL	50	96	4	96	96	0
EXTAP	50	192	6
CNSI_	50	288	0	0	48	6
NMSTR	50	288	5
NMSLR	50	288	5	96	144	2
NMSTR	51	0	4
NMSI_	51	0	4	96	48	1
EXTAP	51	96	4
NMSTR	51	192	0
BRSI_	51	192	0	96	48	5
NMSTR	51	192	3
NMSI_	51	192	3	96	48	6
EXSTR	51	288	0
NMSI_	51	288	0	96	48	2
EXTAP	51	288	3
CNSI_	52	48	2	0	48	7
CNSI_	52	96	7	0	48	3
CNSCR	52	144	3	0	48	5
NMTTP	52	192	0	E	0	M1
NMTTP	52	216	1	E	0	M1
NMTTP	52	240	2	E	0	M1
NMTTP	52	264	3	E	0	M1
NMTTP	52	288	4	E	0	M1
NMTTP	52	312	5	E	0	M1
NMTTP	52	336	6	E	0	M1
NMTTP	52	360	7	E	0	M1
NMSTR	53	0	0
NMSI_	53	0	0	96	48	3
NMHLD	53	48	7	48
NMTAP	53	96	0
NMHLD	53	144	5	48
NMSTR	53	192	7
NMSI_	53	192	7	96	48	2
NMHLD	53	240	3	48
NMTAP	53	288	7
BRSTR	54	0	3
NMSI_	54	0	3	96	48	0
BRSTR	54	0	6
NMSI_	54	0	6	96	48	4
NMSTR	54	96	3
NMSLR	54	96	3	96	96	7
NMTAP	54	96	6
EXTAP	54	192	1
NMSTR	54	288	2
NMSLL	54	288	2	96	144	5
CNSI_	54	288	7	0	48	1
NMSTR	55	0	3
NMSI_	55	0	3	96	48	6
EXTAP	55	96	3
NMSTR	55	192	4
NMSI_	55	192	4	96	48	1
NMSTR	55	192	7
BRSI_	55	192	7	96	48	2
EXTAP	55	288	4
EXTAP	55	288	7
BRTAP	56	0	0
NMTAP	56	48	1
NMTAP	56	96	2
NMTAP	56	144	3
NMTTP	56	192	0	E	0	M1
NMTAP	56	192	4
NMTTP	56	240	1	E	0	M1
NMTAP	56	240	5
NMTTP	56	288	2	E	0	M1
NMTAP	56	288	6
NMTTP	56	336	3	E	0	M1
NMTAP	56	336	7
NMTAP	57	0	4
NMTAP	57	0	6
NMTAP	57	48	5
NMTAP	57	72	3
NMSTR	57	96	4
NMSI_	57	96	4	96	48	6
NMSTR	57	144	4
NMSI_	57	144	4	96	48	2
EXSTR	57	192	4
BRSI_	57	192	4	96	48	7
EXTAP	57	240	4
CNSI_	57	336	7	0	48	1
BRTAP	58	0	2
NMTAP	58	96	2
NMTAP	58	192	2
NMTAP	58	192	3
NMTAP	58	288	2
NMTAP	58	288	3
NMTAP	59	0	1
NMTAP	59	0	2
NMTAP	59	96	0
NMTAP	59	96	2
NMTAP	59	192	2
NMTAP	59	192	7
NMTAP	59	288	2
NMSTR	59	288	6
NMSCL	59	288	6	96	96	3
NMSTR	60	0	3
NMSCL	60	0	3	96	96	0
NMSTR	60	96	0
NMSCL	60	96	0	96	96	5
NMTAP	60	192	5
NMTAP	60	288	3
NMSTR	61	0	2
NMSI_	61	0	2	96	48	0
NMTAP	61	24	3
NMTAP	61	48	2
NMTAP	61	72	3
NMSTR	61	96	2
NMSV_	61	96	2	96	48	4
NMSTR	61	192	7
NMSCR	61	192	7	96	48	1
NMTAP	61	240	6
CNSUL	61	336	1	0	48	5
BRTAP	62	0	4
NMTAP	62	96	4
NMTAP	62	192	4
NMTAP	62	192	5
NMTAP	62	288	4
NMTAP	62	288	5
NMTAP	63	0	4
NMTAP	63	0	6
NMTAP	63	96	4
NMTAP	63	96	7
NMTAP	63	192	0
NMTAP	63	192	4
NMSTR	63	288	1
NMSI_	63	288	1	96	96	7
NMTAP	63	288	4
NMTAP	64	0	4
NMTAP	64	96	3
CNSI_	64	96	7	0	96	5
NMTAP	64	192	2
CNSI_	64	192	5	0	96	3
NMTAP	64	288	1
NMTAP	65	0	0
NMTAP	65	24	3
NMTAP	65	48	0
NMTAP	65	72	3
BRHLD	65	96	0	96
NMTAP	65	192	6
NMTAP	65	216	7
NMTTP	65	240	6	D	0	M1
NMTTP	65	252	5	A	0	M1
NMTTP	65	264	5	D	0	M1
NMTTP	65	276	4	A	0	M1
NMTAP	65	288	1
NMTAP	65	312	0
NMTTP	65	336	2	D	0	M1
NMTTP	65	348	2	A	0	M1
NMTTP	65	360	3	D	0	M1
NMTTP	65	372	3	A	0	M1
BRTAP	66	0	7
NMTAP	68	0	6
NMHLD	68	0	7	192
NMHLD	68	192	0	192
NMHLD	69	0	1	192
NMSTR	69	192	2
NMSLR	69	192	2	96	96	7
BXHLD	70	0	2	288
NMTTP	70	96	0	B	0	M1
NMTTP	70	96	1	B	0	M1
NMTTP	70	240	2	E	0	M1
NMTTP	70	288	3	E	0	M1
NMHLD	71	0	5	288
NMTTP	71	96	6	B	0	M1
NMTTP	71	96	7	B	0	M1
NMTTP	71	240	6	E	0	M1
NMTTP	71	288	5	E	0	M1
BXHLD	72	0	2	96
NMHLD	72	96	0	192
NMTTP	72	240	2	E	0	M1
NMTTP	72	288	3	E	0	M1
BXHLD	73	0	6	96
BXHLD	73	0	7	96
NMTAP	73	192	6
NMTAP	73	216	7
NMTAP	73	240	6
NMTTP	73	248	5	B	0	M1
NMTTP	73	256	4	B	0	M1
NMTTP	73	264	3	B	0	M1
NMTTP	73	272	3	E	0	M1
EXTAP	73	288	0
NMSTR	74	0	2
NMSI_	74	0	2	96	96	7
NMTAP	74	0	7
NMTAP	74	96	6
NMTAP	74	192	5
CNSI_	74	192	7	0	96	4
NMTAP	74	288	5
NMTAP	75	0	3
NMSTR	75	0	6
NMSI_	75	0	6	96	96	3
NMTAP	75	96	2
NMTAP	75	192	1
CNSI_	75	192	3	0	96	0
NMTAP	75	288	1
NMTAP	76	0	0
NMSTR	76	0	1
NMSI_	76	0	1	96	96	4
NMTAP	76	96	7
CNSI_	76	192	4	0	96	1
NMTAP	76	192	6
NMTAP	76	288	5
NMTAP	77	0	1
NMSTR	77	0	4
NMSI_	77	0	4	96	96	0
NMTAP	77	96	0
CNSI_	77	192	0	0	96	4
NMTAP	77	192	1
NMTAP	77	288	2
NMTAP	78	0	3
NMTAP	78	0	5
NMTAP	78	48	3
NMTAP	78	96	2
NMTAP	78	96	4
NMTAP	78	144	4
NMTAP	78	192	1
NMTAP	78	192	3
NMTAP	78	240	1
NMTAP	78	288	0
NMTAP	78	288	4
NMTAP	78	336	4
NMTAP	79	0	3
NMTAP	79	0	5
NMTAP	79	48	3
NMTAP	79	96	4
NMTAP	79	96	6
NMTAP	79	144	6
NMTAP	79	192	3
NMTAP	79	192	7
NMTAP	79	240	3
NMTAP	79	288	2
NMTAP	79	288	6
NMTAP	79	336	6
NMTAP	80	0	0
NMTAP	80	24	7
NMTAP	80	48	0
NMTAP	80	72	7
NMTAP	80	96	0
NMTAP	80	120	7
NMTAP	80	144	0
NMTAP	80	168	7
NMTAP	80	192	0
NMTAP	80	208	1
NMTAP	80	224	2
NMTAP	80	240	3
NMTAP	80	256	4
NMTAP	80	272	5
NMTAP	80	288	1
NMTAP	80	304	2
NMTAP	80	320	3
NMTAP	80	336	4
NMTAP	80	352	5
NMTAP	80	368	6
NMTHO	81	0	0	192	C	0	M1
NMTAP	81	0	7
NMSTR	81	192	7
NMSV_	81	192	7	96	48	2
NMSTR	81	288	0
BRSI_	81	288	0	96	48	4
BRSTR	82	0	0
NMSCR	82	0	0	96	48	3
NMTAP	82	0	6
NMTAP	82	48	7
NMTAP	82	72	7
NMTAP	82	96	0
NMTAP	82	144	5
NMSTR	82	192	4
NMSI_	82	192	4	96	48	0
NMSTR	82	240	6
NMSI_	82	240	6	96	48	3
NMTAP	82	288	4
NMTAP	82	336	6
NMSTR	83	0	1
NMSLL	83	0	1	96	96	3
NMTAP	83	48	2
NMTAP	83	96	3
NMTAP	83	144	4
NMSTR	83	192	5
NMSLL	83	192	5	96	96	0
NMTAP	83	240	6
NMTAP	83	288	3
NMTAP	83	336	2
NMSTR	84	0	1
NMSI_	84	0	1	96	48	4
NMTAP	84	48	7
NMTAP	84	72	7
NMTAP	84	96	1
NMTAP	84	144	0
NMSTR	84	192	7
NMSI_	84	192	7	96	48	2
NMTAP	84	240	6
NMTAP	84	288	5
NMTAP	84	288	7
NMTAP	84	336	4
NMSTR	85	0	1
NMSI_	85	0	1	96	48	7
NMSTR	85	0	3
NMSI_	85	0	3	96	48	7
NMTAP	85	48	2
NMSTR	85	96	1
NMSI_	85	96	1	96	48	4
NMSI_	85	96	1	96	48	5
NMTAP	85	96	3
NMTAP	85	192	1
NMTAP	85	288	3
NMTAP	85	288	6
NMTAP	85	336	2
NMTAP	85	336	6
NMTAP	86	0	1
BRSTR	86	0	7
NMSCL	86	0	7	96	48	4
NMTAP	86	48	0
NMTAP	86	72	0
NMTAP	86	96	7
NMTAP	86	144	2
NMSTR	86	192	3
NMSI_	86	192	3	96	48	7
NMSTR	86	240	1
NMSI_	86	240	1	96	48	4
NMTAP	86	288	3
NMTAP	86	336	1
NMSTR	87	0	6
NMSLR	87	0	6	96	96	4
NMTAP	87	48	5
NMTAP	87	96	4
NMTAP	87	144	3
NMSTR	87	192	2
NMSLR	87	192	2	96	96	7
NMTAP	87	240	1
NMTAP	87	288	4
NMTAP	87	336	5
NMSTR	88	0	6
NMSI_	88	0	6	96	48	3
NMTAP	88	48	0
NMTAP	88	72	0
NMTAP	88	96	6
NMTAP	88	144	7
NMSTR	88	192	0
NMSI_	88	192	0	96	48	5
NMTAP	88	240	1
NMTAP	88	288	0
NMTAP	88	288	2
NMTAP	88	336	3
NMTAP	89	0	6
NMTAP	89	24	4
NMTAP	89	48	6
NMTAP	89	72	4
NMTAP	89	96	5
NMTAP	89	120	4
NMTAP	89	144	5
NMTAP	89	168	4
NMTAP	89	192	5
NMTAP	89	204	6
NMTAP	89	216	7
NMTAP	89	228	0
NMTAP	89	240	1
NMTAP	89	252	2
NMTAP	89	264	3
NMTAP	89	276	4
NMTTP	89	288	0	C	1	M1
NMTAP	89	288	5
BRSTR	90	0	1
NMSI_	90	0	1	96	48	7
BRTAP	90	0	7
NMTAP	90	48	6
NMTAP	90	72	6
NMSTR	90	96	1
NMSI_	90	96	1	96	48	3
NMSTR	90	144	3
NMSI_	90	144	3	96	48	5
NMTAP	90	192	1
NMTAP	90	240	0
NMSTR	90	288	7
NMSI_	90	288	7	96	48	3
NMTAP	90	336	6
NMTAP	91	0	3
NMSTR	91	0	7
NMSI_	91	0	7	96	48	5
NMTAP	91	48	1
NMTAP	91	72	1
NMSTR	91	96	7
NMSLR	91	96	7	96	96	5
NMTAP	91	144	2
NMTAP	91	192	7
NMTAP	91	240	3
NMTAP	91	288	2
CNSI_	91	288	5	0	48	3
NMTAP	91	336	1
BRSTR	92	0	0
NMSI_	92	0	0	96	48	6
NMTAP	92	48	5
NMTAP	92	72	5
NMSTR	92	96	0
NMSI_	92	96	0	96	48	2
NMSTR	92	144	2
NMSI_	92	144	2	96	48	4
NMTAP	92	192	0
NMTAP	92	240	7
NMSTR	92	288	6
NMSI_	92	288	6	96	48	2
NMTAP	92	336	5
NMTAP	93	0	2
NMSTR	93	0	6
NMSI_	93	0	6	96	48	4
NMTAP	93	48	0
NMTAP	93	72	0
NMSTR	93	96	6
NMSLR	93	96	6	96	96	4
NMTAP	93	144	1
NMTAP	93	192	6
NMTAP	93	240	2
NMTAP	93	288	1
CNSI_	93	288	4	0	48	2
NMTAP	93	336	0
BRSTR	94	0	1
NMSCR	94	0	1	96	48	3
NMTAP	94	48	7
NMTAP	94	72	7
NMSTR	94	96	1
NMSI_	94	96	1	96	48	5
NMSTR	94	144	0
NMSI_	94	144	0	96	48	4
NMTAP	94	192	1
NMTAP	94	240	0
NMTAP	94	288	3
NMTAP	94	336	2
NMTAP	94	336	5
NMTAP	95	0	1
BRSTR	95	0	6
NMSCL	95	0	6	96	48	4
NMTAP	95	48	0
NMTAP	95	72	0
NMSTR	95	96	6
NMSI_	95	96	6	96	48	2
NMSTR	95	144	7
NMSI_	95	144	7	96	48	3
NMTAP	95	192	6
NMTAP	95	240	7
NMTAP	95	288	6
NMTAP	95	336	5
BRSTR	96	0	2
NMSI_	96	0	2	96	48	0
NMSI_	96	0	2	96	48	7
NMTAP	96	0	4
NMTAP	96	96	2
BRSTR	96	192	6
NMSI_	96	192	6	96	48	3
NMSI_	96	192	6	96	48	4
NMTAP	96	288	6
BXTAP	97	0	1
BXTAP	97	0	3
BXTAP	97	96	4
BXTAP	97	96	6
NMTAP	97	192	2
NMTAP	97	192	5
NMTAP	97	240	1
NMTAP	97	240	6
NMTAP	97	288	0
NMTAP	97	312	7
NMTAP	97	336	0
NMTAP	97	360	7
BRTAP	98	0	0
NMTAP	98	24	1
NMTAP	98	48	2
NMTAP	98	72	3
NMTAP	98	96	6
NMTAP	98	120	4
NMTAP	98	144	6
NMTAP	98	168	4
NMTAP	98	192	7
NMTAP	98	216	6
NMTAP	98	240	5
NMTAP	98	264	4
NMTAP	98	288	1
NMTAP	98	312	3
NMTAP	98	336	1
NMTAP	98	360	3
NMTAP	99	0	0
NMTAP	99	24	1
NMTAP	99	48	2
NMTAP	99	72	3
NMTAP	99	96	0
NMTAP	99	96	4
NMTAP	99	120	1
NMTAP	99	144	2
NMTAP	99	168	3
NMTAP	99	192	4
NMTAP	99	192	7
NMTAP	99	216	6
NMTAP	99	240	5
NMTAP	99	264	4
NMTAP	99	288	3
NMTAP	99	288	7
NMTAP	99	312	6
NMTAP	99	336	5
NMTAP	99	360	4
NMTAP	100	0	1
NMTAP	100	24	2
NMTAP	100	48	1
NMTAP	100	72	2
NMTAP	100	96	0
NMTAP	100	120	3
NMTAP	100	144	0
NMTAP	100	168	3
NMTAP	100	192	7
NMTAP	100	216	4
NMTAP	100	240	7
NMTAP	100	264	4
NMTAP	100	288	6
NMTAP	100	312	5
NMTAP	100	336	6
NMTAP	100	360	5
NMTAP	101	0	6
NMTAP	101	24	7
NMTAP	101	48	0
NMTAP	101	72	1
NMTAP	101	96	4
NMTAP	101	120	5
NMTAP	101	144	6
NMTAP	101	168	7
NMTAP	101	192	2
NMTAP	101	216	3
NMTAP	101	240	4
NMTAP	101	264	5
NMSTR	101	288	0
NMSI_	101	288	0	96	48	4
NMSI_	101	288	0	96	48	5
NMTAP	101	288	6
BRTAP	102	0	0
NMTAP	102	96	6
NMTAP	102	120	7
NMTAP	102	144	6
NMTAP	102	168	7
NMTAP	102	192	5
NMTAP	102	216	0
NMTAP	102	240	4
NMTAP	102	264	1
NMTAP	102	288	3
NMTAP	102	312	2
NMTAP	102	336	3
NMTAP	102	360	2
BRTAP	103	0	4
NMTAP	103	24	5
NMTAP	103	48	6
NMTAP	103	72	7
NMTAP	103	96	0
NMTAP	103	96	1
NMTAP	103	120	2
NMTAP	103	144	3
NMTAP	103	168	4
NMTAP	103	192	5
NMTAP	103	192	6
NMTAP	103	216	7
NMTAP	103	240	0
NMTAP	103	264	1
NMTAP	103	288	3
NMTAP	103	312	4
NMTAP	103	336	3
NMTAP	103	360	4
BRTAP	104	0	2
NMTAP	104	24	3
NMTAP	104	48	1
NMTAP	104	72	4
NMTAP	104	96	0
NMTAP	104	120	5
NMTAP	104	144	7
NMTAP	104	168	6
BRTAP	104	192	4
NMTAP	104	216	5
NMTAP	104	240	3
NMTAP	104	264	6
NMTAP	104	288	2
NMTAP	104	312	7
NMTAP	104	336	1
NMTAP	104	360	0
BRTAP	105	0	1
NMTAP	105	16	2
NMTAP	105	32	3
NMTAP	105	48	7
NMTAP	105	64	6
NMTAP	105	80	5
BRTAP	105	96	0
NMTAP	105	112	1
NMTAP	105	128	2
NMTAP	105	144	6
NMTAP	105	160	5
NMTAP	105	176	4
BRTAP	105	192	1
NMTAP	105	192	3
NMTAP	105	204	2
NMTAP	105	216	3
NMTAP	105	228	4
NMTAP	105	240	5
NMTAP	105	252	6
NMTAP	105	264	7
NMTAP	105	276	0
NMTAP	105	288	1
BRTAP	105	288	5
NMTAP	105	300	4
BXTAP	105	312	3
NMTAP	105	324	2
BXTAP	105	336	1
NMTAP	105	348	0
BXTAP	105	360	7
NMTAP	105	372	6
NMTHO	106	0	3	768	B	0	M1
NMTHO	106	0	3	1152	E	0	M1
NMTHO	106	0	4	960	E	0	M1
BXHLD	106	0	5	768
NMTTP	108	192	6	E	0	M1
NMTTP	109	0	0	E	0	M1
NMTTP	109	192	1	E	0	M1
EXTAP	110	0	2
EXTAP	110	0	3
NMSTR	110	96	2
NMSI_	110	96	2	96	96	5
NMTAP	110	96	4
NMTAP	110	192	5
CNSI_	110	288	5	0	96	3
NMTAP	110	288	6
NMTAP	111	0	7
NMTAP	111	96	3
NMSTR	111	96	7
NMSI_	111	96	7	96	96	4
NMTAP	111	192	2
NMTAP	111	288	1
CNSI_	111	288	4	0	96	2
NMHLD	112	0	0	96
NMTHO	112	96	2	96	A	0	M1
NMTHO	112	96	3	96	E	0	M1
NMHLD	112	192	7	96
NMTHO	112	288	5	96	E	0	M1
NMTHO	112	288	5	96	A	0	M1
NMTAP	113	0	0
NMTAP	113	96	0
NMTAP	113	192	0
NMTAP	113	192	5
NMTAP	113	216	7
NMTAP	113	240	6
NMTAP	113	264	5
NMTAP	113	288	4
NMTTP	113	288	5	E	0	M1
NMTAP	113	312	3
NMTTP	113	312	6	E	0	M1
NMTAP	113	336	2
NMTTP	113	336	7	E	0	M1
NMTTP	113	360	0	E	0	M1
NMTAP	113	360	1

T_REC_TAP	623
T_REC_BRK	31
T_REC_XTP	23
T_REC_BXX	9
T_REC_HLD	33
T_REC_XHO	0
T_REC_BHO	1
T_REC_BXH	7
T_REC_STR	100
T_REC_BST	14
T_REC_XST	3
T_REC_XBS	1
T_REC_TTP	66
T_REC_THO	10
T_REC_SLD	124
T_REC_BSL	4
T_REC_ALL	1049
T_NUM_TAP	815
T_NUM_BRK	67
T_NUM_HLD	43
T_NUM_SLD	124
T_NUM_ALL	1049
T_JUDGE_TAP	870
T_JUDGE_HLD	179
T_JUDGE_SLD	128
T_JUDGE_ALL	1177
TTM_EACHPAIRS	110
TTM_SCR_TAP	407500
TTM_SCR_BRK	174200
TTM_SCR_HLD	43000
TTM_SCR_SLD	186000
TTM_SCR_ALL	810700
TTM_SCR_S	779900
TTM_SCR_SS	804000
TTM_RAT_ACV	10083

