VERSION	0.00.00	1.05.00
FES_MODE	0
BPM_DEF	180.000	180.000	180.000	180.000
MET_DEF	4	4
RESOLUTION	384
CLK_DEF	384
COMPATIBLE_CODE	MA2

BPM	0	0	180.000
MET	0	0	4	4

NMTAP	2	0	2
NMTAP	2	96	3
NMTAP	2	192	4
NMTAP	2	288	5
NMTTP	3	0	2	B	0	M1
NMTTP	3	96	3	B	0	M1
NMTTP	3	192	4	B	0	M1
NMTTP	3	288	5	B	0	M1
NMTAP	4	0	2
NMTAP	4	96	3
NMTAP	4	192	4
NMTAP	4	288	5
NMTAP	5	0	4
NMTAP	5	0	6
NMTAP	5	96	4
NMSTR	5	96	6
NMSCR	5	96	6	96	96	1
BRTAP	6	0	2
NMTAP	6	96	3
NMTAP	6	192	4
NMHLD	6	288	5	288
NMTAP	7	0	2
NMTAP	7	96	3
NMTAP	7	192	4
NMHLD	7	288	5	384
NMTTP	8	0	2	B	0	M1
NMTTP	8	96	3	B	0	M1
NMTTP	8	192	4	B	0	M1
NMTTP	8	288	5	B	0	M1
NMTTP	9	0	7	E	0	M1
NMTTP	9	0	7	A	1	M1
NMTTP	9	0	7	D	0	M1
NMTTP	9	96	1	B	0	M1
NMTTP	9	96	1	A	0	M1
NMTTP	9	96	2	D	1	M1
NMTTP	9	192	4	E	0	M1
NMTTP	9	192	4	A	1	M1
NMTTP	9	192	4	D	0	M1
BXSTR	9	288	2
NMSI_	9	288	2	96	96	0
BXTAP	9	288	6
CNSCL	10	96	0	0	96	7
CNSI_	10	192	7	0	96	5
CNSI_	10	288	5	0	288	2
NMHLD	12	0	1	192
NMHLD	12	192	0	192
NMHLD	13	0	7	192
NMHLD	13	192	6	192
BRSTR	14	0	4
NMSI_	14	0	4	96	144	7
CNSI_	14	240	7	0	144	2
CNSUL	15	0	2	0	192	4
BXHLD	16	0	3	384
BXSTR	16	0	7
BRSI_	16	0	7	96	144	2
CNSUL	16	240	2	0	144	4
CNSI_	17	0	4	0	192	7
EXTAP	17	240	0
EXTAP	17	288	0
NMTAP	18	0	1
NMTAP	18	0	7
NMTAP	18	96	1
NMTAP	18	192	0
NMTAP	18	192	1
NMTAP	18	288	1
NMTAP	19	0	1
NMTAP	19	0	2
NMTAP	19	96	1
NMTAP	19	192	1
NMTAP	19	192	3
NMTAP	19	288	1
NMTAP	20	0	1
NMHLD	20	0	4	96
NMTAP	20	96	1
NMTAP	20	192	1
NMHLD	20	192	3	96
NMTAP	20	288	1
NMTAP	21	0	1
NMHLD	21	0	2	96
NMTAP	21	96	1
NMHLD	21	192	0	96
NMTAP	21	192	1
NMTAP	21	288	1
NMTAP	22	0	7
NMTAP	22	48	7
NMTAP	22	96	1
NMTAP	22	144	1
NMTAP	22	192	6
NMTAP	22	240	6
NMTAP	22	288	0
NMTAP	22	336	0
NMTAP	23	0	5
NMTAP	23	48	5
NMTAP	23	96	3
NMTAP	23	144	3
NMTAP	23	192	4
NMTAP	23	240	4
NMSTR	23	288	2
NMSCL	23	288	2	96	192	5
CNSUR	24	192	5	0	192	3
BXHLD	25	0	4	288
NMTAP	25	288	3
BRTAP	26	0	3
BRTAP	26	0	4
NMTAP	26	96	1
NMTAP	26	144	1
NMTAP	26	192	3
NMTAP	26	288	5
NMTAP	26	336	5
NMTAP	27	0	4
NMTAP	27	96	2
NMTAP	27	144	2
NMTAP	27	192	3
NMTAP	27	288	6
NMTAP	27	336	6
NMHLD	28	0	4	96
NMTAP	28	96	5
NMTAP	28	144	5
NMTAP	28	192	4
NMTAP	28	240	4
NMTAP	28	288	6
NMTAP	28	336	6
NMSTR	29	0	0
NMSCR	29	0	0	96	96	3
NMSTR	29	192	7
NMSCL	29	192	7	96	96	4
BRTAP	30	0	2
NMTAP	30	96	1
NMTAP	30	144	1
NMTAP	30	192	0
NMTAP	30	288	5
NMTAP	30	336	5
NMTAP	31	0	7
NMTAP	31	96	2
NMTAP	31	144	2
NMTAP	31	192	0
NMTAP	31	288	6
NMTAP	31	336	6
NMHLD	32	0	7	96
NMTAP	32	96	5
NMTAP	32	144	5
NMTAP	32	192	0
NMTAP	32	240	0
NMTAP	32	288	4
NMTAP	32	336	4
NMSTR	33	0	1
NMSCR	33	0	1	96	96	4
NMTAP	33	192	5
NMTAP	33	288	0
NMTAP	33	312	7
NMTAP	33	336	0
NMTAP	33	360	7
BXTAP	34	0	0
NMTAP	34	96	7
NMTAP	34	144	6
NMHLD	34	192	5	96
NMTAP	34	288	7
NMTAP	34	336	0
NMHLD	35	0	1	96
NMTAP	35	96	0
NMTAP	35	144	7
NMHLD	35	192	6	96
NMTAP	35	288	4
NMTAP	35	336	3
BXHLD	36	0	2	96
NMTAP	36	96	3
NMTAP	36	144	4
NMHLD	36	192	5	96
NMSTR	36	288	4
NMSCL	36	288	4	96	96	1
NMSTR	37	96	7
NMSCL	37	96	7	96	96	4
NMTAP	37	288	2
BRTAP	38	0	1
BRTAP	38	0	3
NMTAP	38	96	2
NMTAP	38	96	3
NMTAP	38	192	7
NMTAP	38	240	7
NMTAP	38	288	0
BRTAP	39	0	4
BRTAP	39	0	6
NMTAP	39	96	4
NMTAP	39	96	5
NMTAP	39	192	0
NMTAP	39	240	0
NMTAP	39	288	7
BRTAP	40	0	0
BRTAP	40	0	1
NMTAP	40	96	2
NMTAP	40	96	3
BRTAP	40	192	6
BRTAP	40	192	7
NMTAP	40	288	4
NMTAP	40	288	5
BRTAP	41	0	5
BRTAP	41	0	6
BRTAP	41	96	1
BRTAP	41	96	2
NMTAP	41	192	0
NMTAP	41	192	7
NMTAP	41	288	0
NMTAP	41	312	7
NMTAP	41	336	0
NMTAP	41	360	7
BXSTR	42	0	0
NMSI_	42	0	0	96	48	4
NMSTR	42	192	1
NMSI_	42	192	1	96	48	3
NMSTR	42	192	7
NMSI_	42	192	7	96	48	5
EXSTR	43	0	4
NMSI_	43	0	4	96	48	1
NMSI_	43	0	4	96	48	2
NMSTR	43	192	4
NMSI_	43	192	4	96	48	6
NMSI_	43	192	4	96	48	7
NMSTR	44	0	0
NMSI_	44	0	0	96	48	2
NMSTR	44	192	6
NMSI_	44	192	6	96	48	4
NMSTR	44	192	7
NMSI_	44	192	7	96	48	3
NMTAP	45	0	0
NMTAP	45	0	1
NMTAP	45	96	0
NMTAP	45	96	1
NMTAP	45	144	2
NMTAP	45	144	7
BXHLD	45	192	3	96
BXHLD	45	192	6	96
NMSTR	46	0	7
NMSI_	46	0	7	96	48	3
NMSTR	46	192	0
NMSI_	46	192	0	96	48	2
NMSTR	46	192	6
NMSI_	46	192	6	96	48	4
NMSTR	47	0	3
NMSI_	47	0	3	96	48	5
NMSI_	47	0	3	96	48	6
NMSTR	47	192	3
NMSI_	47	192	3	96	48	0
NMSI_	47	192	3	96	48	1
NMSTR	48	0	7
NMSI_	48	0	7	96	48	5
NMSTR	48	192	0
NMSI_	48	192	0	96	48	4
NMSTR	48	192	1
NMSI_	48	192	1	96	48	3
NMTAP	49	0	6
NMTAP	49	48	6
NMTAP	49	96	7
NMTAP	49	144	7
NMHLD	49	192	5	96
BRTAP	49	288	0
NMSTR	50	0	1
NMSI_	50	0	1	96	48	3
NMSTR	50	96	7
NMSI_	50	96	7	96	48	5
EXTAP	50	192	4
NMTAP	50	288	4
NMSTR	51	0	5
NMSI_	51	0	5	96	48	2
NMSI_	51	0	5	96	48	3
NMSTR	51	192	1
NMSI_	51	192	1	96	48	6
NMSI_	51	192	1	96	48	7
NMSTR	52	0	5
NMSI_	52	0	5	96	48	3
NMSTR	52	192	0
NMSI_	52	192	0	96	48	6
NMSTR	52	192	1
NMSI_	52	192	1	96	48	5
EXTAP	53	0	4
EXTAP	53	0	7
NMHLD	53	96	6	48
NMHLD	53	96	7	48
NMHLD	53	192	6	48
NMHLD	53	192	7	48
NMHLD	53	288	0	48
NMHLD	53	288	5	48
NMSTR	54	0	6
NMSI_	54	0	6	96	48	4
NMSTR	54	96	0
NMSI_	54	96	0	96	48	2
EXTAP	54	192	3
NMTAP	54	288	3
NMSTR	55	0	2
NMSI_	55	0	2	96	48	4
NMSI_	55	0	2	96	48	5
NMSTR	55	192	6
NMSI_	55	192	6	96	48	0
NMSI_	55	192	6	96	48	1
NMSTR	56	0	2
NMSI_	56	0	2	96	48	4
NMSTR	56	192	6
NMSI_	56	192	6	96	48	2
NMSTR	56	192	7
NMSI_	56	192	7	96	48	1
EXTAP	57	0	0
EXTAP	57	0	3
NMTAP	57	96	1
NMTAP	57	144	1
NMTAP	57	192	3
NMTAP	57	240	3
BRTAP	57	288	2
BRTAP	57	288	4
NMTTP	58	0	6	E	0	M1
NMTTP	58	96	7	E	0	M1
NMTTP	58	192	0	E	0	M1
NMTTP	58	288	1	E	0	M1
NMTTP	59	0	2	E	0	M1
NMTTP	59	96	3	E	0	M1
NMTTP	59	192	4	E	0	M1
NMTTP	59	288	5	E	0	M1
NMHLD	60	0	6	96
NMTAP	60	96	7
NMHLD	60	192	5	96
NMSTR	60	288	4
NMSI_	60	288	4	96	96	2
CNSI_	61	96	2	0	96	5
CNSI_	61	192	5	0	96	1
NMTTP	62	0	1	E	0	M1
NMTTP	62	96	0	E	0	M1
NMTTP	62	192	7	E	0	M1
NMTTP	62	288	6	E	0	M1
NMTTP	63	0	5	E	0	M1
NMTTP	63	96	4	E	0	M1
NMTTP	63	192	3	E	0	M1
NMTTP	63	288	2	E	0	M1
NMHLD	64	0	0	96
NMHLD	64	96	1	96
NMHLD	64	192	2	96
NMSTR	64	288	3
NMSI_	64	288	3	96	96	7
CNSI_	65	96	7	0	96	5
CNSI_	65	192	5	0	96	1
BXHLD	66	0	0	1152
NMTTP	67	0	4	E	0	M1
NMTTP	67	192	3	E	0	M1
NMTHO	68	0	3	576	B	0	M1
NMTTP	69	192	1	B	0	M1
NMTTP	69	192	2	B	0	M1
BXHLD	70	0	7	384
NMTHO	71	0	5	192	B	0	M1
NMTHO	71	0	5	192	E	0	M1
BXSTR	72	0	3
NMSCL	72	0	3	96	96	0
NMTAP	72	192	7
BXSTR	73	0	6
NMSI_	73	0	6	96	96	2
NMTAP	73	192	1
NMTAP	73	240	1
NMTAP	73	288	3
NMTAP	73	336	3
NMTAP	74	0	2
NMHLD	74	96	2	96
NMTAP	74	192	1
NMHLD	74	288	1	96
NMTAP	75	0	0
NMHLD	75	96	0	96
NMTAP	75	192	7
NMHLD	75	288	7	96
NMTAP	76	0	6
NMHLD	76	96	6	96
NMTAP	76	192	5
NMHLD	76	288	5	96
NMTAP	77	0	4
NMTAP	77	96	4
NMTAP	77	96	5
NMTAP	77	192	2
NMTAP	77	288	2
NMTAP	77	288	3
NMTAP	78	0	1
NMTAP	78	48	1
NMTAP	78	96	3
NMTAP	78	144	3
NMTAP	78	192	2
NMTAP	78	240	2
NMTAP	78	288	5
NMTAP	78	336	5
NMTAP	79	0	4
NMTAP	79	48	4
NMTAP	79	96	6
NMTAP	79	144	6
NMTAP	79	192	2
NMTAP	79	240	2
NMTAP	79	288	5
NMTAP	79	336	5
NMTAP	80	0	3
NMTAP	80	24	4
NMTAP	80	48	3
NMTAP	80	72	4
NMSTR	80	96	3
NMSUL	80	96	3	96	192	0
NMTAP	80	120	4
NMTAP	80	144	3
NMTAP	80	168	4
NMTHO	81	0	0	192	C	0	M1
BRTAP	82	0	0
BRTAP	82	0	7
NMTAP	82	96	0
NMTAP	82	96	7
NMTAP	82	192	4
NMTAP	82	192	6
NMTAP	82	288	1
NMTAP	82	288	3
NMTAP	83	0	0
NMTAP	83	0	1
NMTAP	83	96	0
NMTAP	83	96	1
NMTAP	83	192	5
NMTAP	83	192	7
NMTAP	83	288	2
NMTAP	83	288	4
NMTAP	84	0	0
NMTAP	84	0	1
NMTAP	84	96	0
NMTAP	84	96	1
NMTAP	84	192	5
NMTAP	84	192	7
NMTAP	84	288	2
NMTAP	84	288	4
NMTAP	85	0	1
NMTAP	85	48	1
NMSTR	85	96	0
NMSI_	85	96	0	96	96	3
NMSI_	85	96	0	96	96	5
BRTAP	86	0	4
BRTAP	86	0	6
NMTAP	86	96	1
NMTAP	86	144	1
NMTAP	86	192	0
NMTAP	86	288	2
NMTAP	86	288	3
NMTAP	87	0	4
NMTAP	87	0	6
NMTAP	87	96	6
NMTAP	87	96	7
NMTAP	87	192	4
NMTAP	87	192	6
NMTAP	87	288	1
NMTAP	87	288	3
NMTAP	88	0	0
NMTAP	88	0	1
NMTAP	88	96	6
NMTAP	88	144	6
NMTAP	88	192	7
NMTAP	88	288	4
NMTAP	88	288	5
NMTAP	89	0	1
NMTAP	89	0	3
NMTAP	89	96	4
NMTAP	89	96	6
NMTAP	89	192	2
NMTAP	89	192	5
NMTAP	89	240	2
NMTAP	89	240	5
NMTAP	89	288	3
NMTAP	89	312	4
NMTAP	89	336	3
NMTAP	89	360	4
BRTAP	90	0	3
NMTAP	90	96	5
NMTAP	90	144	6
NMTAP	90	192	1
NMTAP	90	192	7
NMTAP	90	288	0
NMTAP	90	336	1
NMTAP	91	0	2
NMTAP	91	0	4
NMTAP	91	96	6
NMTAP	91	144	5
NMTAP	91	192	2
NMTAP	91	192	4
NMTAP	91	288	1
NMTAP	91	336	2
NMTAP	92	0	3
NMTAP	92	0	5
NMTAP	92	96	6
NMTAP	92	96	7
NMTAP	92	144	0
NMTAP	92	144	5
NMTAP	92	192	1
NMTAP	92	192	4
NMTAP	92	288	0
NMTAP	92	288	1
NMTAP	92	336	2
NMTAP	92	336	7
NMTAP	93	0	3
NMTAP	93	0	6
NMSTR	93	96	3
NMSCL	93	96	3	96	96	0
NMSTR	93	96	6
NMSCL	93	96	6	96	96	3
BRTAP	94	0	0
BRTAP	94	0	3
NMTAP	94	96	1
NMTAP	94	144	1
NMTAP	94	192	2
NMTAP	94	288	3
NMTAP	94	288	4
BRTAP	95	0	5
BRTAP	95	0	7
NMTAP	95	96	6
NMTAP	95	144	6
NMTAP	95	192	4
NMTAP	95	288	2
NMTAP	95	288	3
BRSTR	96	0	0
NMSI_	96	0	0	96	48	4
BRSTR	96	0	1
NMSI_	96	0	1	96	48	5
BRSTR	96	192	6
NMSI_	96	192	6	96	48	2
BRSTR	96	192	7
NMSI_	96	192	7	96	48	3
BRTAP	97	0	1
BRTAP	97	0	4
BRTAP	97	96	3
BRTAP	97	96	6
NMTAP	97	192	0
NMTAP	97	216	7
NMTAP	97	240	0
NMTAP	97	264	7
NMTAP	97	288	0
NMTAP	97	312	7
NMTAP	97	336	0
NMTAP	97	360	7
BRTAP	98	0	0
NMTAP	98	96	1
NMTAP	98	144	1
NMTAP	98	192	3
NMTAP	98	240	2
NMTAP	98	288	4
NMTAP	98	336	5
NMTAP	99	0	6
NMTAP	99	48	6
NMTAP	99	96	4
NMTAP	99	144	5
NMTAP	99	192	0
NMTAP	99	240	1
NMTAP	99	288	7
NMTAP	99	336	6
NMTAP	100	0	0
NMTAP	100	48	1
NMTAP	100	96	2
NMTAP	100	144	3
NMTAP	100	192	4
NMTAP	100	240	5
NMTAP	100	288	6
NMTAP	100	336	7
NMTAP	101	0	1
NMTAP	101	24	0
NMTAP	101	48	1
NMTAP	101	72	0
NMSTR	101	96	1
NMSI_	101	96	1	96	48	4
NMSTR	101	192	0
NMSI_	101	192	0	96	48	5
BRTAP	102	0	4
BRTAP	102	0	6
NMTAP	102	96	5
NMTAP	102	120	4
NMTAP	102	144	5
NMTAP	102	168	4
NMTAP	102	192	5
NMTAP	102	240	6
NMTAP	102	288	7
NMTAP	102	336	0
BRTAP	103	0	1
BRTAP	103	0	3
NMTAP	103	96	2
NMTAP	103	120	3
NMTAP	103	144	2
NMTAP	103	168	3
NMTAP	103	192	2
NMTAP	103	240	1
NMTAP	103	288	0
NMTAP	103	336	7
BRTAP	104	0	4
BRTAP	104	0	6
NMTAP	104	96	5
NMTAP	104	144	4
BRTAP	104	192	3
BRTAP	104	192	6
NMTAP	104	240	7
NMTAP	104	288	0
NMTAP	104	336	1
NMTAP	105	0	2
BRSTR	105	0	3
NMSI_	105	0	3	96	48	6
BRSTR	105	96	1
NMSI_	105	96	1	96	48	4
BRSTR	105	192	7
NMSI_	105	192	7	96	48	2
BRSTR	105	288	5
BRSCR	105	288	5	96	768	3
NMTTP	106	0	4	E	1	M1
CNSUL	108	0	3	0	384	4
NMHLD	109	192	3	96
NMHLD	109	192	5	96
EXTAP	110	0	2
NMHLD	110	96	1	96
NMTAP	110	192	3
NMTAP	110	288	2
NMTAP	110	288	4
NMTAP	111	0	5
NMHLD	111	96	6	96
NMTAP	111	192	4
NMTAP	111	288	3
NMTAP	111	288	5
NMTTP	112	0	4	E	0	M1
NMTTP	112	96	3	E	0	M1
NMTTP	112	192	2	E	0	M1
NMTTP	112	288	1	E	0	M1
NMTTP	113	0	0	E	0	M1
NMTHO	113	0	0	192	C	0	M1
NMTTP	113	192	0	A	0	M1
NMTTP	113	216	1	A	0	M1
NMTTP	113	240	2	A	0	M1
NMTTP	113	264	3	A	0	M1
NMTTP	113	288	4	A	0	M1
NMTTP	113	312	5	A	0	M1
NMTTP	113	336	6	A	0	M1
NMTTP	113	360	7	A	0	M1

T_REC_TAP	335
T_REC_BRK	41
T_REC_XTP	9
T_REC_BXX	2
T_REC_HLD	38
T_REC_XHO	0
T_REC_BHO	0
T_REC_BXH	7
T_REC_STR	43
T_REC_BST	9
T_REC_XST	1
T_REC_XBS	5
T_REC_TTP	51
T_REC_THO	5
T_REC_SLD	65
T_REC_BSL	2
T_REC_ALL	613
T_NUM_TAP	439
T_NUM_BRK	66
T_NUM_HLD	43
T_NUM_SLD	65
T_NUM_ALL	613
T_JUDGE_TAP	496
T_JUDGE_HLD	168
T_JUDGE_SLD	67
T_JUDGE_ALL	731
TTM_EACHPAIRS	93
TTM_SCR_TAP	219500
TTM_SCR_BRK	171600
TTM_SCR_HLD	43000
TTM_SCR_SLD	97500
TTM_SCR_ALL	531600
TTM_SCR_S	509250
TTM_SCR_SS	525000
TTM_RAT_ACV	10125

