VERSION	0.00.00	1.05.00
FES_MODE	0
BPM_DEF	180.000	180.000	180.000	180.000
MET_DEF	4	4
RESOLUTION	384
CLK_DEF	384
COMPATIBLE_CODE	MA2

BPM	0	0	180.000
MET	0	0	4	4

NMTAP	2	0	0
NMTAP	2	96	0
NMTAP	2	192	0
NMTAP	3	0	1
NMTAP	3	96	1
NMTAP	3	192	1
NMTAP	4	0	2
NMTAP	4	96	2
NMTAP	4	192	2
NMTAP	5	0	3
NMTAP	5	0	4
NMTAP	5	96	3
NMTAP	5	96	4
NMTAP	5	192	3
NMTAP	5	192	4
NMTAP	6	0	4
NMTAP	6	96	4
NMTAP	6	192	4
NMTAP	7	0	5
NMTAP	7	96	5
NMTAP	7	192	5
NMTAP	8	0	6
NMTAP	8	96	6
NMTAP	8	192	6
NMTAP	9	0	0
NMTAP	9	0	7
NMTAP	9	96	0
NMTAP	9	96	7
NMTAP	9	192	0
NMTAP	9	192	7
NMHLD	10	0	6	384
NMHLD	11	0	5	384
NMHLD	12	0	4	384
NMTAP	13	0	3
NMHLD	14	0	1	384
NMHLD	15	0	2	384
NMHLD	16	0	3	384
NMTAP	17	0	4
NMSTR	18	0	5
NMSCR	18	0	5	96	288	0
NMTAP	19	192	1
NMSTR	20	0	1
NMSCR	20	0	1	96	288	4
NMTAP	21	192	5
NMSTR	22	0	6
NMSI_	22	0	6	96	288	3
NMTAP	23	192	1
NMSTR	24	0	1
NMSI_	24	0	1	96	288	4
EXTAP	25	192	4
EXTAP	25	192	5
NMTAP	26	0	5
NMTAP	26	96	5
NMTAP	26	192	6
NMTAP	26	288	6
NMTAP	27	0	7
NMTAP	27	96	7
NMTAP	27	192	0
NMTAP	27	192	1
NMTAP	28	0	2
NMTAP	28	96	2
NMTAP	28	192	1
NMTAP	28	288	1
NMTAP	29	0	0
NMTAP	29	96	0
NMTAP	29	192	6
NMTAP	29	192	7
NMTAP	30	0	6
NMTAP	30	96	6
NMTAP	30	192	5
NMTAP	30	288	5
NMTAP	31	0	4
NMTAP	31	96	4
NMTAP	31	192	2
NMTAP	31	192	3
NMTAP	32	0	1
NMTAP	32	96	1
NMTAP	32	192	2
NMTAP	32	288	2
NMTAP	33	0	3
NMTAP	33	96	3
NMTAP	33	192	4
NMTAP	33	192	5
NMTAP	34	0	6
NMTAP	34	96	6
NMTAP	34	192	6
NMTAP	34	288	6
NMTAP	34	288	7
NMTAP	35	0	5
NMTAP	35	96	5
NMTAP	35	192	5
NMTAP	35	288	4
NMTAP	35	288	5
NMTAP	36	0	3
NMTAP	36	96	3
NMTAP	36	192	3
NMTAP	36	288	2
NMTAP	36	288	3
NMTAP	37	0	0
NMTAP	37	0	1
NMTAP	37	96	0
NMTAP	37	96	1
NMTAP	37	192	0
NMTAP	37	192	1
NMTAP	38	0	1
NMTAP	38	96	1
NMTAP	38	192	1
NMTAP	38	288	0
NMTAP	38	288	1
NMTAP	39	0	2
NMTAP	39	96	2
NMTAP	39	192	2
NMTAP	39	288	2
NMTAP	39	288	3
NMTAP	40	0	4
NMTAP	40	96	4
NMTAP	40	192	4
NMTAP	40	288	4
NMTAP	40	288	5
EXTAP	41	0	6
EXTAP	41	0	7
NMTTP	42	0	6	B	0	L1
NMTTP	42	96	5	B	0	L1
NMTTP	42	192	4	B	0	L1
NMTTP	43	0	1	B	0	L1
NMTTP	43	96	2	B	0	L1
NMTTP	43	192	3	B	0	L1
NMTTP	44	0	6	B	0	L1
NMTTP	44	96	5	B	0	L1
NMTTP	44	192	4	B	0	L1
NMTTP	44	288	3	B	0	L1
NMTTP	45	0	0	C	0	L1
NMTTP	46	0	0	B	0	L1
NMTTP	46	96	1	B	0	L1
NMTTP	46	192	2	B	0	L1
NMTTP	46	192	3	B	0	L1
NMTTP	47	0	7	B	0	L1
NMTTP	47	96	6	B	0	L1
NMTTP	47	192	4	B	0	L1
NMTTP	47	192	5	B	0	L1
NMTTP	48	0	1	B	0	L1
NMTTP	48	96	2	B	0	L1
NMTTP	48	192	3	B	0	L1
NMTTP	48	288	4	B	0	L1
NMTTP	49	0	0	C	1	L1
EXTAP	50	0	1
EXTAP	50	96	1
NMTAP	50	192	0
NMTAP	50	288	0
NMTAP	51	0	7
NMTAP	51	96	6
NMTAP	51	192	4
NMTAP	51	192	5
NMTAP	52	0	6
NMTAP	52	96	6
NMTAP	52	192	7
NMTAP	52	288	7
NMTAP	53	0	0
NMTAP	53	96	1
NMTAP	53	192	2
NMTAP	53	192	3
NMTAP	54	0	2
NMTAP	54	96	2
NMTAP	54	192	3
NMTAP	54	288	3
NMTAP	55	0	4
NMTAP	55	96	5
NMTAP	55	192	6
NMTAP	55	192	7
NMTAP	56	0	5
NMTAP	56	96	5
NMTAP	56	192	4
NMTAP	56	288	4
NMTAP	57	0	3
NMTAP	57	96	2
NMTAP	57	192	0
NMTAP	57	192	1
NMTAP	58	0	0
NMTAP	58	96	0
NMTAP	58	192	1
NMTAP	58	288	1
NMTAP	59	0	2
NMTAP	59	96	2
NMTAP	59	192	3
NMTAP	59	288	3
NMTAP	60	0	4
NMTAP	60	96	4
NMTAP	60	192	5
NMTAP	60	288	5
NMTAP	61	0	6
NMTAP	61	0	7
NMTAP	61	96	6
NMTAP	61	96	7
NMTAP	61	192	6
NMTAP	61	192	7
NMTAP	62	0	7
NMTAP	62	96	7
NMTAP	62	192	6
NMTAP	62	288	6
NMTAP	63	0	5
NMTAP	63	96	5
NMTAP	63	192	4
NMTAP	63	288	4
NMTAP	64	0	3
NMTAP	64	96	3
NMTAP	64	192	2
NMTAP	64	288	2
NMTAP	65	0	0
NMTAP	65	0	1
NMTAP	65	96	0
NMTAP	65	96	1
NMTAP	65	192	0
NMTAP	65	192	1
NMHLD	66	0	2	384
NMHLD	67	0	3	384
NMHLD	68	0	4	384
NMTAP	69	0	5
NMHLD	70	0	6	384
NMHLD	71	0	7	384
NMHLD	72	0	0	384
NMTAP	73	0	1
NMSTR	74	0	1
NMSXL	74	0	1	96	480	5
NMSTR	76	0	6
NMSXR	76	0	6	96	480	2
NMSTR	78	0	1
NMSXR	78	0	1	96	480	4
NMTAP	80	0	5
NMTAP	80	192	5
EXTAP	81	0	3
EXTAP	81	0	4
BRTAP	82	0	5
NMTAP	82	96	5
NMTAP	82	192	4
NMTAP	82	192	5
NMTAP	82	288	4
NMTAP	82	288	5
NMTAP	83	0	6
NMTAP	83	96	6
NMTAP	83	192	6
NMTAP	83	192	7
NMTAP	83	288	6
NMTAP	83	288	7
NMTAP	84	0	0
NMTAP	84	96	0
NMTAP	84	192	0
NMTAP	84	192	1
NMTAP	84	288	0
NMTAP	84	288	1
NMTAP	85	0	2
NMTAP	85	96	3
NMTAP	85	192	4
NMTAP	85	192	5
NMTAP	86	0	2
NMTAP	86	96	2
NMTAP	86	192	2
NMTAP	86	192	3
NMTAP	86	288	2
NMTAP	86	288	3
NMTAP	87	0	1
NMTAP	87	96	1
NMTAP	87	192	0
NMTAP	87	192	1
NMTAP	87	288	0
NMTAP	87	288	1
NMTAP	88	0	7
NMTAP	88	96	7
NMTAP	88	192	6
NMTAP	88	192	7
NMTAP	88	288	6
NMTAP	88	288	7
NMTAP	89	0	5
NMTAP	89	96	4
NMTAP	89	192	2
NMTAP	89	192	3
NMTAP	90	0	4
NMTAP	90	96	5
NMTAP	90	192	6
NMTAP	90	288	7
NMTAP	91	0	0
NMTAP	91	96	1
NMTAP	91	192	2
NMTAP	91	192	3
NMTAP	92	0	3
NMTAP	92	96	2
NMTAP	92	192	1
NMTAP	92	288	0
NMTAP	93	0	7
NMTAP	93	96	6
NMTAP	93	192	4
NMTAP	93	192	5
NMTAP	94	0	4
NMTAP	94	0	5
NMTAP	94	96	4
NMTAP	94	96	5
NMTAP	94	192	3
NMTAP	94	192	6
NMTAP	95	0	6
NMTAP	95	0	7
NMTAP	95	96	6
NMTAP	95	96	7
NMTAP	95	192	0
NMTAP	95	192	5
NMTAP	96	0	0
NMTAP	96	0	1
NMTAP	96	96	0
NMTAP	96	96	1
NMTAP	96	192	2
NMTAP	96	192	7
NMTAP	97	0	2
NMTAP	97	0	3
NMTAP	97	96	2
NMTAP	97	96	3
NMTAP	97	192	1
NMTAP	97	192	4
BRTAP	98	0	2
NMTAP	98	48	2
NMTAP	98	96	2
NMTAP	98	192	0
NMTAP	98	192	1
NMTAP	98	288	0
NMTAP	98	288	1
NMTAP	99	0	7
NMTAP	99	48	7
NMTAP	99	96	7
NMTAP	99	192	6
NMTAP	99	192	7
NMTAP	100	0	5
NMTAP	100	48	5
NMTAP	100	96	5
NMTAP	100	192	6
NMTAP	100	192	7
NMTAP	100	288	6
NMTAP	100	288	7
NMTAP	101	0	0
NMTAP	101	48	0
NMTAP	101	96	0
NMTAP	101	192	0
NMTAP	101	192	1
BRTAP	102	0	1
NMTAP	102	48	1
NMTAP	102	96	1
NMTAP	102	192	2
NMTAP	102	192	3
NMTAP	102	288	2
NMTAP	102	288	3
NMTAP	103	0	4
NMTAP	103	48	4
NMTAP	103	96	4
NMTAP	103	192	4
NMTAP	103	192	5
NMTAP	104	0	6
NMTAP	104	48	6
NMTAP	104	96	6
NMTAP	104	192	4
NMTAP	104	192	5
NMTAP	104	288	4
NMTAP	104	288	5
NMTAP	105	0	3
NMTAP	105	48	3
NMTAP	105	96	3
NMTAP	105	192	3
NMTAP	105	192	4
NMTAP	105	288	3
NMTAP	105	288	4
NMHLD	106	0	2	1152
NMHLD	106	0	5	1152
NMTTP	110	0	3	E	0	L1
NMTTP	110	192	2	E	0	L1
NMTTP	111	0	1	E	0	L1
NMTTP	111	192	0	E	0	L1
NMTTP	112	0	7	E	0	L1
NMTTP	112	192	6	E	0	L1
NMTTP	113	0	5	E	0	L1
NMTHO	113	192	0	168	C	0	L1

T_REC_TAP	304
T_REC_BRK	3
T_REC_XTP	8
T_REC_BXX	0
T_REC_HLD	14
T_REC_XHO	0
T_REC_BHO	0
T_REC_BXH	0
T_REC_STR	7
T_REC_BST	0
T_REC_XST	0
T_REC_XBS	0
T_REC_TTP	31
T_REC_THO	1
T_REC_SLD	7
T_REC_BSL	0
T_REC_ALL	375
T_NUM_TAP	350
T_NUM_BRK	3
T_NUM_HLD	15
T_NUM_SLD	7
T_NUM_ALL	375
T_JUDGE_TAP	353
T_JUDGE_HLD	148
T_JUDGE_SLD	7
T_JUDGE_ALL	508
TTM_EACHPAIRS	74
TTM_SCR_TAP	175000
TTM_SCR_BRK	7800
TTM_SCR_HLD	15000
TTM_SCR_SLD	10500
TTM_SCR_ALL	208300
TTM_SCR_S	201800
TTM_SCR_SS	208000
TTM_RAT_ACV	10014

