VERSION	0.00.00	1.05.00
FES_MODE	0
BPM_DEF	180.000	180.000	180.000	180.000
MET_DEF	4	4
RESOLUTION	384
CLK_DEF	384
COMPATIBLE_CODE	MA2

BPM	0	0	180.000
MET	0	0	4	4

NMTAP	2	0	0
NMTAP	2	192	0
NMTAP	3	0	1
NMTAP	3	192	1
NMTAP	4	0	2
NMTAP	4	192	2
NMTAP	5	0	3
NMTAP	5	0	4
NMTAP	5	192	3
NMTAP	5	192	4
NMTAP	6	0	4
NMTAP	6	192	4
NMTAP	7	0	5
NMTAP	7	192	5
NMTAP	8	0	6
NMTAP	8	192	6
EXTAP	9	0	0
EXTAP	9	0	7
NMHLD	10	0	6	384
NMHLD	10	0	7	384
NMHLD	12	0	4	384
NMHLD	12	0	5	384
NMHLD	14	0	2	384
NMHLD	14	0	3	384
NMHLD	16	0	0	384
NMHLD	16	0	1	384
NMTAP	18	0	0
NMTAP	18	0	1
NMTAP	18	192	0
NMTAP	18	192	1
NMTAP	19	0	0
NMTAP	19	0	1
NMTAP	20	0	2
NMTAP	20	0	3
NMTAP	20	192	2
NMTAP	20	192	3
NMTAP	21	0	2
NMTAP	21	0	3
NMTAP	22	0	4
NMTAP	22	0	5
NMTAP	22	192	4
NMTAP	22	192	5
NMTAP	23	0	4
NMTAP	23	0	5
NMTAP	24	0	6
NMTAP	24	0	7
NMTAP	24	192	6
NMTAP	24	192	7
NMTAP	25	0	6
NMTAP	25	0	7
BXTAP	26	0	7
NMTAP	26	96	7
NMTAP	26	192	7
NMTAP	27	0	6
NMTAP	27	192	6
NMTAP	28	0	5
NMTAP	28	96	5
NMTAP	28	192	5
NMTAP	29	0	3
NMTAP	29	0	4
NMTAP	30	0	3
NMTAP	30	96	3
NMTAP	30	192	3
NMTAP	31	0	2
NMTAP	31	192	2
NMTAP	32	0	1
NMTAP	32	96	1
NMTAP	32	192	1
EXTAP	33	0	0
EXTAP	33	0	7
BXTAP	34	0	0
NMTAP	34	96	0
NMTAP	34	192	0
NMTAP	35	0	1
NMTAP	35	192	0
NMTAP	35	192	1
NMTAP	36	0	2
NMTAP	36	96	2
NMTAP	36	192	2
NMTAP	37	0	3
NMTAP	37	192	3
NMTAP	37	192	4
NMTAP	38	0	4
NMTAP	38	96	4
NMTAP	38	192	4
NMTAP	39	0	5
NMTAP	39	192	4
NMTAP	39	192	5
NMTAP	40	0	6
NMTAP	40	96	6
NMTAP	40	192	6
BRTAP	41	0	0
BRTAP	41	0	7
NMSTR	42	0	7
NMSI_	42	0	7	96	288	3
NMSTR	44	0	0
NMSI_	44	0	0	96	288	4
NMSTR	46	0	6
NMSI_	46	0	6	96	288	2
NMSTR	48	0	1
NMSI_	48	0	1	96	288	5
NMTAP	50	0	7
NMTAP	50	96	7
NMTAP	50	192	7
NMTAP	51	0	6
NMTAP	51	0	7
NMTAP	51	192	6
NMTAP	51	192	7
NMTAP	52	0	5
NMTAP	52	96	5
NMTAP	52	192	5
NMTAP	53	0	3
NMTAP	53	0	4
NMTAP	53	192	3
NMTAP	53	192	4
NMTAP	54	0	3
NMTAP	54	96	3
NMTAP	54	192	3
NMTAP	55	0	2
NMTAP	55	0	3
NMTAP	55	192	2
NMTAP	55	192	3
NMTAP	56	0	1
NMTAP	56	96	1
NMTAP	56	192	1
BRTAP	57	0	0
BRTAP	57	0	7
NMHLD	58	0	0	192
NMHLD	58	0	1	192
NMTAP	59	0	0
NMTAP	59	0	1
NMHLD	60	0	2	192
NMHLD	60	0	3	192
NMTAP	61	0	2
NMTAP	61	0	3
NMHLD	62	0	4	192
NMHLD	62	0	5	192
NMTAP	63	0	4
NMTAP	63	0	5
NMHLD	64	0	6	192
NMHLD	64	0	7	192
NMTAP	65	0	6
NMTAP	65	0	7
NMTAP	66	0	6
NMTAP	66	0	7
NMTAP	66	192	6
NMTAP	66	192	7
NMTAP	67	0	6
NMTAP	67	0	7
NMTAP	68	0	4
NMTAP	68	0	5
NMTAP	68	192	4
NMTAP	68	192	5
NMTAP	69	0	4
NMTAP	69	0	5
NMTAP	70	0	2
NMTAP	70	0	3
NMTAP	70	192	2
NMTAP	70	192	3
NMTAP	71	0	2
NMTAP	71	0	3
NMTAP	72	0	0
NMTAP	72	0	1
NMTAP	72	192	0
NMTAP	72	192	1
NMTAP	73	0	0
NMTAP	73	0	1
NMTTP	74	0	1	E	0	L1
NMTTP	75	0	2	E	0	L1
NMTTP	76	0	3	E	0	L1
NMTTP	77	0	4	E	0	L1
NMTTP	78	0	5	E	0	L1
NMTTP	79	0	6	E	0	L1
NMTTP	80	0	7	E	0	L1
NMTTP	81	0	0	C	1	L1
BRTAP	82	0	7
NMTAP	82	96	7
NMTAP	82	192	7
NMTAP	83	0	6
NMTAP	83	96	6
NMTAP	83	192	6
NMTAP	83	192	7
NMTAP	84	0	5
NMTAP	84	96	5
NMTAP	84	192	5
NMTAP	85	0	4
NMTAP	85	96	4
NMTAP	85	192	3
NMTAP	85	192	4
NMTAP	86	0	3
NMTAP	86	96	3
NMTAP	86	192	3
NMTAP	87	0	2
NMTAP	87	96	2
NMTAP	87	192	2
NMTAP	87	192	3
NMTAP	88	0	1
NMTAP	88	96	1
NMTAP	88	192	1
NMTAP	89	0	0
NMTAP	89	0	7
NMTAP	89	192	0
NMTAP	89	192	7
NMTAP	90	0	1
NMTAP	90	96	1
NMTAP	90	192	1
NMTAP	91	0	0
NMTAP	91	0	1
NMTAP	91	96	0
NMTAP	91	96	1
NMTAP	91	192	0
NMTAP	91	192	1
NMTAP	92	0	2
NMTAP	92	96	2
NMTAP	92	192	2
NMTAP	93	0	3
NMTAP	93	0	4
NMTAP	93	96	3
NMTAP	93	96	4
NMTAP	93	192	3
NMTAP	93	192	4
NMTAP	94	0	5
NMTAP	94	96	5
NMTAP	94	192	5
NMTAP	95	0	4
NMTAP	95	0	5
NMTAP	95	96	4
NMTAP	95	96	5
NMTAP	95	192	4
NMTAP	95	192	5
NMTAP	96	0	6
NMTAP	96	96	6
NMTAP	96	192	6
NMTAP	97	0	0
NMTAP	97	0	7
BRTAP	98	0	7
NMTAP	98	96	7
NMTAP	98	192	7
NMTAP	98	288	7
NMTAP	99	0	6
NMTAP	99	96	6
NMTAP	99	192	6
NMTAP	99	192	7
NMTAP	100	0	5
NMTAP	100	96	5
NMTAP	100	192	5
NMTAP	100	288	5
NMTAP	101	0	4
NMTAP	101	96	4
NMTAP	101	192	3
NMTAP	101	192	4
NMTAP	102	0	3
NMTAP	102	96	3
NMTAP	102	192	3
NMTAP	102	288	3
NMTAP	103	0	2
NMTAP	103	96	2
NMTAP	103	192	2
NMTAP	103	192	3
NMTAP	104	0	1
NMTAP	104	96	1
NMTAP	104	192	1
NMTAP	104	288	1
NMTAP	105	0	0
NMTAP	105	96	0
NMTAP	105	192	0
NMTAP	105	192	7
NMSTR	106	0	0
NMSI_	106	0	0	96	288	3
NMSTR	108	0	4
NMSI_	108	0	4	96	288	7
NMTTP	110	0	0	E	0	L1
NMTTP	111	0	0	B	0	L1
NMTTP	111	0	7	B	0	L1
NMTTP	112	0	1	B	0	L1
NMTTP	112	0	6	B	0	L1
NMTHO	113	0	0	288	C	0	L1

T_REC_TAP	223
T_REC_BRK	6
T_REC_XTP	4
T_REC_BXX	2
T_REC_HLD	16
T_REC_XHO	0
T_REC_BHO	0
T_REC_BXH	0
T_REC_STR	6
T_REC_BST	0
T_REC_XST	0
T_REC_XBS	0
T_REC_TTP	13
T_REC_THO	1
T_REC_SLD	6
T_REC_BSL	0
T_REC_ALL	277
T_NUM_TAP	246
T_NUM_BRK	8
T_NUM_HLD	17
T_NUM_SLD	6
T_NUM_ALL	277
T_JUDGE_TAP	254
T_JUDGE_HLD	102
T_JUDGE_SLD	6
T_JUDGE_ALL	362
TTM_EACHPAIRS	71
TTM_SCR_TAP	123000
TTM_SCR_BRK	20800
TTM_SCR_HLD	17000
TTM_SCR_SLD	9000
TTM_SCR_ALL	169800
TTM_SCR_S	163950
TTM_SCR_SS	169000
TTM_RAT_ACV	10047

