VERSION	0.00.00	1.05.00
FES_MODE	0
BPM_DEF	192.000	192.000	192.000	192.000
MET_DEF	4	4
RESOLUTION	384
CLK_DEF	384
COMPATIBLE_CODE	MA2

BPM	0	0	192.000
MET	0	0	4	4

NMTAP	2	0	3
NMTAP	2	0	5
NMHLD	2	144	2	192
NMHLD	2	336	3	192
NMSTR	3	144	4
NMSI_	3	144	4	96	48	2
NMTAP	4	0	2
NMTAP	4	0	4
NMHLD	4	144	5	192
NMHLD	4	336	4	192
NMSTR	5	144	3
NMSI_	5	144	3	96	72	7
NMTAP	5	240	2
NMTAP	6	0	0
NMTAP	6	48	0
NMTAP	6	96	1
NMTAP	6	96	3
NMTAP	6	144	4
NMTAP	6	192	4
NMTAP	6	240	3
NMTAP	6	240	5
NMTAP	6	288	2
NMTAP	6	336	2
NMTAP	7	0	7
NMTAP	7	48	7
NMTAP	7	96	4
NMTAP	7	96	6
NMTAP	7	144	3
NMTAP	7	192	3
NMTAP	7	240	2
NMTAP	7	240	4
NMTAP	7	288	1
NMTAP	7	288	5
NMSTR	8	0	0
NMSCR	8	0	0	96	48	3
NMTAP	8	0	7
NMSTR	8	144	5
NMSCR	8	144	5	96	48	0
NMSTR	8	336	1
NMSXR	8	336	1	96	288	6
NMSTR	8	336	2
NMSXL	8	336	2	96	288	5
EXHLD	10	0	4	96
EXTAP	10	0	7
NMTAP	10	96	0
NMTAP	10	128	7
NMTAP	10	160	6
NMTAP	10	192	2
NMTAP	10	224	1
NMTAP	10	256	0
NMTAP	10	288	4
NMTAP	10	320	3
NMTAP	10	352	2
NMSTR	11	0	7
NMSF_	11	0	7	96	48	3
NMTAP	11	96	7
NMTAP	11	192	1
NMTAP	11	192	5
BRTAP	11	240	1
BRTAP	11	240	5
NMTAP	12	0	4
NMTAP	12	0	6
NMTAP	12	48	2
NMTAP	12	72	3
NMTAP	12	120	3
NMTAP	12	144	1
NMTAP	12	192	1
NMTAP	12	216	7
NMTAP	12	264	7
NMTAP	12	288	0
NMTAP	12	336	1
NMHLD	12	336	6	72
NMHLD	13	24	4	72
NMTAP	13	96	5
NMTAP	13	120	3
NMTAP	13	168	2
NMSTR	13	168	6
NMSI_	13	168	6	96	48	3
NMTAP	13	240	3
NMTAP	13	288	2
NMTAP	13	336	1
NMHLD	14	0	0	96
NMHLD	14	0	4	96
NMTAP	14	144	5
NMTAP	14	192	6
NMTAP	14	240	7
NMTAP	14	288	0
NMTAP	14	336	1
NMTAP	14	336	3
NMTAP	15	0	2
NMSTR	15	48	4
NMSI_	15	48	4	96	48	0
NMSTR	15	48	6
NMSCL	15	48	6	96	48	3
NMTAP	15	144	4
NMTAP	15	144	6
NMTAP	15	240	6
NMTAP	15	240	7
NMTAP	15	288	0
NMTAP	15	288	5
NMTAP	16	0	1
NMTAP	16	0	3
NMTAP	16	48	5
NMTAP	16	72	4
NMTAP	16	120	4
NMTAP	16	144	6
NMTAP	16	192	6
NMTAP	16	216	0
NMTAP	16	264	0
NMTAP	16	288	7
NMHLD	16	336	1	72
NMTAP	16	336	6
NMTAP	17	24	0
NMTAP	17	48	7
NMTAP	17	72	6
NMTAP	17	96	5
NMTAP	17	120	4
NMTAP	17	144	3
NMSTR	17	168	1
NMSI_	17	168	1	96	48	4
NMTAP	17	240	4
NMTAP	17	288	5
NMTAP	17	336	6
NMHLD	18	0	3	96
NMHLD	18	0	7	96
NMTAP	18	144	5
NMTAP	18	168	4
NMTAP	18	192	5
NMTAP	18	216	4
NMTAP	18	240	6
NMTAP	18	264	4
NMTAP	18	288	6
NMTAP	18	312	4
NMSTR	18	336	7
NMSUL	18	336	7	96	48	3
NMTAP	19	48	0
NMTAP	19	48	7
NMHLD	19	120	1	24
NMTAP	19	192	2
NMTAP	19	192	7
NMTAP	19	240	5
NMTAP	19	288	4
NMTAP	19	288	5
NMTAP	20	0	1
NMTAP	20	0	7
NMTAP	20	48	5
NMTAP	20	72	4
NMTAP	20	120	4
NMTAP	20	144	6
NMTAP	20	192	6
NMTAP	20	216	0
NMTAP	20	264	0
NMTAP	20	288	7
NMHLD	20	336	1	48
NMTAP	20	336	6
NMTAP	21	0	3
NMHLD	21	24	2	72
NMTAP	21	96	4
NMTAP	21	120	3
NMSTR	21	168	4
NMSCL	21	168	4	96	48	1
NMTAP	21	168	5
NMTAP	21	240	7
NMTAP	21	288	6
NMTAP	21	336	5
NMHLD	22	0	0	96
NMHLD	22	0	4	96
NMTAP	22	144	1
NMTAP	22	144	3
NMTAP	22	192	2
NMTAP	22	240	3
NMTAP	22	288	7
NMTAP	22	336	4
NMTAP	22	336	6
NMTAP	23	0	5
NMSTR	23	48	1
NMSI_	23	48	1	96	48	4
NMSTR	23	48	3
NMSI_	23	48	3	96	48	7
NMTAP	23	144	1
NMTAP	23	144	3
NMTAP	23	240	0
NMTAP	23	240	1
NMTAP	23	288	2
NMTAP	23	288	7
NMTAP	24	0	4
NMTAP	24	0	6
NMTAP	24	48	2
NMTAP	24	72	3
NMTAP	24	120	3
NMTAP	24	144	1
NMTAP	24	192	1
NMTAP	24	216	7
NMTAP	24	264	7
NMTAP	24	288	0
NMTAP	24	336	2
NMHLD	24	336	6	72
NMTAP	25	24	4
NMTAP	25	48	3
NMTAP	25	72	2
NMTAP	25	96	0
NMTAP	25	120	7
NMTAP	25	144	6
NMSTR	25	168	1
NMSI_	25	168	1	96	48	4
NMTAP	25	240	4
NMTAP	25	288	5
NMTAP	25	336	6
NMHLD	26	0	3	96
NMHLD	26	0	7	96
NMTAP	26	144	2
NMTAP	26	144	6
NMTAP	26	192	1
NMTAP	26	216	3
NMTAP	26	240	2
NMTAP	26	264	4
NMTAP	26	288	3
NMTAP	26	312	5
NMSTR	26	336	4
NMSXR	26	336	4	96	192	0
NMTAP	27	48	5
NMTAP	27	96	5
NMTAP	27	144	5
NMTAP	27	192	5
NMTAP	27	240	5
EXTAP	27	288	6
EXTAP	27	288	7
NMHLD	28	0	0	96
NMHLD	28	0	4	96
NMTAP	28	144	1
NMTAP	28	168	2
NMTAP	28	192	6
NMTAP	28	208	5
NMTAP	28	224	4
NMTAP	28	240	0
NMTAP	28	288	0
NMSTR	28	336	1
NMSI_	28	336	1	96	48	4
NMTAP	28	336	3
NMTAP	29	48	1
NMTAP	29	48	7
NMSTR	29	96	5
NMSCR	29	96	5	96	48	0
NMTAP	29	192	4
NMTAP	29	192	5
NMSTR	29	240	2
NMSI_	29	240	2	96	48	6
NMSI_	29	240	2	96	48	7
NMTAP	29	336	2
NMTAP	30	48	0
NMSTR	30	48	5
NMSCR	30	48	5	96	384	3
NMHLD	30	96	4	288
NMTAP	31	48	5
NMTAP	31	96	6
NMTAP	31	144	7
NMHLD	31	192	0	72
NMTAP	31	192	4
NMHLD	31	264	2	72
NMTAP	31	336	4
NMTAP	32	0	1
NMTAP	32	0	5
NMTAP	32	96	6
NMTAP	32	96	7
NMTAP	32	144	5
NMTAP	32	192	1
NMTAP	32	216	3
NMTAP	32	240	2
NMTAP	32	288	3
NMTAP	32	288	4
NMTAP	32	336	2
NMSTR	32	336	5
NMSCL	32	336	5	96	48	2
NMTAP	33	48	1
NMTAP	33	120	6
NMTAP	33	192	1
NMTAP	33	192	2
NMTAP	33	264	5
NMTAP	33	264	6
NMTAP	33	336	0
NMTAP	33	336	7
NMSTR	34	0	0
NMSCR	34	0	0	96	48	3
NMTAP	34	0	7
NMTAP	34	96	6
NMSTR	34	144	7
NMSCL	34	144	7	96	48	4
NMTAP	34	240	2
NMTAP	34	288	1
NMSTR	34	336	0
NMSI_	34	336	0	96	48	4
NMTAP	35	48	5
NMTAP	35	96	6
NMTAP	35	144	7
NMTAP	35	192	0
NMTAP	35	192	1
NMSTR	35	264	2
NMSI_	35	264	2	96	24	7
NMSTR	35	264	6
NMSI_	35	264	6	96	24	3
NMTAP	35	336	2
NMTAP	35	336	6
NMTTP	36	96	0	A	0	M1
NMHLD	36	96	4	480
NMTTP	36	192	6	E	0	M1
NMTTP	36	288	1	A	0	M1
NMTTP	37	0	5	E	0	M1
NMTTP	37	96	2	A	0	M1
NMTAP	37	192	3
NMSTR	37	264	1
NMSI_	37	264	1	96	24	4
NMSTR	37	264	5
NMSI_	37	264	5	96	24	0
NMTAP	37	336	1
NMTAP	37	336	5
NMHLD	38	96	3	480
NMTTP	38	96	7	A	0	M1
NMTTP	38	192	2	E	0	M1
NMTTP	38	288	6	A	0	M1
NMTTP	39	0	3	E	0	M1
NMTTP	39	96	5	A	0	M1
NMTAP	39	192	4
NMSTR	39	264	2
NMSI_	39	264	2	96	24	5
NMSTR	39	264	6
NMSI_	39	264	6	96	24	1
NMTAP	39	336	2
NMTAP	39	336	6
NMTAP	40	96	0
NMHLD	40	96	4	96
NMTAP	40	192	5
NMTAP	40	288	2
NMTAP	40	288	3
NMTAP	40	336	1
NMTAP	40	336	4
NMTAP	41	48	6
NMTAP	41	48	7
NMTAP	41	96	6
NMTAP	41	96	7
NMHLD	41	144	0	72
NMTAP	41	144	5
NMSTR	41	216	2
NMSI_	41	216	2	96	264	4
NMTTP	41	312	0	C	1	M1
NMHLD	42	96	1	96
CNSI_	42	192	4	0	192	6
NMHLD	42	240	2	96
NMHLD	43	0	3	96
CNSI_	43	0	6	0	192	0
NMHLD	43	144	4	96
NMTAP	43	288	1
NMSTR	43	288	5
NMSCL	43	288	5	96	72	2
NMSTR	43	360	2
NMSCL	43	360	2	96	72	7
NMSTR	44	48	7
NMSCL	44	48	7	96	72	4
NMSTR	44	120	4
NMSCL	44	120	4	96	72	1
NMSTR	44	192	1
NMSCL	44	192	1	96	72	6
NMSTR	44	264	6
NMSCL	44	264	6	96	72	3
NMSTR	44	336	3
NMSF_	44	336	3	96	240	7
BRTAP	46	0	1
BRTAP	46	0	5
NMTAP	46	144	6
NMTAP	46	144	7
NMTAP	46	192	0
NMTAP	46	192	5
NMTAP	46	240	1
NMTAP	46	256	2
NMTAP	46	272	3
NMTAP	46	288	7
NMSTR	46	336	6
NMSI_	46	336	6	96	96	2
NMTAP	47	48	3
NMTAP	47	96	2
NMTAP	47	144	1
CNSI_	47	144	2	0	48	5
NMHLD	47	192	0	96
CNSI_	47	192	5	0	48	3
NMTAP	47	336	1
NMTAP	47	336	7
NMTAP	48	0	2
NMTAP	48	48	6
NMTAP	48	72	4
NMTAP	48	96	5
NMTAP	48	144	2
NMTAP	48	144	3
NMTAP	48	192	1
NMTAP	48	240	7
NMTAP	48	288	3
NMTAP	48	288	5
NMSTR	48	336	1
NMSV_	48	336	1	96	96	2
NMTTP	49	48	5	A	0	M1
NMTTP	49	96	5	B	0	M1
CNSCR	49	144	2	0	48	4
NMTTP	49	144	7	B	0	M1
NMTTP	49	240	4	E	0	M1
NMTTP	49	288	1	E	0	M1
NMTTP	49	336	2	A	0	M1
NMHLD	50	0	7	96
NMTAP	50	144	1
NMTAP	50	192	0
NMTAP	50	192	1
NMTAP	50	240	7
NMTAP	50	256	6
NMTAP	50	272	5
NMTAP	50	288	2
NMTAP	50	336	1
NMHLD	50	336	3	96
NMSTR	51	48	7
NMSV_	51	48	7	96	48	2
NMSTR	51	96	1
NMSCL	51	96	1	96	96	3
NMTAP	51	144	7
NMTAP	51	192	1
NMTAP	51	288	0
NMTAP	51	336	1
NMTAP	51	336	7
NMTAP	52	48	2
NMTAP	52	48	3
NMTAP	52	96	4
NMTAP	52	120	3
NMTAP	52	168	3
NMTAP	52	192	5
NMTAP	52	240	2
NMTAP	52	240	6
NMTAP	52	288	1
NMTAP	52	336	0
NMHLD	52	336	7	96
NMTAP	53	48	5
NMSTR	53	96	4
NMSI_	53	96	4	96	48	7
NMTAP	53	144	3
NMTAP	53	192	2
NMSTR	53	192	4
NMSI_	53	192	4	96	48	1
NMTAP	53	288	4
NMSTR	53	288	6
NMSCL	53	288	6	96	72	2
BRHLD	54	0	0	96
NMTAP	54	144	1
NMTAP	54	144	7
NMTAP	54	192	1
NMTAP	54	192	7
NMTAP	54	240	6
NMTAP	54	256	5
NMTAP	54	272	4
NMTAP	54	288	0
NMSTR	54	336	1
NMSUR	54	336	1	96	192	4
NMTAP	55	48	3
NMTAP	55	96	4
NMTAP	55	144	5
NMSTR	55	192	6
NMSI_	55	192	6	96	48	3
NMTAP	55	288	6
NMTAP	55	288	7
NMTAP	56	0	0
NMTAP	56	0	4
NMTAP	56	48	1
NMTAP	56	72	3
NMTAP	56	96	2
NMTAP	56	144	4
NMTAP	56	144	5
NMTAP	56	192	6
NMTAP	56	240	0
NMTAP	56	288	2
NMTAP	56	288	4
NMSTR	56	336	6
NMSCR	56	336	6	96	48	1
NMTAP	57	48	4
NMTAP	57	96	3
NMSTR	57	144	2
NMSCR	57	144	2	96	48	5
NMTAP	57	240	0
NMTAP	57	288	7
NMTAP	57	336	6
NMHLD	58	0	3	96
NMHLD	58	0	5	96
NMTAP	58	144	3
NMTAP	58	144	5
NMTAP	58	192	4
NMTAP	58	240	0
NMTAP	58	256	1
NMTAP	58	272	2
NMTAP	58	288	7
NMSTR	58	336	4
NMSI_	58	336	4	96	48	0
NMTAP	58	336	6
NMTAP	59	48	5
NMSTR	59	96	6
NMSI_	59	96	6	96	48	2
NMSI_	59	96	6	96	48	3
NMTAP	59	144	7
NMTAP	59	192	6
NMTAP	59	288	0
NMTAP	59	288	1
NMTAP	59	336	2
NMTAP	59	336	7
NMTAP	60	48	4
NMTAP	60	48	5
NMTAP	60	96	3
NMTAP	60	120	4
NMTAP	60	168	4
NMTAP	60	192	2
NMTAP	60	240	1
NMTAP	60	240	5
NMTAP	60	288	6
NMHLD	60	336	0	96
NMTAP	60	336	7
NMTAP	61	48	2
NMSTR	61	96	3
NMSI_	61	96	3	96	48	1
NMTAP	61	144	4
NMTAP	61	192	5
CNSCL	61	240	1	0	48	6
CNSI_	61	288	6	0	48	4
EXTAP	62	0	2
EXTAP	62	0	3
NMTAP	62	96	0
NMTAP	62	128	4
NMTAP	62	160	4
NMTAP	62	192	1
NMTAP	62	224	5
NMTAP	62	256	5
NMTAP	62	288	2
NMTAP	62	320	6
NMTAP	62	352	6
NMSTR	63	0	3
NMSF_	63	0	3	96	48	7
NMTAP	63	96	3
NMTAP	63	192	1
NMTAP	63	192	5
BRTAP	63	240	1
BRTAP	63	240	5
NMTAP	63	336	6
NMSTR	63	336	7
NMSXR	63	336	7	96	192	0
NMTAP	63	352	0
NMTAP	63	368	1
NMTAP	64	0	2
NMTAP	64	336	2
NMSTR	64	336	3
NMSXR	64	336	3	96	192	4
NMTAP	64	352	4
NMTAP	64	368	5
NMTAP	65	0	6
NMHLD	65	240	6	96
NMTAP	65	336	7
NMTAP	66	0	0
NMTAP	66	0	5
NMTAP	66	96	1
NMTAP	66	120	2
NMTAP	66	144	3
NMTAP	66	168	4
NMTAP	66	192	7
NMTAP	66	216	6
NMTAP	66	240	5
NMTAP	66	264	4
NMTAP	66	288	1
NMTAP	66	320	1
NMTAP	66	352	3
NMTAP	67	0	2
NMTAP	67	32	4
NMTAP	67	64	3
NMTAP	67	96	5
NMTAP	67	128	4
NMTAP	67	160	6
NMTAP	67	192	4
NMTAP	67	224	5
NMTAP	67	256	3
NMTAP	67	288	2
NMHLD	67	288	4	144
NMTAP	68	48	1
NMTAP	68	96	2
NMTAP	68	144	3
NMTAP	68	192	4
NMTAP	68	192	5
NMSTR	68	240	6
NMSUL	68	240	6	96	96	4
NMTAP	68	288	7
NMTAP	68	336	0
NMTAP	69	48	2
NMTAP	69	96	1
NMSTR	69	144	0
NMSI_	69	144	0	96	48	4
NMTAP	69	240	0
NMSTR	69	240	6
NMSI_	69	240	6	96	48	3
NMSTR	69	336	2
NMSI_	69	336	2	96	48	7
NMTAP	69	336	6
NMTAP	70	48	4
NMSTR	70	96	4
NMSUL	70	96	4	96	144	3
NMTAP	70	192	3
NMTAP	70	192	4
NMTAP	71	0	2
NMTAP	71	32	2
NMTAP	71	64	2
NMTAP	71	96	3
NMTAP	71	128	3
NMTAP	71	160	3
NMTAP	71	192	4
NMTAP	71	224	4
NMTAP	71	256	4
NMTAP	71	288	5
NMTAP	71	320	5
NMTAP	71	352	5
NMTTP	72	0	0	B	0	M1
NMTTP	72	0	0	C	1	M1
NMTTP	72	0	7	B	0	M1
NMTAP	73	96	2
NMTAP	73	192	2
NMTAP	73	240	2
NMTAP	74	0	3
NMTAP	74	96	3
NMTAP	74	144	3
NMTAP	74	288	4
NMTAP	75	0	4
NMTAP	75	48	4
NMTAP	75	192	5
NMTAP	75	240	4
NMTAP	75	288	3
NMTAP	75	336	2
NMTAP	75	336	6
NMTAP	76	48	0
NMTAP	76	96	0
NMTAP	76	144	1
NMTAP	76	144	7
NMTAP	76	240	4
NMTAP	76	240	5
NMTAP	76	288	4
NMTAP	76	288	5
NMTAP	76	336	3
NMTAP	76	336	6
NMSTR	77	48	1
NMSI_	77	48	1	96	48	7
NMTAP	77	48	3
NMTAP	77	96	4
NMSTR	77	144	5
NMSI_	77	144	5	96	48	3
NMSTR	77	240	1
NMSI_	77	240	1	96	48	5
NMTAP	77	240	5
NMTAP	77	336	1
NMTAP	77	336	7
NMTAP	78	48	4
NMTAP	78	48	6
NMTAP	78	96	5
NMTAP	78	144	4
NMTAP	78	192	2
NMTAP	78	240	2
NMTAP	78	288	7
NMTAP	78	336	7
NMTAP	79	0	1
NMTAP	79	24	0
NMTAP	79	48	1
NMTAP	79	72	0
NMTAP	79	96	2
NMTAP	79	120	7
NMTAP	79	144	3
NMTAP	79	168	6
NMTAP	79	192	4
NMTAP	79	216	5
NMTAP	79	240	3
NMTAP	79	264	4
NMTAP	79	288	2
NMTAP	79	312	3
NMTTP	79	336	0	C	0	M1
NMTTP	81	192	5	E	0	M1
NMTTP	81	288	4	E	0	M1
NMTTP	82	0	3	E	0	M1
NMTTP	82	144	6	B	0	M1
NMTTP	82	192	5	E	0	M1
NMTTP	82	240	2	E	0	M1
NMTTP	82	256	2	B	0	M1
NMTTP	82	272	3	B	0	M1
NMTTP	82	288	4	E	0	M1
NMTTP	82	336	7	E	0	M1
NMTTP	83	48	6	E	0	M1
NMTTP	83	96	4	B	0	M1
NMTTP	83	144	3	A	0	M1
NMSTR	83	192	0
BRSF_	83	192	0	96	48	4
NMTTP	83	288	0	B	1	M1
NMTAP	84	0	2
NMTAP	84	0	6
NMTAP	84	48	5
NMTAP	84	72	4
NMTAP	84	96	5
NMTAP	84	144	2
NMTAP	84	144	3
NMTAP	84	192	1
NMTAP	84	240	7
NMTAP	84	288	3
NMTAP	84	288	5
NMSTR	84	336	1
NMSV_	84	336	1	96	48	2
NMTTP	85	48	5	A	0	M1
CNSCR	85	96	2	0	96	4
NMTTP	85	96	5	B	0	M1
NMTTP	85	144	7	B	0	M1
NMTTP	85	240	4	E	0	M1
NMTTP	85	288	1	E	0	M1
NMTTP	85	336	2	A	0	M1
NMHLD	86	0	7	96
NMTAP	86	144	0
NMTAP	86	144	1
NMTAP	86	192	2
NMTAP	86	192	7
NMTAP	86	240	6
NMTAP	86	256	5
NMTAP	86	272	4
NMTAP	86	288	0
NMHLD	86	336	1	96
NMTAP	86	336	7
NMSTR	87	48	0
NMSV_	87	48	0	96	48	5
NMSTR	87	96	6
NMSCR	87	96	6	96	96	4
NMTAP	87	144	0
NMTAP	87	192	6
NMTAP	87	288	7
NMTAP	87	336	0
NMTAP	87	336	6
NMTAP	88	48	4
NMTAP	88	48	5
NMTAP	88	96	3
NMTAP	88	120	4
NMTAP	88	168	4
NMTAP	88	192	2
NMTAP	88	240	1
NMTAP	88	240	5
NMTAP	88	288	6
NMHLD	88	336	0	96
NMTAP	88	336	7
NMTAP	89	48	2
NMSTR	89	96	3
NMSI_	89	96	3	96	48	0
NMTAP	89	144	4
NMSTR	89	192	3
NMSI_	89	192	3	96	48	6
NMTAP	89	192	5
NMSTR	89	288	1
NMSCR	89	288	1	96	72	5
NMTAP	89	288	3
BRHLD	90	0	7	96
NMTAP	90	144	4
NMTAP	90	144	5
NMTAP	90	192	3
NMTAP	90	192	6
NMTAP	90	240	1
NMTAP	90	256	2
NMTAP	90	272	3
NMTAP	90	288	7
NMTAP	90	336	0
NMSTR	90	336	1
NMSI_	90	336	1	96	96	5
NMTAP	91	48	4
NMTAP	91	96	5
CNSI_	91	144	5	0	48	2
NMTAP	91	144	6
CNSI_	91	192	2	0	48	4
NMHLD	91	192	7	96
NMTAP	91	336	0
NMTAP	91	336	6
NMTAP	92	0	1
NMTAP	92	0	5
NMTAP	92	48	2
NMTAP	92	72	3
NMTAP	92	96	2
NMTAP	92	144	3
NMTAP	92	144	4
NMTAP	92	192	1
NMTAP	92	192	5
NMTAP	92	240	6
NMTAP	92	264	7
NMTAP	92	288	6
NMTAP	92	336	0
NMTAP	92	336	5
NMHLD	93	0	0	48
NMHLD	93	0	5	48
NMHLD	93	72	4	48
NMHLD	93	72	6	48
NMTAP	93	144	3
NMTAP	93	168	2
NMTAP	93	192	0
NMTAP	93	216	7
NMTAP	93	240	6
NMTAP	93	264	5
NMTAP	93	288	3
NMTAP	93	312	2
NMTAP	93	336	1
NMTAP	93	360	0
NMHLD	94	0	6	96
NMTAP	94	96	4
NMTAP	94	112	5
NMTAP	94	128	4
NMTAP	94	144	5
NMTAP	94	160	4
NMTAP	94	176	5
NMHLD	94	192	3	72
NMHLD	94	264	2	72
NMSTR	94	336	1
NMSI_	94	336	1	96	48	4
NMTAP	95	48	4
NMTAP	95	96	5
NMTAP	95	144	6
NMTAP	95	176	0
NMHLD	95	192	7	56
NMTAP	95	248	4
NMHLD	95	264	6	56
NMTAP	95	336	3
NMTAP	95	336	5
NMTAP	96	48	2
NMTAP	96	48	4
NMTAP	96	96	1
NMTAP	96	120	3
NMTAP	96	168	3
NMTAP	96	192	2
NMTAP	96	216	5
NMTAP	96	240	4
NMTAP	96	288	6
NMTAP	96	288	7
NMHLD	96	336	0	96
NMTAP	96	336	5
NMSTR	97	48	2
NMSXR	97	48	2	96	240	4
NMTAP	97	96	3
NMTAP	97	144	4
NMTAP	98	48	3
NMTAP	98	48	5
NMTAP	98	96	6
NMTAP	98	120	4
NMTAP	98	168	4
NMTAP	98	192	5
NMTAP	98	216	2
NMTAP	98	240	3
NMTAP	98	288	0
NMTAP	98	288	1
BRTAP	98	336	2
BXSTR	98	336	6
NMSXL	98	336	6	96	240	3
NMTTP	99	336	1	E	0	M1
NMTTP	99	352	0	C	0	M1
NMTTP	99	368	5	E	0	M1

T_REC_TAP	576
T_REC_BRK	7
T_REC_XTP	5
T_REC_BXX	0
T_REC_HLD	55
T_REC_XHO	1
T_REC_BHO	2
T_REC_BXH	0
T_REC_STR	74
T_REC_BST	0
T_REC_XST	0
T_REC_XBS	1
T_REC_TTP	44
T_REC_THO	0
T_REC_SLD	76
T_REC_BSL	1
T_REC_ALL	842
T_NUM_TAP	699
T_NUM_BRK	11
T_NUM_HLD	56
T_NUM_SLD	76
T_NUM_ALL	842
T_JUDGE_TAP	707
T_JUDGE_HLD	139
T_JUDGE_SLD	77
T_JUDGE_ALL	923
TTM_EACHPAIRS	147
TTM_SCR_TAP	349500
TTM_SCR_BRK	28600
TTM_SCR_HLD	56000
TTM_SCR_SLD	114000
TTM_SCR_ALL	548100
TTM_SCR_S	530600
TTM_SCR_SS	547000
TTM_RAT_ACV	10020

