VERSION	0.00.00	1.05.00
FES_MODE	0
BPM_DEF	192.000	192.000	192.000	192.000
MET_DEF	4	4
RESOLUTION	384
CLK_DEF	384
COMPATIBLE_CODE	MA2

BPM	0	0	192.000
MET	0	0	4	4

NMHLD	2	0	2	144
NMHLD	2	144	3	192
NMSTR	2	336	2
NMSUR	2	336	2	96	240	3
NMHLD	4	0	5	144
NMHLD	4	144	4	192
NMSTR	4	336	6
NMSUL	4	336	6	96	240	4
NMHLD	6	0	2	96
NMTAP	6	96	3
NMHLD	6	144	3	96
NMTAP	6	240	1
NMSTR	6	288	1
NMSI_	6	288	1	96	96	4
NMTAP	7	144	5
NMTAP	7	240	4
NMTAP	7	240	5
NMTAP	7	288	4
NMTAP	7	288	5
NMHLD	8	0	3	96
NMHLD	8	0	6	96
NMHLD	8	144	4	144
NMHLD	8	144	5	144
NMTAP	8	336	3
NMSTR	8	336	6
NMSXL	8	336	6	96	240	4
BXHLD	10	0	1	384
BXTAP	10	0	3
NMTTP	10	96	4	E	0	M1
NMTTP	10	192	3	E	0	M1
NMTTP	10	288	2	E	0	M1
BXTAP	11	0	0
BXTAP	11	96	2
BXTAP	11	96	7
BXTAP	11	192	1
BXTAP	11	192	6
BXTAP	11	240	1
BXTAP	11	240	6
NMTAP	12	0	0
NMTAP	12	48	0
NMTAP	12	96	1
NMTAP	12	96	7
EXHLD	12	192	6	72
NMHLD	12	264	4	72
EXHLD	12	336	5	72
NMHLD	13	24	2	72
EXHLD	13	96	3	72
NMTAP	13	168	1
NMTAP	13	240	0
NMTAP	13	240	7
NMTAP	13	288	0
NMTAP	13	288	7
NMSTR	14	0	1
NMSI_	14	0	1	96	96	4
NMSTR	14	192	6
NMSI_	14	192	6	96	96	3
NMTAP	15	0	2
NMTAP	15	48	2
NMTAP	15	144	1
NMTAP	15	144	3
NMHLD	15	240	4	96
NMHLD	15	240	6	96
NMTAP	16	0	7
NMTAP	16	48	7
NMTAP	16	96	0
NMTAP	16	96	6
EXHLD	16	192	1	72
NMHLD	16	264	3	72
EXHLD	16	336	2	72
NMHLD	17	24	5	72
EXHLD	17	96	4	72
NMTAP	17	168	6
NMTAP	17	240	0
NMTAP	17	240	7
NMTAP	17	288	0
NMTAP	17	288	7
NMSTR	18	0	6
NMSSR	18	0	6	96	192	2
NMSTR	19	0	1
NMSI_	19	0	1	96	96	4
NMSI_	19	0	1	96	96	5
NMTAP	19	288	3
NMTAP	19	288	6
NMTAP	20	0	0
NMTAP	20	48	0
NMTAP	20	96	1
NMTAP	20	96	7
EXHLD	20	192	6	72
NMHLD	20	264	5	72
EXHLD	20	336	4	72
NMHLD	21	24	3	72
EXHLD	21	96	2	72
NMTAP	21	168	1
NMTAP	21	240	0
NMTAP	21	240	7
NMTAP	21	288	0
NMTAP	21	288	7
NMSTR	22	0	2
NMSI_	22	0	2	96	96	7
NMSTR	22	192	5
NMSI_	22	192	5	96	96	0
NMTAP	23	0	2
NMTAP	23	48	2
NMTAP	23	144	1
NMTAP	23	144	3
NMTAP	23	240	4
NMTAP	23	240	6
NMTAP	23	288	4
NMTAP	23	288	6
NMTAP	24	0	7
NMTAP	24	48	7
NMTAP	24	96	0
NMTAP	24	96	6
EXHLD	24	192	1	72
NMHLD	24	264	2	72
EXHLD	24	336	3	72
NMHLD	25	24	4	72
EXHLD	25	96	5	72
NMTAP	25	168	6
NMTAP	25	240	0
NMTAP	25	240	7
NMTAP	25	288	0
NMTAP	25	288	7
NMTAP	26	0	4
NMTAP	26	0	6
NMTAP	26	96	1
NMTAP	26	96	3
NMTAP	26	192	5
NMTAP	26	192	7
NMTAP	26	288	0
NMTAP	26	288	2
NMSTR	27	0	0
NMSCR	27	0	0	96	96	3
NMSTR	27	0	7
NMSCL	27	0	7	96	96	4
BXTAP	27	288	2
BXTAP	27	288	5
NMTAP	28	0	3
NMTAP	28	0	6
NMTAP	28	96	5
NMTAP	28	144	5
NMTAP	28	192	4
NMHLD	28	288	1	96
NMTAP	29	0	3
NMTAP	29	96	5
NMTAP	29	144	5
NMTAP	29	192	3
NMTAP	29	240	3
NMTAP	29	288	2
NMTAP	29	288	4
NMTAP	29	336	2
NMTAP	29	336	4
NMTAP	30	48	0
NMTAP	30	48	6
NMTAP	30	96	0
NMTAP	30	96	6
NMHLD	30	192	2	96
NMHLD	30	288	0	96
NMHLD	31	0	7	96
NMTAP	31	96	5
NMTAP	31	144	5
NMTAP	31	192	4
NMTAP	31	240	4
NMTAP	31	288	6
NMTAP	32	0	0
NMTAP	32	0	7
NMTAP	32	96	1
NMTAP	32	144	1
NMTAP	32	192	3
NMHLD	32	288	6	96
NMTAP	33	0	4
NMTAP	33	96	2
NMTAP	33	144	2
NMTAP	33	192	4
NMTAP	33	240	4
NMTAP	33	288	3
NMTAP	33	288	5
NMTAP	33	336	3
NMTAP	33	336	5
NMTAP	34	48	1
NMTAP	34	48	7
NMTAP	34	96	1
NMTAP	34	96	7
NMHLD	34	192	5	96
NMHLD	34	288	7	96
NMHLD	35	0	0	96
NMTAP	35	96	2
EXTAP	35	192	2
EXTAP	35	192	3
EXTAP	35	264	2
EXTAP	35	264	3
BXSTR	35	336	2
NMSI_	35	336	2	96	48	4
BXTAP	35	336	3
CNSI_	36	96	4	0	48	1
CNSI_	36	144	1	0	48	5
CNSI_	36	192	5	0	96	0
CNSI_	36	288	0	0	192	6
EXTAP	37	192	4
EXTAP	37	192	6
EXTAP	37	264	4
EXTAP	37	264	6
BXTAP	37	336	4
BXSTR	37	336	6
NMSI_	37	336	6	96	48	4
CNSI_	38	96	4	0	48	7
CNSI_	38	144	7	0	48	3
CNSI_	38	192	3	0	96	0
CNSI_	38	288	0	0	192	2
EXTAP	39	192	1
EXTAP	39	192	3
EXTAP	39	264	1
EXTAP	39	264	3
BXSTR	39	336	1
NMSI_	39	336	1	96	48	3
BXSTR	39	336	3
NMSI_	39	336	3	96	48	5
NMHLD	40	192	6	96
NMTAP	40	288	4
NMTAP	40	336	4
NMTAP	41	48	0
NMTAP	41	48	7
NMTAP	41	96	0
NMTAP	41	96	7
NMSTR	41	144	0
NMSCR	41	144	0	96	96	3
NMSTR	41	144	7
NMSCL	41	144	7	96	96	4
EXHLD	42	96	1	144
EXHLD	42	240	3	144
EXHLD	43	0	4	144
EXHLD	43	144	6	144
EXTAP	43	288	7
EXTAP	43	360	6
EXTAP	43	360	7
EXTAP	44	48	0
EXTAP	44	48	7
EXTAP	44	120	0
EXTAP	44	120	1
BRTAP	44	192	2
BRTAP	44	192	7
BRTAP	44	264	3
BRTAP	44	264	6
BRHLD	44	336	4	96
BRHLD	44	336	5	96
EXTAP	45	288	4
EXTAP	45	288	5
BRTAP	46	0	6
BRTAP	46	0	7
NMTAP	46	96	1
NMTAP	46	144	1
NMTAP	46	192	0
NMTAP	46	192	2
NMTAP	46	288	2
NMTAP	46	288	3
NMTAP	47	0	4
NMTAP	47	0	5
NMSTR	47	96	6
NMSUL	47	96	6	96	48	2
NMSTR	47	96	7
NMSV_	47	96	7	96	48	2
NMTAP	47	336	1
NMHLD	48	0	1	96
NMTAP	48	96	3
NMTAP	48	192	0
NMTAP	48	192	7
NMTAP	48	288	4
NMSTR	48	288	6
NMSUL	48	288	6	96	96	2
NMTAP	49	96	1
NMHLD	49	144	1	96
NMTAP	49	240	3
NMTAP	49	288	3
NMTAP	50	0	0
NMTAP	50	0	1
NMTAP	50	96	6
NMTAP	50	144	6
NMTAP	50	192	7
NMTAP	50	288	4
NMTAP	50	288	5
NMTAP	51	0	2
NMTAP	51	0	3
NMSTR	51	96	0
NMSV_	51	96	0	96	48	5
NMSTR	51	96	1
NMSUR	51	96	1	96	48	5
NMTAP	51	336	6
NMTAP	52	0	6
NMTAP	52	48	4
NMTAP	52	96	4
NMTAP	52	144	5
NMTAP	52	192	2
NMTAP	52	240	3
NMSTR	52	288	1
NMSUR	52	288	1	96	96	5
NMTAP	52	336	1
NMTAP	53	192	4
NMTAP	53	192	6
NMTAP	53	288	4
NMTAP	53	288	6
NMTAP	54	0	3
NMHLD	54	0	7	144
NMTAP	54	144	5
NMHLD	54	192	5	96
NMTAP	54	288	3
NMHLD	54	336	3	96
NMTAP	55	48	1
NMTAP	55	96	1
NMTAP	55	192	0
NMTAP	55	192	4
NMTAP	55	288	0
NMTAP	55	288	4
NMTAP	56	0	1
NMTAP	56	48	1
NMTAP	56	96	3
NMTAP	56	144	3
NMSTR	56	192	2
NMSI_	56	192	2	96	48	6
NMTAP	56	288	4
NMSTR	57	0	5
NMSCL	57	0	5	96	48	2
NMTAP	57	192	0
NMTAP	57	288	1
NMTAP	57	288	3
NMHLD	58	0	0	144
NMTAP	58	0	4
NMTAP	58	144	2
NMHLD	58	192	2	96
NMTAP	58	288	4
NMHLD	58	336	4	96
NMTAP	59	48	6
NMTAP	59	96	6
NMTAP	59	192	3
NMTAP	59	192	7
NMTAP	59	288	4
NMTAP	59	288	6
NMTAP	59	336	4
NMTAP	59	336	6
NMTAP	60	48	1
NMTAP	60	48	3
NMTAP	60	96	1
NMTAP	60	96	3
NMTAP	60	192	6
NMTAP	60	192	7
NMTAP	60	288	0
NMTAP	60	288	1
BRSTR	61	0	2
BRSCL	61	0	2	96	144	5
BRSTR	61	0	3
BRSUL	61	0	3	96	144	4
BXTAP	62	0	1
BXHLD	62	0	5	288
NMTTP	62	96	2	A	0	M1
NMTTP	62	192	3	A	0	M1
NMTTP	62	288	4	A	0	M1
BRTAP	63	0	6
BRTAP	63	0	7
BRTAP	63	96	0
BRTAP	63	96	1
BXTAP	63	192	2
BXTAP	63	192	7
BXSTR	63	240	2
NMSUR	63	240	2	96	96	5
BXHLD	63	240	7	720
CNSI_	64	48	5	0	48	7
CNSI_	64	96	7	0	48	1
CNSI_	64	144	1	0	288	3
NMTAP	65	192	4
NMTAP	65	240	4
NMTAP	65	288	4
NMTAP	65	288	5
NMTAP	66	0	0
NMSTR	66	0	6
NMSI_	66	0	6	96	48	3
NMSTR	66	192	1
NMSI_	66	192	1	96	48	4
NMTAP	66	192	7
NMHLD	67	0	6	96
NMHLD	67	96	4	96
NMHLD	67	192	3	96
NMTAP	67	288	1
NMTAP	67	336	1
NMTAP	68	0	5
NMTAP	68	48	5
NMTAP	68	96	3
NMTAP	68	144	3
NMTAP	68	192	4
NMTAP	68	240	4
NMTAP	68	288	2
NMTAP	68	336	2
NMHLD	69	0	3	96
NMTAP	69	96	1
NMTAP	69	144	1
NMTAP	69	240	3
NMTAP	69	240	4
NMHLD	69	336	6	96
NMTAP	70	48	4
NMSTR	70	96	4
NMSI_	70	96	4	96	48	0
NMHLD	70	336	1	96
NMHLD	70	336	7	96
EXTAP	71	144	3
EXTAP	71	144	5
EXTAP	71	240	2
EXTAP	71	240	6
BRTAP	71	336	1
BRSTR	71	336	7
NMSCR	71	336	7	96	720	6
CNSCL	74	0	6	0	288	7
NMTAP	75	0	1
NMTAP	75	96	2
NMTAP	75	192	3
NMTAP	75	288	4
NMTAP	75	288	5
EXHLD	75	336	4	96
EXHLD	75	336	5	96
EXHLD	76	144	3	96
EXHLD	76	144	6	96
EXHLD	76	336	1	96
EXHLD	76	336	4	96
EXTAP	77	144	4
EXTAP	77	144	6
EXTAP	77	240	1
EXTAP	77	240	3
BRTAP	77	336	0
BRHLD	77	336	1	144
NMTAP	78	96	7
NMTAP	78	192	6
NMTAP	78	288	2
NMTAP	78	288	5
NMTAP	79	0	3
NMTAP	79	24	4
NMTAP	79	48	3
NMTAP	79	72	4
NMTAP	79	96	3
EXTAP	79	192	1
EXTAP	79	192	6
EXTAP	79	240	1
EXTAP	79	240	6
BXTAP	79	336	0
BXTAP	79	336	7
EXTAP	83	288	2
EXTAP	83	288	6
BRTAP	84	0	4
BRTAP	84	0	5
NMTAP	84	96	7
NMTAP	84	144	7
NMTAP	84	192	3
NMTAP	84	240	3
NMTAP	84	288	4
NMTAP	84	288	5
NMSTR	84	336	4
NMSI_	84	336	4	96	48	1
NMSTR	84	336	5
NMSI_	84	336	5	96	48	0
NMHLD	85	144	2	96
NMTAP	85	240	0
NMTAP	85	288	0
NMTAP	86	0	1
NMTAP	86	0	3
NMTAP	86	96	4
NMTAP	86	144	4
NMTAP	86	192	3
NMTAP	86	288	4
NMTAP	86	288	5
NMTAP	87	0	6
NMTAP	87	0	7
NMSTR	87	96	0
NMSV_	87	96	0	96	48	5
NMSTR	87	96	1
NMSUR	87	96	1	96	48	5
NMTAP	88	0	6
NMTAP	88	48	6
NMTAP	88	96	4
NMTAP	88	144	4
NMTAP	88	192	3
NMTAP	88	240	3
NMSTR	88	288	1
NMSUR	88	288	1	96	48	5
NMTAP	89	192	4
NMTAP	89	192	6
NMTAP	89	288	4
NMTAP	89	288	6
NMHLD	90	0	3	144
NMTAP	90	0	7
NMTAP	90	144	1
NMHLD	90	192	1	96
NMTAP	90	288	7
NMHLD	90	336	7	96
NMTAP	91	48	5
NMTAP	91	96	5
NMTAP	91	192	0
NMTAP	91	192	4
NMTAP	91	288	0
NMTAP	91	288	4
EXTAP	92	0	2
EXTAP	92	48	3
EXTAP	92	96	4
EXTAP	92	144	5
NMHLD	92	192	6	72
NMHLD	92	264	5	72
NMTAP	92	336	4
NMHLD	93	0	3	72
NMHLD	93	72	2	72
NMTAP	93	144	1
NMSTR	93	192	1
NMSI_	93	192	1	96	48	7
EXTAP	94	0	6
EXTAP	94	48	5
EXTAP	94	96	4
EXTAP	94	144	1
EXTAP	94	192	2
EXTAP	94	240	3
EXTAP	94	288	4
EXHLD	94	336	5	96
EXTAP	95	48	4
EXSTR	95	96	4
NMSF_	95	96	4	96	96	0
NMTAP	96	0	1
NMTAP	96	48	1
NMTAP	96	96	0
NMTAP	96	192	6
NMTAP	96	192	7
EXTAP	96	288	4
EXTAP	96	288	5
EXTAP	96	336	4
EXSTR	96	336	5
NMSI_	96	336	5	96	48	2
NMHLD	97	144	1	96
NMTAP	97	240	3
NMTAP	97	288	3
NMTAP	98	0	2
NMTAP	98	0	4
NMTAP	98	48	2
NMTAP	98	48	4
NMTAP	98	96	2
NMTAP	98	96	4
EXTAP	98	192	1
EXTAP	98	192	5
EXTAP	98	264	2
EXTAP	98	264	6
BRSTR	98	336	3
NMSLL	98	336	3	96	288	7
BRSTR	98	336	7
NMSLL	98	336	7	96	288	3

T_REC_TAP	273
T_REC_BRK	14
T_REC_XTP	54
T_REC_BXX	17
T_REC_HLD	53
T_REC_XHO	23
T_REC_BHO	3
T_REC_BXH	3
T_REC_STR	31
T_REC_BST	5
T_REC_XST	2
T_REC_XBS	5
T_REC_TTP	6
T_REC_THO	0
T_REC_SLD	42
T_REC_BSL	2
T_REC_ALL	533
T_NUM_TAP	366
T_NUM_BRK	49
T_NUM_HLD	76
T_NUM_SLD	42
T_NUM_ALL	533
T_JUDGE_TAP	407
T_JUDGE_HLD	203
T_JUDGE_SLD	44
T_JUDGE_ALL	654
TTM_EACHPAIRS	134
TTM_SCR_TAP	183000
TTM_SCR_BRK	127400
TTM_SCR_HLD	76000
TTM_SCR_SLD	63000
TTM_SCR_ALL	449400
TTM_SCR_S	431200
TTM_SCR_SS	444500
TTM_RAT_ACV	10110

