VERSION	0.00.00	1.05.00
FES_MODE	0
BPM_DEF	192.000	192.000	192.000	192.000
MET_DEF	4	4
RESOLUTION	384
CLK_DEF	384
COMPATIBLE_CODE	MA2

BPM	0	0	192.000
MET	0	0	4	4

NMHLD	2	0	2	384
NMHLD	3	0	3	384
NMHLD	4	0	4	384
NMTAP	5	0	5
NMHLD	6	0	5	384
NMHLD	7	0	4	384
NMHLD	8	0	3	384
NMTAP	9	0	2
NMHLD	10	0	3	384
NMHLD	10	0	4	384
NMTAP	12	0	4
NMTAP	12	96	4
NMTAP	12	192	5
NMTAP	13	0	6
NMTAP	13	96	6
NMTAP	13	192	7
NMTAP	14	0	0
NMTAP	14	96	0
NMTAP	14	192	1
NMTAP	15	0	2
NMTAP	15	96	2
NMTAP	15	192	3
NMTAP	15	192	4
NMTAP	16	0	3
NMTAP	16	96	3
NMTAP	16	192	2
NMTAP	17	0	1
NMTAP	17	96	1
NMTAP	17	192	0
NMTAP	18	0	7
NMTAP	18	96	7
NMTAP	18	192	6
NMTAP	19	0	5
NMTAP	19	96	5
NMTAP	19	192	3
NMTAP	19	192	4
NMTAP	20	0	5
NMTAP	20	96	5
NMTAP	20	192	4
NMTAP	20	192	5
NMTAP	21	0	6
NMTAP	21	96	6
NMTAP	21	192	6
NMTAP	21	192	7
NMTAP	22	0	0
NMTAP	22	96	0
NMTAP	22	192	0
NMTAP	22	192	1
NMTAP	23	0	2
NMTAP	23	0	3
NMTAP	23	96	2
NMTAP	23	96	3
NMTAP	23	192	2
NMTAP	23	192	3
NMTAP	24	0	2
NMTAP	24	96	2
NMTAP	24	192	2
NMTAP	24	192	3
NMTAP	25	0	1
NMTAP	25	96	1
NMTAP	25	192	0
NMTAP	25	192	1
NMTAP	26	0	7
NMTAP	26	96	7
NMTAP	26	192	6
NMTAP	26	192	7
NMTAP	27	0	4
NMTAP	27	0	5
NMTTP	28	0	6	B	0	L1
NMTTP	28	96	5	B	0	L1
NMTTP	28	192	4	B	0	L1
NMTTP	29	0	1	B	0	L1
NMTTP	29	96	2	B	0	L1
NMTTP	29	192	3	B	0	L1
NMTTP	30	0	6	B	0	L1
NMTTP	30	96	5	B	0	L1
NMTTP	30	192	4	B	0	L1
NMTTP	30	288	3	B	0	L1
NMTTP	31	0	0	C	0	L1
NMTTP	32	0	0	B	0	L1
NMTTP	32	96	1	B	0	L1
NMTTP	32	192	2	B	0	L1
NMTTP	32	192	3	B	0	L1
NMTTP	33	0	7	B	0	L1
NMTTP	33	96	6	B	0	L1
NMTTP	33	192	4	B	0	L1
NMTTP	33	192	5	B	0	L1
NMTTP	34	0	1	B	0	L1
NMTTP	34	96	2	B	0	L1
NMTTP	34	192	3	B	0	L1
NMTTP	34	288	4	B	0	L1
NMTTP	35	0	0	C	1	L1
NMSTR	36	0	0
NMSI_	36	0	0	96	288	4
NMTAP	37	192	5
NMSTR	38	0	6
NMSI_	38	0	6	96	288	3
NMTAP	39	192	2
NMSTR	40	0	1
NMSI_	40	0	1	96	288	5
NMTAP	41	192	6
EXSTR	42	0	6
NMSXL	42	0	6	96	672	4
NMTAP	46	0	5
NMTAP	46	96	5
NMTAP	46	192	6
NMTAP	46	288	6
NMTAP	47	0	7
NMTAP	47	96	7
NMTAP	47	192	0
NMTAP	47	192	1
NMTAP	48	0	2
NMTAP	48	96	2
NMTAP	48	192	1
NMTAP	48	288	1
NMTAP	49	0	0
NMTAP	49	96	0
NMTAP	49	192	6
NMTAP	49	192	7
NMTAP	50	0	6
NMTAP	50	96	6
NMTAP	50	192	5
NMTAP	50	288	5
NMTAP	51	0	4
NMTAP	51	96	4
NMTAP	51	192	2
NMTAP	51	192	3
NMTAP	52	0	1
NMTAP	52	96	1
NMTAP	52	192	2
NMTAP	52	288	2
NMTAP	53	0	3
NMTAP	53	96	3
NMTAP	53	192	4
NMTAP	53	192	5
NMTAP	54	0	5
NMTAP	54	96	5
NMTAP	54	192	6
NMTAP	54	288	6
NMTAP	55	0	7
NMTAP	55	96	7
NMTAP	55	192	0
NMTAP	55	192	1
NMTAP	55	288	0
NMTAP	55	288	1
NMTAP	56	0	2
NMTAP	56	96	2
NMTAP	56	192	1
NMTAP	56	288	1
NMTAP	57	0	0
NMTAP	57	96	0
NMTAP	57	192	6
NMTAP	57	192	7
NMTAP	58	0	6
NMTAP	58	96	6
NMTAP	58	192	5
NMTAP	58	288	5
NMTAP	59	0	4
NMTAP	59	96	4
NMTAP	59	192	2
NMTAP	59	192	3
NMTAP	59	288	2
NMTAP	59	288	3
NMTAP	60	0	1
NMTAP	60	96	1
NMTAP	60	192	2
NMTAP	60	288	2
NMTAP	61	0	3
NMTAP	61	96	3
BXTAP	61	192	4
BXTAP	61	192	5
NMSTR	62	0	3
NMSI_	62	0	3	96	288	0
NMSTR	62	0	4
NMSI_	62	0	4	96	288	7
NMTAP	64	0	7
NMTAP	64	96	7
NMTAP	64	192	6
NMTAP	64	288	6
NMTAP	65	0	5
NMTAP	65	96	5
NMTAP	65	192	4
NMTAP	65	288	4
NMTAP	66	0	3
NMTAP	66	96	3
NMTAP	66	192	2
NMTAP	66	288	2
NMTAP	67	0	1
NMTAP	67	96	1
NMTAP	67	192	0
NMTAP	67	192	7
NMTAP	68	0	0
NMTAP	68	96	0
NMTAP	68	192	1
NMTAP	68	288	1
NMTAP	69	0	2
NMTAP	69	96	2
NMTAP	69	192	3
NMTAP	69	288	3
NMTAP	70	0	4
NMTAP	70	96	4
NMTAP	70	192	5
NMTAP	70	288	5
NMTAP	71	0	6
NMTAP	71	96	6
NMTAP	71	192	0
NMTAP	71	192	7
NMHLD	72	0	6	192
NMTAP	72	192	7
NMTAP	73	0	6
NMTAP	73	0	7
NMTAP	73	192	6
NMTAP	73	192	7
NMHLD	74	0	5	192
NMTAP	74	192	4
NMTAP	75	0	4
NMTAP	75	0	5
NMTAP	75	192	4
NMTAP	75	192	5
NMHLD	76	0	2	192
NMTAP	76	192	3
NMTAP	77	0	2
NMTAP	77	0	3
NMTAP	77	192	2
NMTAP	77	192	3
NMHLD	78	0	1	192
NMTAP	78	192	0
NMHLD	79	0	0	336
NMHLD	79	0	1	336
NMSTR	82	0	0
NMSI_	82	0	0	96	288	3
NMSTR	82	0	7
NMSI_	82	0	7	96	288	4
NMTAP	84	0	5
NMTAP	84	96	5
NMTAP	84	192	6
NMTAP	84	192	7
NMTAP	84	288	6
NMTAP	84	288	7
NMTAP	85	0	0
NMTAP	85	96	0
NMTAP	85	192	0
NMTAP	85	192	1
NMTAP	86	0	1
NMTAP	86	96	1
NMTAP	86	192	2
NMTAP	86	192	3
NMTAP	86	288	2
NMTAP	86	288	3
NMTAP	87	0	4
NMTAP	87	96	4
BRTAP	87	192	4
BRTAP	87	192	5
NMTAP	88	0	6
NMTAP	88	96	6
NMTAP	88	192	4
NMTAP	88	192	5
NMTAP	88	288	4
NMTAP	88	288	5
NMTAP	89	0	3
NMTAP	89	96	3
NMTAP	89	192	2
NMTAP	89	192	3
NMTAP	90	0	0
NMTAP	90	0	1
NMTAP	90	96	0
NMTAP	90	96	1
NMTAP	90	192	2
NMTAP	90	288	2
NMTAP	91	0	3
NMTAP	91	0	4
NMTAP	91	96	3
NMTAP	91	96	4
NMTAP	91	192	5
NMTAP	91	288	5
NMTAP	92	0	6
NMTAP	92	0	7
NMTAP	92	96	6
NMTAP	92	96	7
NMTAP	92	192	5
NMTAP	92	288	5
NMTAP	93	0	3
NMTAP	93	0	4
NMTAP	93	96	3
NMTAP	93	96	4
NMTAP	93	192	2
NMTAP	93	192	5
NMTAP	94	0	4
NMTAP	94	0	5
NMTAP	94	96	4
NMTAP	94	96	5
NMTAP	94	192	6
NMTAP	94	288	6
NMTAP	95	0	0
NMTAP	95	0	7
NMTAP	95	96	0
NMTAP	95	96	7
NMTAP	95	192	1
NMTAP	95	288	1
NMTAP	96	0	2
NMTAP	96	0	3
NMTAP	96	96	2
NMTAP	96	96	3
NMTAP	96	192	1
NMTAP	96	288	1
NMTAP	97	0	0
NMTAP	97	0	7
NMTAP	97	96	0
NMTAP	97	96	7
NMTAP	97	192	1
NMTAP	97	192	6
NMSTR	98	0	0
NMSXL	98	0	0	96	672	3
NMSTR	98	0	7
NMSXR	98	0	7	96	672	4

T_REC_TAP	253
T_REC_BRK	2
T_REC_XTP	0
T_REC_BXX	2
T_REC_HLD	14
T_REC_XHO	0
T_REC_BHO	0
T_REC_BXH	0
T_REC_STR	9
T_REC_BST	0
T_REC_XST	1
T_REC_XBS	0
T_REC_TTP	24
T_REC_THO	0
T_REC_SLD	10
T_REC_BSL	0
T_REC_ALL	315
T_NUM_TAP	287
T_NUM_BRK	4
T_NUM_HLD	14
T_NUM_SLD	10
T_NUM_ALL	315
T_JUDGE_TAP	291
T_JUDGE_HLD	94
T_JUDGE_SLD	10
T_JUDGE_ALL	395
TTM_EACHPAIRS	62
TTM_SCR_TAP	143500
TTM_SCR_BRK	10400
TTM_SCR_HLD	14000
TTM_SCR_SLD	15000
TTM_SCR_ALL	182900
TTM_SCR_S	177050
TTM_SCR_SS	182500
TTM_RAT_ACV	10021

