VERSION	0.00.00	1.05.00
FES_MODE	0
BPM_DEF	192.000	192.000	192.000	192.000
MET_DEF	4	4
RESOLUTION	384
CLK_DEF	384
COMPATIBLE_CODE	MA2

BPM	0	0	192.000
MET	0	0	4	4

NMTAP	2	0	0
NMTAP	3	0	0
NMTAP	4	0	0
NMTAP	5	0	0
NMTAP	6	0	7
NMTAP	7	0	7
NMTAP	8	0	7
EXTAP	9	0	0
EXTAP	9	0	7
NMHLD	10	0	0	384
NMHLD	10	0	7	384
NMTAP	12	0	0
NMTAP	12	192	0
NMTAP	13	0	1
NMTAP	14	0	2
NMTAP	14	192	2
NMTAP	15	0	3
NMTAP	15	0	4
NMTAP	16	0	4
NMTAP	16	192	4
NMTAP	17	0	5
NMTAP	18	0	6
NMTAP	18	192	6
NMTAP	19	0	0
NMTAP	19	0	7
NMTAP	20	0	7
NMTAP	20	192	7
NMTAP	21	0	6
NMTAP	21	192	6
NMTAP	22	0	5
NMTAP	22	192	5
NMTAP	23	0	3
NMTAP	23	0	4
NMTAP	24	0	3
NMTAP	24	192	3
NMTAP	25	0	2
NMTAP	25	192	2
NMTAP	26	0	1
NMTAP	26	192	1
NMTAP	27	0	0
NMTAP	27	0	7
NMTAP	28	0	0
NMTAP	28	0	1
NMTAP	28	192	0
NMTAP	28	192	1
NMTAP	29	0	0
NMTAP	29	0	1
NMTAP	30	0	2
NMTAP	30	0	3
NMTAP	30	192	2
NMTAP	30	192	3
NMTAP	31	0	2
NMTAP	31	0	3
NMTAP	32	0	4
NMTAP	32	0	5
NMTAP	32	192	4
NMTAP	32	192	5
NMTAP	33	0	4
NMTAP	33	0	5
NMTAP	34	0	6
NMTAP	34	0	7
NMTAP	34	192	6
NMTAP	34	192	7
NMTAP	35	0	6
NMTAP	35	0	7
NMTTP	36	0	7	E	0	L1
NMTTP	37	0	6	E	0	L1
NMTTP	38	0	5	E	0	L1
NMTTP	39	0	4	E	0	L1
NMTTP	40	0	3	E	0	L1
NMTHO	41	0	0	1488	C	1	L1
BXTAP	46	0	0
EXTAP	46	96	0
EXTAP	46	192	0
NMTAP	47	0	1
NMTAP	47	192	1
NMTAP	48	0	2
NMTAP	48	96	2
NMTAP	48	192	2
NMTAP	49	0	3
NMTAP	49	0	4
NMTAP	49	192	3
NMTAP	49	192	4
NMTAP	50	0	4
NMTAP	50	96	4
NMTAP	50	192	4
NMTAP	51	0	5
NMTAP	51	192	5
NMTAP	52	0	6
NMTAP	52	96	6
NMTAP	52	192	6
NMTAP	53	0	0
NMTAP	53	0	7
BRTAP	54	0	7
NMTAP	54	96	7
NMTAP	54	192	7
NMTAP	55	0	6
NMTAP	55	192	6
NMTAP	56	0	5
NMTAP	56	96	5
NMTAP	56	192	5
NMTAP	57	0	3
NMTAP	57	0	4
NMTAP	57	192	3
NMTAP	57	192	4
NMTAP	58	0	3
NMTAP	58	96	3
NMTAP	58	192	3
NMTAP	59	0	2
NMTAP	59	192	2
NMTAP	60	0	1
NMTAP	60	96	1
NMTAP	60	192	1
NMTAP	61	0	0
NMTAP	61	0	7
NMTAP	61	192	0
NMTAP	61	192	7
NMHLD	62	0	0	384
NMHLD	62	0	7	384
NMSTR	64	0	7
NMSI_	64	0	7	96	288	3
NMSTR	66	0	1
NMSI_	66	0	1	96	288	5
NMSTR	68	0	6
NMSI_	68	0	6	96	288	2
NMSTR	70	0	1
NMSI_	70	0	1	96	288	5
NMHLD	72	0	6	384
NMHLD	72	0	7	384
NMHLD	74	0	4	384
NMHLD	74	0	5	384
NMHLD	76	0	2	384
NMHLD	76	0	3	384
EXHLD	78	0	0	720
EXHLD	78	0	1	720
NMTHO	82	0	0	384	C	0	L1
BXTAP	84	0	0
EXTAP	84	96	0
EXTAP	84	192	0
NMTAP	85	0	1
NMTAP	85	96	1
NMTAP	85	192	1
NMTAP	86	0	2
NMTAP	86	96	2
NMTAP	86	192	2
NMTAP	87	0	3
NMTAP	87	96	3
NMTAP	87	192	3
NMTAP	88	0	4
NMTAP	88	96	4
NMTAP	88	192	4
NMTAP	89	0	3
NMTAP	89	0	4
NMTAP	89	192	3
NMTAP	89	192	4
NMTAP	90	0	5
NMTAP	90	96	5
NMTAP	90	192	5
NMTAP	91	0	6
NMTAP	91	96	6
NMTAP	91	192	6
NMTAP	92	0	7
NMTAP	92	96	7
NMTAP	92	192	7
NMTAP	93	0	0
NMTAP	93	0	7
NMTAP	93	192	0
NMTAP	93	192	7
NMTAP	94	0	1
NMTAP	94	96	1
NMTAP	94	192	1
NMTAP	95	0	0
NMTAP	95	0	7
NMTAP	95	192	0
NMTAP	95	192	7
NMTAP	96	0	6
NMTAP	96	96	6
NMTAP	96	192	6
NMTAP	97	0	0
NMTAP	97	0	7
NMTAP	97	192	0
NMTAP	97	192	7
EXSTR	98	0	0
NMSI_	98	0	0	96	288	4

T_REC_TAP	146
T_REC_BRK	1
T_REC_XTP	6
T_REC_BXX	2
T_REC_HLD	10
T_REC_XHO	2
T_REC_BHO	0
T_REC_BXH	0
T_REC_STR	4
T_REC_BST	0
T_REC_XST	1
T_REC_XBS	0
T_REC_TTP	5
T_REC_THO	2
T_REC_SLD	5
T_REC_BSL	0
T_REC_ALL	184
T_NUM_TAP	162
T_NUM_BRK	3
T_NUM_HLD	14
T_NUM_SLD	5
T_NUM_ALL	184
T_JUDGE_TAP	165
T_JUDGE_HLD	149
T_JUDGE_SLD	5
T_JUDGE_ALL	319
TTM_EACHPAIRS	38
TTM_SCR_TAP	81000
TTM_SCR_BRK	7800
TTM_SCR_HLD	14000
TTM_SCR_SLD	7500
TTM_SCR_ALL	110300
TTM_SCR_S	106700
TTM_SCR_SS	110000
TTM_RAT_ACV	10027

