VERSION	0.00.00	1.05.00
FES_MODE	0
BPM_DEF	193.000	193.000	193.000	193.000
MET_DEF	4	4
RESOLUTION	384
CLK_DEF	384
COMPATIBLE_CODE	MA2

BPM	0	0	193.000
MET	0	0	4	4

NMTAP	2	0	5
NMTAP	2	0	7
NMSTR	2	96	4
NMSCR	2	96	4	96	72	7
NMTAP	2	96	6
EXTAP	2	336	0
EXTAP	2	336	7
NMTAP	3	48	0
NMTAP	3	48	2
NMSTR	3	144	1
NMSCR	3	144	1	96	72	4
NMTAP	3	144	3
EXTAP	3	240	5
EXTAP	3	288	5
NMTAP	4	0	6
NMTAP	4	0	7
NMHLD	4	96	2	144
NMSTR	4	96	4
NMSCL	4	96	4	96	96	0
NMTAP	4	336	2
NMTAP	4	336	6
NMTAP	5	48	1
NMTAP	5	48	5
NMTAP	5	144	2
NMSTR	5	144	6
NMSI_	5	144	6	96	48	3
NMTAP	5	240	1
NMTAP	5	288	1
NMTAP	6	0	0
NMTAP	6	48	0
NMTAP	6	48	3
NMTAP	6	96	1
NMTAP	6	144	1
NMTAP	6	144	3
NMTAP	6	192	2
NMTAP	6	240	2
NMTAP	6	240	3
NMTAP	6	288	2
NMTAP	6	336	3
NMTAP	6	336	4
NMTAP	7	0	5
NMTAP	7	48	4
NMTAP	7	48	5
NMTAP	7	96	6
NMTAP	7	144	4
NMTAP	7	144	6
NMTAP	7	192	7
NMTAP	7	240	4
NMTAP	7	240	7
NMTAP	7	288	6
NMTAP	7	336	4
NMTAP	7	336	6
NMTAP	8	0	5
NMTAP	8	24	4
NMTAP	8	48	5
NMTAP	8	72	4
NMTAP	8	96	5
NMTAP	8	144	2
NMTAP	8	168	3
NMTAP	8	192	2
NMTAP	8	216	3
NMTAP	8	240	2
NMTAP	8	288	6
NMTAP	8	312	4
NMTAP	8	336	6
NMTAP	8	360	4
NMTAP	9	0	6
NMTAP	9	48	1
NMTAP	9	72	3
NMTAP	9	96	1
NMTAP	9	120	3
NMTAP	9	144	1
NMTAP	9	168	3
NMTAP	9	192	2
NMTAP	9	216	4
NMTAP	9	240	2
NMTAP	9	264	4
NMTAP	9	288	3
NMTAP	9	312	5
NMTAP	9	336	3
NMTAP	9	360	5
BXSTR	10	0	4
BRSCR	10	0	4	96	288	3
NMTTP	11	0	0	C	1	M1
NMTTP	11	240	2	A	0	M1
NMTTP	11	240	5	A	0	M1
NMTTP	11	264	3	D	0	M1
NMTTP	11	264	5	D	0	M1
NMTTP	11	288	3	A	0	M1
NMTTP	11	288	4	A	0	M1
EXHLD	12	0	1	672
EXTAP	12	0	4
NMTAP	12	96	4
NMTAP	12	192	3
NMTAP	12	288	3
NMTAP	13	0	4
NMTAP	13	96	3
NMTAP	13	192	2
NMTAP	13	288	3
NMTAP	13	336	3
EXTAP	14	0	2
EXTAP	14	0	4
EXSTR	14	144	1
NMSLL	14	144	1	96	240	4
EXHLD	14	144	3	144
EXTAP	15	0	3
CNSI_	15	96	4	0	48	2
CNSI_	15	144	2	0	48	0
NMTAP	15	192	5
NMSTR	15	288	6
NMSI_	15	288	6	96	48	2
NMTAP	15	312	7
NMTAP	15	336	6
NMTAP	15	360	7
NMTAP	16	0	6
BRSTR	16	96	1
NMSCR	16	96	1	96	48	4
NMTAP	16	192	1
BRSTR	16	288	6
NMSUR	16	288	6	96	48	2
NMTAP	17	0	6
BRSTR	17	96	4
NMSI_	17	96	4	96	48	0
NMTAP	17	192	4
BXSTR	17	288	0
NMSI_	17	288	0	96	48	2
BXSTR	17	288	7
NMSI_	17	288	7	96	48	2
NMSTR	18	0	0
NMSI_	18	0	0	96	48	5
NMSTR	18	0	7
NMSI_	18	0	7	96	48	5
NMSTR	18	96	0
NMSCR	18	96	0	96	48	2
NMSTR	18	96	7
NMSI_	18	96	7	96	48	2
NMSTR	18	192	0
NMSI_	18	192	0	96	48	5
NMSTR	18	192	7
NMSCL	18	192	7	96	48	5
NMTAP	18	288	0
NMTAP	18	288	7
EXTAP	19	0	4
EXTAP	19	0	5
NMTAP	19	48	4
NMTAP	19	48	5
EXTAP	19	96	3
EXTAP	19	96	4
NMTAP	19	144	3
NMTAP	19	144	4
NMTAP	19	192	2
NMTAP	19	216	3
NMTAP	19	240	2
BXTAP	19	288	1
BXTAP	19	288	4
NMTAP	20	0	3
NMTAP	20	0	6
NMTAP	20	48	5
NMTAP	20	96	5
NMTAP	20	120	4
NMTAP	20	168	3
NMTAP	20	168	6
NMTAP	20	216	5
NMTAP	20	264	5
NMTAP	20	288	4
NMTAP	21	0	1
NMTAP	21	0	4
NMTAP	21	48	2
NMTAP	21	96	2
NMTAP	21	120	3
NMTAP	21	168	1
NMTAP	21	168	4
NMTAP	21	216	2
NMTAP	21	264	2
NMTAP	21	288	3
NMTAP	22	0	0
NMTAP	22	0	1
NMTAP	22	48	6
NMTAP	22	96	6
NMTAP	22	120	7
NMTAP	22	168	0
NMTAP	22	168	5
NMTAP	22	216	6
NMTAP	22	264	6
EXSTR	22	288	7
NMSI_	22	288	7	96	48	4
EXTAP	23	0	1
EXSTR	23	0	7
NMSI_	23	0	7	96	48	2
EXTAP	23	96	5
EXSTR	23	96	7
NMSI_	23	96	7	96	48	3
EXTAP	23	192	1
EXTAP	23	192	7
EXTAP	23	288	2
EXTAP	23	288	6
EXTAP	24	0	0
EXHLD	24	0	6	96
NMTAP	24	24	1
NMTAP	24	48	2
NMTAP	24	72	3
NMTAP	24	96	4
EXTAP	24	144	1
EXHLD	24	144	7	96
NMTAP	24	168	2
NMTAP	24	192	3
NMTAP	24	216	4
NMTAP	24	240	5
BRTAP	24	288	7
BRTAP	24	336	7
EXTAP	25	0	0
EXHLD	25	0	1	96
NMTAP	25	24	7
NMTAP	25	48	6
NMTAP	25	72	5
NMTAP	25	96	4
EXHLD	25	144	0	96
EXTAP	25	144	6
NMTAP	25	168	5
NMTAP	25	192	4
NMTAP	25	216	3
NMTAP	25	240	2
BRTAP	25	288	0
BRTAP	25	336	0
NMTAP	26	0	1
NMSTR	26	0	3
NMSI_	26	0	3	96	96	0
CNSI_	26	192	0	0	48	4
CNSI_	26	240	4	0	48	7
EXTAP	26	288	0
EXTAP	27	0	6
EXTAP	27	0	7
EXTAP	27	72	0
EXTAP	27	72	1
EXTAP	27	144	0
EXTAP	27	144	7
EXSTR	27	192	0
NMSI_	27	192	0	96	48	4
EXSTR	27	192	7
NMSI_	27	192	7	96	48	3
BRTAP	27	288	0
BRTAP	27	288	7
NMTAP	28	0	2
NMTAP	28	0	5
NMTAP	28	48	6
NMTAP	28	96	1
NMTAP	28	120	0
NMTAP	28	144	1
NMTAP	28	192	7
NMTAP	28	240	2
NMTAP	28	288	5
NMTAP	28	312	4
NMTAP	28	336	5
NMTAP	28	360	4
NMTAP	29	0	5
NMTAP	29	48	4
NMTAP	29	48	6
NMTAP	29	96	6
NMTAP	29	120	7
NMTAP	29	144	6
NMTAP	29	168	7
NMTAP	29	192	6
NMTAP	29	240	0
NMTAP	29	288	1
NMTAP	29	288	7
NMTAP	30	0	2
NMTAP	30	0	6
NMTAP	30	48	3
NMTAP	30	96	5
NMTAP	30	120	4
NMTAP	30	144	5
NMTAP	30	192	3
NMTAP	30	240	6
NMTAP	30	288	1
NMTAP	30	312	0
NMTAP	30	336	1
NMTAP	30	360	0
NMTAP	31	0	1
NMTAP	31	48	0
NMTAP	31	48	2
NMTAP	31	96	2
NMTAP	31	120	3
NMTAP	31	144	2
NMTAP	31	168	3
NMTAP	31	192	2
NMTTP	31	240	1	A	0	M1
NMTTP	31	256	2	E	0	M1
NMTTP	31	272	3	E	0	M1
NMTTP	31	288	4	E	0	M1
NMHLD	32	0	5	48
NMTAP	32	48	4
NMTAP	32	72	5
NMTAP	32	96	4
NMHLD	32	144	6	48
NMTAP	32	192	4
NMTAP	32	216	6
NMTAP	32	240	4
NMTAP	32	288	7
NMTAP	32	336	2
NMTAP	32	336	7
NMSTR	33	0	1
NMSI_	33	0	1	96	48	5
NMTAP	33	48	1
NMSTR	33	96	6
NMSCR	33	96	6	96	48	1
NMTAP	33	144	6
NMSTR	33	192	4
NMSI_	33	192	4	96	48	0
NMTAP	33	240	4
NMTAP	33	288	7
NMTAP	34	0	1
NMTAP	34	0	6
NMTAP	34	48	5
NMTAP	34	96	2
NMTAP	34	120	3
NMTAP	34	144	2
NMTAP	34	192	3
NMTAP	34	192	4
NMTAP	34	240	5
NMTAP	34	264	4
NMTAP	34	288	5
NMTAP	34	312	4
NMHLD	34	336	6	96
NMTAP	35	48	7
NMTAP	35	72	0
NMTAP	35	96	1
NMTAP	35	96	5
NMTAP	35	144	1
NMTAP	35	144	5
NMTAP	35	192	1
NMTAP	35	192	5
NMTAP	35	240	1
NMTAP	35	240	5
NMTAP	35	264	4
NMTAP	35	288	3
NMTAP	36	0	2
NMTAP	36	48	2
NMTAP	36	48	3
NMTAP	36	96	1
NMTAP	36	120	0
NMTAP	36	144	1
NMTAP	36	192	7
NMTAP	36	240	0
NMTAP	36	240	7
NMTAP	36	288	6
NMTAP	36	312	7
NMTAP	36	336	6
NMTAP	36	360	7
NMTAP	37	0	6
NMTAP	37	48	4
NMTAP	37	48	5
NMTAP	37	96	2
NMTAP	37	120	3
NMTAP	37	144	2
NMTAP	37	168	3
NMTAP	37	192	2
NMTAP	37	240	0
NMTAP	37	240	1
NMTAP	37	288	2
NMTAP	37	288	7
NMTAP	38	0	5
NMTAP	38	48	4
NMTAP	38	48	5
NMTAP	38	96	6
NMTAP	38	120	7
NMTAP	38	144	6
NMTAP	38	192	0
NMTAP	38	240	0
NMTAP	38	240	7
NMTAP	38	288	1
NMTAP	38	312	0
NMTAP	38	336	1
NMTAP	38	360	0
NMTAP	39	0	1
NMTAP	39	48	2
NMTAP	39	48	3
NMTAP	39	96	5
NMTAP	39	120	4
NMTAP	39	144	5
NMTAP	39	168	4
NMTAP	39	192	5
NMTTP	39	240	6	A	0	M1
NMTTP	39	256	6	E	0	M1
NMTTP	39	272	5	E	0	M1
NMTTP	39	288	4	E	0	M1
NMHLD	40	0	2	48
NMTAP	40	48	3
NMTAP	40	72	2
NMTAP	40	96	3
NMHLD	40	144	1	48
NMTAP	40	192	3
NMTAP	40	216	1
NMTAP	40	240	3
NMTAP	40	288	0
NMTAP	40	336	0
NMTAP	40	336	5
NMSTR	41	0	6
NMSI_	41	0	6	96	48	2
NMTAP	41	48	6
NMSTR	41	96	1
NMSI_	41	96	1	96	48	4
NMTAP	41	144	1
NMTAP	41	192	5
NMTAP	41	240	6
NMTAP	41	288	3
NMTAP	41	288	7
EXTAP	42	0	2
EXTAP	42	0	6
NMTAP	42	24	3
NMTAP	42	48	4
NMTAP	42	72	5
NMTAP	42	96	6
NMTAP	42	120	7
EXTAP	42	144	0
EXTAP	42	144	4
NMTAP	42	168	3
NMTAP	42	192	2
NMTAP	42	216	1
NMTAP	42	240	0
NMTAP	42	264	7
EXTAP	42	288	2
EXTAP	42	288	6
EXHLD	42	336	2	96
EXTAP	42	336	6
EXTAP	43	48	0
NMTAP	43	64	1
NMTAP	43	80	2
NMTAP	43	96	3
NMTAP	43	112	4
NMTAP	43	128	5
NMTAP	43	144	6
NMTAP	43	160	7
EXTAP	43	176	0
NMTAP	43	192	1
NMTAP	43	208	2
NMTAP	43	224	3
NMTAP	43	240	4
NMTAP	43	256	5
NMTAP	43	272	6
BXTAP	43	288	0
BXTAP	43	288	7
NMSTR	44	0	0
NMSI_	44	0	0	96	48	3
BRTAP	44	96	0
NMSTR	44	192	5
NMSI_	44	192	5	96	48	3
NMTAP	44	288	1
NMHLD	44	336	1	144
NMTAP	45	96	2
NMTAP	45	192	2
NMTAP	45	192	3
NMTAP	45	288	4
NMTAP	45	336	5
NMHLD	46	0	4	96
NMTAP	46	0	6
NMTAP	46	96	6
NMTAP	46	192	3
NMTAP	46	192	5
NMTAP	46	240	3
NMTAP	46	240	5
NMTAP	46	336	2
NMSTR	46	336	4
NMSI_	46	336	4	96	48	2
NMTAP	47	96	1
NMTAP	47	192	0
NMTAP	47	288	1
NMTAP	47	336	3
NMSTR	48	0	2
NMSLL	48	0	2	96	144	4
NMTAP	48	192	6
NMHLD	48	240	6	96
NMTAP	48	336	4
EXTAP	49	96	5
NMTAP	49	128	4
NMTAP	49	160	3
EXTAP	49	192	5
NMTAP	49	224	4
NMTAP	49	256	3
EXTAP	49	288	5
NMTAP	49	320	4
NMTAP	49	352	3
EXSTR	50	0	6
NMSCL	50	0	6	96	96	2
NMTAP	50	192	1
NMHLD	50	240	1	96
NMHLD	50	336	0	96
NMTAP	51	48	2
NMTAP	51	72	3
NMHLD	51	96	4	144
NMTAP	51	144	7
NMTAP	51	168	6
NMHLD	51	192	5	48
NMTAP	51	288	3
NMTAP	51	288	6
NMHLD	52	0	1	576
EXSTR	52	0	7
NMSCR	52	0	7	96	480	6
NMHLD	54	0	6	576
EXSTR	54	0	7
NMSCL	54	0	7	96	480	0
NMSTR	56	0	7
NMSLL	56	0	7	96	192	3
NMSTR	56	192	3
NMSLL	56	192	3	96	192	7
NMSTR	57	0	7
NMSLL	57	0	7	96	192	2
NMTAP	57	192	2
NMTAP	58	0	1
NMTAP	58	0	3
NMTAP	58	96	0
NMTAP	58	96	4
NMTAP	58	192	1
NMTAP	58	192	3
NMTAP	58	240	1
NMTAP	58	240	3
NMTAP	58	336	4
NMTAP	58	336	6
NMTAP	59	48	3
NMTAP	59	48	7
NMSTR	59	96	3
NMSI_	59	96	3	96	48	0
NMSTR	59	96	7
NMSI_	59	96	7	96	48	4
BXTAP	59	192	3
BXTAP	59	192	7
NMTAP	59	336	4
NMTAP	59	336	7
NMTAP	60	48	5
NMTAP	60	48	6
NMTAP	60	96	5
NMTAP	60	96	6
NMTAP	60	192	4
NMTAP	60	192	7
NMTAP	60	288	0
NMTAP	60	288	3
NMTAP	60	336	0
NMTAP	60	336	3
NMTAP	61	48	1
NMTAP	61	48	2
NMSTR	61	96	1
NMSI_	61	96	1	96	48	6
NMSTR	61	96	2
NMSI_	61	96	2	96	48	5
BXTAP	61	192	1
BXTAP	61	192	2
NMTTP	62	0	1	B	0	M1
NMTTP	62	32	2	B	0	M1
NMTTP	62	64	3	B	0	M1
NMTTP	62	96	4	B	0	M1
NMTTP	62	128	5	B	0	M1
NMTTP	62	160	6	B	0	M1
NMTTP	62	192	6	A	0	M1
NMTTP	62	224	5	A	0	M1
NMTTP	62	256	4	A	0	M1
NMTTP	62	288	3	A	0	M1
NMTTP	62	320	2	A	0	M1
NMTTP	62	352	1	A	0	M1
NMTTP	63	0	7	D	0	M1
NMTTP	63	32	6	D	0	M1
NMTTP	63	64	5	D	0	M1
NMTTP	63	96	4	D	0	M1
NMTTP	63	128	3	D	0	M1
NMTTP	63	160	2	D	0	M1
NMTTP	63	192	0	A	0	M1
NMTTP	63	192	0	D	0	M1
NMTTP	63	192	1	D	0	M1
BRTAP	63	288	0
BRTAP	63	288	5
NMTAP	64	0	6
NMTAP	64	0	7
NMTAP	64	48	3
NMTAP	64	48	4
NMTAP	64	96	2
NMTAP	64	120	0
NMTAP	64	144	1
NMTAP	64	192	7
NMTAP	64	240	0
NMTAP	64	240	5
NMTAP	64	288	6
NMTAP	64	312	7
NMTAP	64	336	6
NMTAP	64	360	7
NMTAP	65	0	5
NMTAP	65	48	1
NMTAP	65	96	2
NMTAP	65	120	3
NMTAP	65	144	2
NMTAP	65	168	3
NMSTR	65	192	1
NMSI_	65	192	1	96	48	4
NMSTR	65	240	5
NMSI_	65	240	5	96	48	0
NMTAP	65	288	1
NMTAP	65	336	5
NMTAP	66	0	3
NMTAP	66	48	7
NMTAP	66	96	2
NMTAP	66	120	0
NMTAP	66	144	1
NMTAP	66	192	7
NMTAP	66	240	6
NMTAP	66	240	7
NMTAP	66	288	5
NMTAP	66	312	4
NMTAP	66	336	5
NMTAP	66	360	4
BRTAP	67	0	6
BRTAP	67	48	6
BRTAP	67	96	0
BRTAP	67	144	1
BRTAP	67	144	7
BRTAP	67	240	0
BRTAP	67	240	2
BRSTR	67	288	0
BRSI_	67	288	0	96	48	5
BRSTR	67	288	2
BRSI_	67	288	2	96	48	5
BRTAP	68	0	0
BRTAP	68	0	2
NMTAP	68	96	6
NMTAP	68	120	4
NMTAP	68	144	6
NMTAP	68	192	3
NMTAP	68	240	2
NMTAP	68	240	4
NMTAP	68	288	1
NMTAP	68	312	0
NMTAP	68	336	1
NMTAP	68	360	0
NMTAP	69	0	2
NMTAP	69	48	3
NMTAP	69	48	6
NMTAP	69	96	5
NMTAP	69	120	4
NMTAP	69	144	5
NMTAP	69	168	4
NMSTR	69	192	6
NMSCR	69	192	6	96	48	1
NMTAP	69	288	1
EXHLD	70	0	0	48
EXHLD	70	0	1	48
EXHLD	70	96	2	48
EXHLD	70	96	3	48
EXTAP	70	192	4
EXTAP	70	192	5
EXTAP	70	240	4
EXTAP	70	240	5
EXSTR	70	336	6
NMSCL	70	336	6	96	48	3
EXTAP	70	336	7
NMTAP	71	48	2
NMTAP	71	72	1
NMTAP	71	96	0
NMTAP	71	144	0
EXTAP	71	192	6
EXTAP	71	192	7
BRTAP	71	288	1
BRTAP	71	288	5
NMTAP	72	0	7
NMTAP	72	48	0
NMTAP	72	48	1
NMTAP	72	96	2
NMTAP	72	120	3
NMTAP	72	144	1
NMTAP	72	192	5
NMTAP	72	240	6
NMTAP	72	240	7
NMTAP	72	288	5
NMTAP	72	312	4
NMTAP	72	336	5
NMTAP	72	360	4
NMTAP	73	0	6
NMTAP	73	48	2
NMTAP	73	96	1
NMTAP	73	120	0
NMTAP	73	144	1
NMTAP	73	168	0
NMSTR	73	192	2
NMSI_	73	192	2	96	48	7
NMSTR	73	240	6
NMSI_	73	240	6	96	48	3
NMTAP	73	288	2
NMTAP	73	336	6
NMTAP	74	0	0
NMTAP	74	48	4
NMTAP	74	96	1
NMTAP	74	120	3
NMTAP	74	144	2
NMTAP	74	192	4
NMTAP	74	240	4
NMTAP	74	240	5
NMTAP	74	288	6
NMTAP	74	312	7
NMTAP	74	336	6
NMTAP	74	360	7
BRTAP	75	0	5
BRTAP	75	48	5
BRTAP	75	96	3
BRTAP	75	144	2
BRTAP	75	144	4
BRTAP	75	240	1
BRTAP	75	240	3
BRSTR	75	288	1
BRSI_	75	288	1	96	48	6
BRSTR	75	288	3
BRSI_	75	288	3	96	48	6
BRTAP	76	0	1
BRTAP	76	0	3
NMTAP	76	96	5
NMTAP	76	120	7
NMTAP	76	144	5
NMTAP	76	192	0
NMTAP	76	240	1
NMTAP	76	240	4
NMTAP	76	288	2
NMTAP	76	312	3
NMTAP	76	336	2
NMTAP	76	360	3
NMTAP	77	0	1
NMTAP	77	48	0
NMTAP	77	48	7
NMTAP	77	96	6
NMTAP	77	120	4
NMTAP	77	144	6
NMTAP	77	168	4
NMSTR	77	192	5
NMSI_	77	192	5	96	48	2
NMTAP	77	288	2
NMTAP	78	0	1
NMTAP	78	24	0
NMTAP	78	48	1
NMTAP	78	72	0
NMTAP	78	96	1
NMTAP	78	144	6
NMTAP	78	168	7
NMTAP	78	192	6
NMTAP	78	216	7
NMTAP	78	240	6
NMTAP	78	288	1
NMTAP	78	288	4
NMTAP	78	336	1
NMHLD	78	336	4	96
NMTAP	79	48	1
NMTAP	79	72	2
EXSTR	79	96	3
NMSF_	79	96	3	96	48	7
EXTAP	79	144	3
EXTAP	79	192	3
NMTTP	79	288	1	B	0	M1
NMTTP	79	288	1	E	0	M1
NMTTP	79	288	1	A	0	M1
NMTTP	79	288	1	D	0	M1
NMTTP	79	288	5	B	0	M1
NMTTP	79	288	5	A	0	M1
NMTTP	79	288	6	E	0	M1
NMTTP	79	288	6	D	0	M1
BXSTR	80	0	7
NMSXL	80	0	7	96	96	4
NMTTP	80	192	1	B	0	M1
CNSCL	80	192	4	0	384	0
NMTTP	81	0	3	B	0	M1
NMTTP	81	192	2	E	0	M1
NMHLD	82	0	4	96
NMHLD	82	0	6	96
NMHLD	82	192	1	96
NMHLD	82	192	3	96
NMTAP	83	0	3
NMTAP	83	0	5
NMTAP	83	48	3
NMTAP	83	48	5
NMTAP	83	96	4
NMHLD	83	96	6	96
NMTAP	83	144	4
EXTAP	83	192	7
NMTAP	83	216	0
NMTAP	83	240	1
NMTAP	83	264	2
EXTAP	83	288	7
NMTAP	83	312	6
NMTAP	83	336	5
NMTAP	83	360	4
EXTAP	84	0	3
EXSTR	84	0	7
NMSSR	84	0	7	96	96	3
EXSTR	84	192	6
NMSSL	84	192	6	96	96	2
EXSTR	85	0	3
NMSSR	85	0	3	96	96	7
EXSTR	85	192	5
NMSSR	85	192	5	96	96	1
NMTAP	86	0	0
NMTAP	86	48	0
NMTAP	86	96	1
NMTAP	86	144	1
NMTAP	86	192	2
NMTAP	86	192	3
NMTAP	86	240	3
NMTAP	86	240	4
NMTAP	86	288	4
NMTAP	86	288	5
BXSTR	86	336	6
BRSXR	86	336	6	96	144	2
BXSTR	86	336	7
BRSUR	86	336	7	96	144	2
NMTTP	87	288	1	B	0	M1
NMTTP	87	288	1	E	0	M1
NMTTP	87	288	1	A	0	M1
NMTTP	87	288	4	B	0	M1
NMTTP	87	288	4	A	0	M1
NMTTP	87	288	5	E	0	M1
BRSTR	88	0	0
BRSI_	88	0	0	96	48	4
BRSTR	88	0	7
BRSI_	88	0	7	96	48	3
BRTAP	88	96	0
BRTAP	88	96	7
EXTAP	88	192	2
EXTAP	88	240	2
EXTAP	88	240	3
NMTAP	88	288	1
NMTAP	88	312	0
NMTAP	88	336	1
NMTAP	88	360	0
NMTAP	89	0	1
NMTAP	89	48	3
NMTAP	89	48	7
NMTAP	89	96	6
NMTAP	89	120	4
NMTAP	89	144	6
NMTAP	89	168	4
NMSTR	89	192	5
NMSI_	89	192	5	96	48	2
NMTAP	89	240	5
NMSTR	89	288	0
NMSI_	89	288	0	96	48	4
NMTAP	89	336	0
NMTAP	90	0	4
NMTAP	90	48	5
NMTAP	90	96	6
NMTAP	90	120	7
NMTAP	90	144	6
NMTAP	90	192	0
NMTAP	90	240	1
NMTAP	90	240	4
NMTAP	90	288	2
NMTAP	90	312	3
NMTAP	90	336	2
NMTAP	90	360	3
NMTAP	91	0	2
NMTAP	91	48	0
NMTAP	91	48	1
NMTAP	91	96	6
NMTAP	91	120	0
NMTAP	91	144	6
NMTAP	91	168	0
EXTAP	91	192	7
EXTAP	91	216	7
EXTAP	91	240	7
EXTAP	91	264	7
BXTAP	91	288	7
BRTAP	92	0	0
NMTAP	92	12	1
NMTAP	92	24	2
NMTAP	92	36	3
NMTAP	92	48	4
NMTAP	92	60	5
NMTAP	92	72	6
NMTAP	92	84	7
BRTAP	92	96	0
NMTAP	92	108	1
NMTAP	92	120	2
NMTAP	92	132	3
NMTAP	92	144	4
NMTAP	92	156	5
NMTAP	92	168	6
NMTAP	92	180	7
BRTAP	92	192	0
NMTAP	92	204	1
NMTAP	92	216	2
NMTAP	92	228	3
NMTAP	92	240	4
NMTAP	92	252	5
NMTAP	92	264	6
NMTAP	92	276	7
BRTAP	92	288	0
BRTAP	92	288	4
BRTAP	93	0	7
NMTAP	93	12	6
NMTAP	93	24	5
NMTAP	93	36	4
NMTAP	93	48	3
NMTAP	93	60	2
NMTAP	93	72	1
NMTAP	93	84	0
BRTAP	93	96	7
NMTAP	93	108	6
NMTAP	93	120	5
NMTAP	93	132	4
NMTAP	93	144	3
NMTAP	93	156	2
NMTAP	93	168	1
NMTAP	93	180	0
BRTAP	93	192	7
NMTAP	93	204	6
NMTAP	93	216	5
NMTAP	93	228	4
NMTAP	93	240	3
NMTAP	93	252	2
NMTAP	93	264	1
NMTAP	93	276	0
BRTAP	93	288	3
BRTAP	93	288	7
EXSTR	94	0	2
BRSI_	94	0	2	96	48	7
EXSTR	94	0	6
BRSI_	94	0	6	96	48	3
NMTAP	94	48	2
NMTAP	94	48	6
EXSTR	94	192	1
BRSI_	94	192	1	96	48	4
EXSTR	94	192	5
BRSI_	94	192	5	96	48	0
NMTAP	94	240	1
NMTAP	94	240	5
BXTAP	95	0	0
BXTAP	95	0	4
BRTAP	95	96	2
BRTAP	95	96	6
BRTAP	95	192	5
BRTAP	95	192	7
BRTAP	95	288	0
BRTAP	95	288	2
BRTAP	96	0	5
BRTAP	96	0	6
NMTAP	96	48	5
NMTAP	96	48	6
NMTAP	96	144	0
NMTAP	96	144	1
BRTAP	96	192	2
BRTAP	96	192	3
NMTAP	96	240	2
NMTAP	96	240	3
NMSTR	96	336	6
NMSI_	96	336	6	96	96	1
NMTAP	96	336	7
NMTTP	97	96	4	E	0	M1
CNSCR	97	144	1	0	48	2
NMTTP	97	192	0	C	0	M1
CNSI_	97	192	2	0	96	5
NMTTP	97	288	0	E	0	M1
EXSTR	98	0	6
NMSCR	98	0	6	96	192	5
EXTAP	98	0	7
EXSTR	99	0	0
NMSCR	99	0	0	96	192	7
EXTAP	99	0	7
NMTAP	100	0	0
NMTAP	100	24	7
NMTAP	100	48	0
NMTAP	100	72	7
NMTAP	100	96	0
NMTAP	100	120	7
NMTAP	100	144	1
NMTAP	100	168	6
NMTAP	100	192	0
NMTAP	100	216	7
NMTAP	100	240	2
NMTAP	100	264	5
NMTAP	100	288	0
NMTAP	100	312	7
NMTAP	100	336	2
NMTAP	100	360	5
BRSTR	101	0	1
BRSF_	101	0	1	96	48	5
BRTAP	101	96	1

T_REC_TAP	607
T_REC_BRK	52
T_REC_XTP	62
T_REC_BXX	11
T_REC_HLD	21
T_REC_XHO	11
T_REC_BHO	0
T_REC_BXH	0
T_REC_STR	37
T_REC_BST	10
T_REC_XST	21
T_REC_XBS	6
T_REC_TTP	56
T_REC_THO	0
T_REC_SLD	60
T_REC_BSL	14
T_REC_ALL	968
T_NUM_TAP	783
T_NUM_BRK	93
T_NUM_HLD	32
T_NUM_SLD	60
T_NUM_ALL	968
T_JUDGE_TAP	862
T_JUDGE_HLD	91
T_JUDGE_SLD	74
T_JUDGE_ALL	1027
TTM_EACHPAIRS	166
TTM_SCR_TAP	391500
TTM_SCR_BRK	241800
TTM_SCR_HLD	32000
TTM_SCR_SLD	90000
TTM_SCR_ALL	755300
TTM_SCR_S	723650
TTM_SCR_SS	746000
TTM_RAT_ACV	10124

