VERSION	0.00.00	1.05.00
FES_MODE	0
BPM_DEF	193.000	193.000	193.000	193.000
MET_DEF	4	4
RESOLUTION	384
CLK_DEF	384
COMPATIBLE_CODE	MA2

BPM	0	0	193.000
MET	0	0	4	4

NMTAP	2	0	0
NMTAP	2	0	4
NMHLD	2	96	0	144
NMHLD	2	96	4	144
EXTAP	2	336	1
EXTAP	2	336	3
EXTAP	3	48	2
EXTAP	3	48	4
EXTAP	3	144	3
EXTAP	3	144	5
NMTAP	3	240	6
NMTAP	3	288	6
NMTAP	4	0	3
NMTAP	4	0	7
NMHLD	4	96	3	144
NMHLD	4	96	7	144
EXTAP	4	336	4
EXTAP	4	336	6
EXTAP	5	48	3
EXTAP	5	48	5
EXTAP	5	144	2
EXTAP	5	144	4
NMTAP	5	240	1
NMTAP	5	240	5
NMTAP	5	288	1
NMTAP	5	288	5
NMHLD	6	0	6	96
NMTAP	6	96	4
NMTAP	6	192	2
NMTAP	6	240	2
NMTAP	6	288	3
NMHLD	7	0	1	96
NMTAP	7	96	3
NMTAP	7	192	5
NMTAP	7	240	5
NMTAP	7	288	4
NMTAP	8	0	3
NMTAP	8	0	6
NMTAP	8	96	3
NMTAP	8	96	6
NMTAP	8	192	1
NMTAP	8	192	4
NMTAP	8	288	1
NMTAP	8	288	4
NMTAP	9	0	3
NMTAP	9	0	6
NMTAP	9	96	4
NMTAP	9	96	5
NMTAP	9	192	1
NMTAP	9	192	4
NMTAP	9	288	2
NMTAP	9	288	3
NMSTR	10	0	0
NMSXR	10	0	0	96	480	5
NMSTR	10	0	1
NMSXL	10	0	1	96	480	4
NMSTR	12	0	3
NMSCR	12	0	3	96	480	7
NMHLD	12	0	6	576
NMHLD	14	0	0	96
NMHLD	14	0	1	96
NMSTR	14	144	0
NMSCR	14	144	0	96	336	3
NMHLD	14	144	1	432
NMTAP	16	0	2
NMTAP	16	0	3
EXTAP	16	96	0
NMTAP	16	192	3
NMTAP	16	192	4
EXTAP	16	288	7
NMTAP	17	0	2
NMTAP	17	0	3
BRTAP	17	96	0
NMTAP	17	192	4
NMTAP	17	192	5
BXTAP	17	288	7
NMTAP	18	0	4
NMTAP	18	0	6
NMTAP	18	96	4
NMTAP	18	96	6
NMTAP	18	192	1
NMTAP	18	192	3
NMTAP	18	288	1
NMTAP	18	288	3
NMTAP	19	0	2
NMTAP	19	48	2
NMTAP	19	96	4
NMTAP	19	144	4
NMTAP	19	192	3
BRTAP	19	288	2
BRTAP	19	288	5
NMTAP	20	0	0
NMTAP	20	0	1
NMTAP	20	96	3
NMTAP	20	96	4
NMTAP	20	192	6
NMTAP	20	192	7
NMTAP	20	288	3
NMTAP	20	288	4
NMTAP	21	0	1
NMTAP	21	48	1
NMTAP	21	96	3
NMTAP	21	192	5
NMTAP	21	240	5
NMTAP	21	288	4
NMTAP	22	0	6
NMTAP	22	0	7
NMTAP	22	96	3
NMTAP	22	96	4
NMTAP	22	192	0
NMTAP	22	192	1
NMTAP	22	288	3
NMTAP	22	288	4
NMTAP	23	0	6
NMTAP	23	48	6
NMTAP	23	96	4
NMTAP	23	192	2
NMTAP	23	240	2
NMTAP	23	288	3
NMHLD	24	0	1	96
NMHLD	24	0	4	96
NMHLD	24	144	2	96
NMHLD	24	144	3	96
EXTAP	24	288	1
EXTAP	24	288	4
NMHLD	25	0	3	96
NMHLD	25	0	6	96
NMHLD	25	144	4	96
NMHLD	25	144	5	96
EXTAP	25	288	3
EXTAP	25	288	6
NMSTR	26	0	7
NMSCL	26	0	7	96	96	4
NMSTR	26	192	0
NMSCR	26	192	0	96	96	3
EXHLD	27	0	6	72
EXTAP	27	72	4
EXTAP	27	144	3
EXTAP	27	144	7
BRTAP	27	192	3
BRTAP	27	192	7
NMTAP	28	0	2
NMTAP	28	48	2
NMTAP	28	96	4
NMTAP	28	192	1
NMTAP	28	192	3
NMTAP	28	288	1
NMHLD	28	288	3	288
NMTTP	29	0	1	E	0	M1
NMTTP	29	96	2	E	0	M1
NMTTP	29	192	3	E	0	M1
NMTAP	29	288	4
NMTAP	30	0	5
NMTAP	30	48	5
NMTAP	30	96	3
NMTAP	30	192	4
NMTAP	30	192	6
NMHLD	30	288	4	288
NMTAP	30	288	6
NMTTP	31	0	7	E	0	M1
NMTTP	31	96	6	E	0	M1
NMTTP	31	192	5	E	0	M1
NMTAP	31	288	3
NMTAP	32	0	2
NMHLD	32	96	1	480
NMTAP	32	192	3
NMTAP	32	240	3
NMTAP	32	288	3
NMTAP	33	0	2
NMTAP	33	48	2
NMTAP	33	96	2
NMTAP	33	192	0
NMTAP	33	288	2
NMTAP	33	288	7
NMHLD	34	0	6	96
NMTAP	34	96	7
NMHLD	34	192	1	96
NMTAP	34	288	0
NMTAP	34	336	0
NMTAP	35	48	2
NMTAP	35	48	3
NMTAP	35	96	2
NMTAP	35	96	3
NMTAP	35	192	4
NMTAP	35	192	5
BRTAP	35	288	3
BRTAP	35	288	6
NMTAP	36	0	5
NMTAP	36	48	5
NMTAP	36	96	3
NMTAP	36	192	4
NMTAP	36	192	6
NMHLD	36	288	4	288
NMTAP	36	288	6
NMTTP	37	0	7	E	0	M1
NMTTP	37	96	6	E	0	M1
NMTTP	37	192	5	E	0	M1
NMTAP	37	288	3
NMTAP	38	0	2
NMTAP	38	48	2
NMTAP	38	96	4
NMTAP	38	192	1
NMTAP	38	192	3
NMTAP	38	288	1
NMHLD	38	288	3	288
NMTTP	39	0	1	E	0	M1
NMTTP	39	96	2	E	0	M1
NMTTP	39	192	3	E	0	M1
NMTAP	39	288	4
NMTAP	40	0	5
NMHLD	40	96	6	480
NMTAP	40	192	4
NMTAP	40	240	4
NMTAP	40	288	4
NMTAP	41	0	5
NMTAP	41	48	5
NMTAP	41	96	5
NMTAP	41	192	7
NMTAP	41	288	4
NMTAP	41	288	5
NMTAP	42	0	2
NMTAP	42	24	3
NMTAP	42	48	2
NMTAP	42	144	5
NMTAP	42	168	4
NMTAP	42	192	5
NMTAP	42	288	2
NMTAP	42	312	3
NMTAP	42	336	2
NMTAP	43	48	5
NMTAP	43	72	4
NMTAP	43	96	5
NMTAP	43	192	3
NMTAP	43	192	6
BRTAP	43	288	1
BRTAP	43	288	4
NMHLD	44	0	2	96
NMHLD	44	0	3	96
NMTAP	44	192	1
NMTAP	44	192	4
NMTAP	44	288	0
NMHLD	44	336	0	336
NMTAP	45	96	2
NMTAP	45	192	3
NMTAP	45	288	4
NMTAP	46	0	5
NMTAP	46	96	5
NMTAP	46	192	4
NMTAP	46	192	6
NMTAP	46	240	4
NMTAP	46	240	6
NMHLD	46	336	7	336
NMTAP	47	96	5
NMTAP	47	192	4
NMTAP	47	288	3
NMSTR	48	0	3
NMSI_	48	0	3	96	96	7
NMTAP	48	192	6
NMHLD	48	240	6	96
NMTAP	48	336	0
EXTAP	49	48	6
EXTAP	49	48	7
EXTAP	49	96	6
EXTAP	49	96	7
EXTAP	49	192	4
EXTAP	49	192	5
NMSTR	49	288	2
NMSI_	49	288	2	96	96	7
NMTAP	49	288	3
NMTAP	50	192	1
NMHLD	50	240	1	96
NMTAP	50	336	0
NMTAP	51	48	1
NMTAP	51	48	3
NMTAP	51	96	1
NMTAP	51	96	3
BRTAP	51	192	0
BRTAP	51	192	4
NMSTR	52	0	1
NMSUR	52	0	1	96	192	5
NMHLD	52	0	3	672
NMSTR	53	0	6
NMSUL	53	0	6	96	192	2
NMTTP	54	0	1	E	0	M1
NMTTP	54	0	1	D	0	M1
NMTTP	54	96	2	E	0	M1
NMTTP	54	96	2	D	0	M1
NMTTP	54	192	3	E	0	M1
NMTTP	54	192	3	D	0	M1
NMTTP	54	288	4	E	0	M1
NMTTP	54	288	4	D	0	M1
NMTTP	55	0	5	E	0	M1
NMTTP	55	0	5	D	0	M1
NMTTP	55	96	6	E	0	M1
NMTTP	55	96	6	D	0	M1
NMTTP	55	192	7	E	0	M1
NMTTP	55	192	7	D	0	M1
NMSTR	56	0	0
NMSLL	56	0	0	96	192	4
NMHLD	56	0	5	672
NMSTR	57	0	3
NMSLL	57	0	3	96	192	7
NMTAP	58	0	6
NMTAP	58	0	7
NMTAP	58	96	6
NMTAP	58	96	7
NMTAP	58	192	5
NMHLD	58	240	5	96
NMTAP	58	336	4
NMTAP	59	48	2
NMTAP	59	48	3
NMTAP	59	96	2
NMTAP	59	96	3
NMTAP	59	192	1
NMTAP	59	192	4
NMTAP	60	0	0
NMTAP	60	0	1
NMTAP	60	96	0
NMTAP	60	96	1
NMTAP	60	192	2
NMHLD	60	240	2	96
NMTAP	60	336	3
NMTAP	61	48	4
NMTAP	61	48	5
NMTAP	61	96	4
NMTAP	61	96	5
NMTAP	61	192	3
NMTAP	61	192	6
NMTTP	62	0	5	B	0	M1
NMTTP	62	0	5	E	0	M1
NMTTP	62	192	2	B	0	M1
NMTTP	62	192	3	E	0	M1
NMTHO	63	0	0	192	C	1	M1
NMTTP	63	0	3	B	0	M1
NMTTP	63	0	4	B	0	M1
BXSTR	64	0	0
NMSI_	64	0	0	96	48	4
BXSTR	64	0	1
NMSI_	64	0	1	96	48	4
NMSTR	64	192	6
NMSI_	64	192	6	96	48	3
NMSTR	64	192	7
NMSI_	64	192	7	96	48	3
NMTAP	65	0	1
NMTAP	65	48	1
NMTAP	65	96	3
NMTAP	65	192	6
NMTAP	65	240	6
NMTAP	65	288	4
NMSTR	66	0	6
NMSI_	66	0	6	96	48	3
NMSTR	66	0	7
NMSI_	66	0	7	96	48	3
NMSTR	66	192	0
NMSI_	66	192	0	96	48	4
NMSTR	66	192	1
NMSI_	66	192	1	96	48	4
NMTAP	67	0	6
NMTAP	67	48	6
NMTAP	67	96	4
NMTAP	67	192	1
NMTAP	67	240	1
NMTAP	67	288	3
NMSTR	68	0	4
NMSI_	68	0	4	96	48	0
NMHLD	68	0	6	96
NMHLD	68	192	1	96
NMSTR	68	192	3
NMSI_	68	192	3	96	48	7
NMTAP	69	0	0
NMTAP	69	48	0
NMTAP	69	96	1
NMTAP	69	96	3
NMTAP	69	192	7
NMTAP	69	240	7
NMTAP	69	288	4
NMTAP	69	288	6
NMTAP	70	0	2
NMTAP	70	0	3
NMTAP	70	96	2
NMTAP	70	96	3
NMTAP	70	192	1
NMTAP	70	192	4
NMTAP	70	240	1
NMTAP	70	240	4
NMTAP	70	336	4
NMTAP	70	336	5
NMTAP	71	48	6
NMHLD	71	96	6	96
NMTAP	71	192	7
BRTAP	71	288	0
BRTAP	71	288	5
NMTAP	72	0	1
NMTAP	72	48	1
NMTAP	72	96	3
NMTAP	72	144	3
NMTAP	72	192	2
NMTAP	72	240	2
NMTAP	72	288	6
NMTAP	72	336	6
NMTAP	73	0	4
NMTAP	73	48	4
NMTAP	73	96	5
NMHLD	73	192	6	48
NMHLD	73	192	7	48
NMHLD	73	288	4	48
NMHLD	73	288	5	48
NMTAP	74	0	6
NMTAP	74	48	6
NMTAP	74	96	4
NMTAP	74	144	4
NMTAP	74	192	5
NMTAP	74	240	5
NMTAP	74	288	1
NMTAP	74	336	1
NMTAP	75	0	3
NMTAP	75	48	3
NMTAP	75	96	2
NMHLD	75	192	0	48
NMHLD	75	192	1	48
NMHLD	75	288	2	48
NMHLD	75	288	3	48
NMTAP	76	0	1
NMTAP	76	48	1
NMTAP	76	96	7
NMTAP	76	144	7
NMTAP	76	192	0
NMTAP	76	240	0
NMSTR	76	288	6
NMSI_	76	288	6	96	48	4
NMSTR	77	0	0
NMSI_	77	0	0	96	48	2
NMSTR	77	96	7
NMSI_	77	96	7	96	48	3
NMTAP	77	192	1
NMTAP	77	288	1
NMTAP	78	0	2
NMTAP	78	24	3
NMTAP	78	48	2
NMTAP	78	72	3
NMTAP	78	96	2
NMTAP	78	144	5
NMTAP	78	168	4
NMTAP	78	192	5
NMTAP	78	216	4
NMTAP	78	240	5
NMTAP	78	288	3
NMTAP	78	288	6
NMTAP	78	336	3
NMTAP	78	336	6
NMTAP	79	48	1
NMTAP	79	48	4
NMTAP	79	96	1
NMTAP	79	96	4
NMTAP	79	192	2
NMTAP	79	192	6
BRTAP	79	288	1
BRTAP	79	288	7
NMTTP	80	0	0	C	1	M1
NMTTP	80	0	2	B	0	M1
NMTTP	80	0	6	B	0	M1
NMHLD	82	0	5	192
NMHLD	82	192	4	192
NMHLD	83	0	3	192
NMTAP	83	192	2
EXTAP	83	288	1
EXTAP	83	288	3
NMHLD	84	0	0	96
NMHLD	84	0	2	96
NMHLD	84	192	1	96
NMHLD	84	192	3	96
NMHLD	85	0	4	96
NMHLD	85	0	6	96
NMHLD	85	192	5	96
NMHLD	85	192	7	96
NMTAP	86	0	4
NMTAP	86	0	6
NMTAP	86	96	3
NMTAP	86	96	4
NMTAP	86	192	1
NMTAP	86	192	3
NMTAP	86	288	3
NMTAP	86	288	4
NMTAP	87	0	5
NMTAP	87	48	5
NMTAP	87	96	3
NMTAP	87	192	2
NMTAP	87	192	6
NMSTR	88	0	6
NMSI_	88	0	6	96	48	2
NMSTR	88	0	7
NMSI_	88	0	7	96	48	3
NMSTR	88	192	0
NMSI_	88	192	0	96	48	4
NMSTR	88	192	1
NMSI_	88	192	1	96	48	5
NMTAP	89	0	6
NMTAP	89	48	6
NMTAP	89	96	7
NMTAP	89	144	5
NMTAP	89	192	1
NMTAP	89	240	1
NMTAP	89	288	3
NMTAP	89	336	2
NMSTR	90	0	4
NMSI_	90	0	4	96	48	0
NMSTR	90	0	5
NMSI_	90	0	5	96	48	0
NMSTR	90	192	2
NMSI_	90	192	2	96	48	7
NMSTR	90	192	3
NMSI_	90	192	3	96	48	7
NMTAP	91	0	5
NMTAP	91	48	5
NMTAP	91	96	4
NMHLD	91	192	0	96
NMHLD	91	192	7	96
NMTAP	92	0	1
NMTAP	92	24	0
NMTAP	92	48	1
NMTAP	92	72	0
NMTAP	92	96	1
NMTAP	92	120	0
NMTAP	92	144	1
NMTAP	92	168	0
NMTAP	92	192	1
BRTAP	92	288	2
BRTAP	92	288	7
NMTAP	93	0	6
NMTAP	93	24	7
NMTAP	93	48	6
NMTAP	93	72	7
NMTAP	93	96	6
NMTAP	93	120	7
NMTAP	93	144	6
NMTAP	93	168	7
NMTAP	93	192	6
BRTAP	93	288	0
BRTAP	93	288	5
NMTAP	94	0	1
NMTAP	94	0	3
NMTAP	94	48	1
NMTAP	94	48	3
NMTAP	94	192	4
NMTAP	94	192	6
NMTAP	94	240	4
NMTAP	94	240	6
NMHLD	95	0	5	48
NMHLD	95	0	7	48
NMHLD	95	96	2	48
NMHLD	95	96	3	48
NMHLD	95	192	0	48
NMHLD	95	192	2	48
BRHLD	95	288	4	48
BRHLD	95	288	5	48
NMTAP	96	0	6
NMTAP	96	48	6
NMTAP	96	96	0
NMTAP	96	144	0
NMTAP	96	192	1
NMTAP	96	192	7
NMTAP	96	240	1
NMTAP	96	240	7
NMHLD	96	336	2	96
NMTAP	97	48	0
NMHLD	97	96	0	96
NMHLD	97	192	7	96
NMTAP	97	288	5
NMSTR	98	0	4
NMSLL	98	0	4	96	480	0
NMSTR	98	0	5
NMSUL	98	0	5	96	480	7
NMTAP	100	0	0
NMTAP	100	24	7
NMTAP	100	48	0
NMTAP	100	72	7
NMTAP	100	96	0
NMTAP	100	120	7
NMTAP	100	144	0
NMTAP	100	168	7
NMTAP	100	192	1
NMTAP	100	216	6
NMTAP	100	240	1
NMTAP	100	264	6
NMTAP	100	288	1
NMTAP	100	312	6
NMTAP	100	336	1
NMTAP	100	360	6
EXSTR	101	0	0
NMSI_	101	0	0	96	48	4
BRTAP	101	96	7

T_REC_TAP	361
T_REC_BRK	20
T_REC_XTP	29
T_REC_BXX	1
T_REC_HLD	69
T_REC_XHO	1
T_REC_BHO	2
T_REC_BXH	0
T_REC_STR	33
T_REC_BST	0
T_REC_XST	1
T_REC_XBS	2
T_REC_TTP	35
T_REC_THO	1
T_REC_SLD	36
T_REC_BSL	0
T_REC_ALL	591
T_NUM_TAP	459
T_NUM_BRK	25
T_NUM_HLD	71
T_NUM_SLD	36
T_NUM_ALL	591
T_JUDGE_TAP	482
T_JUDGE_HLD	225
T_JUDGE_SLD	36
T_JUDGE_ALL	743
TTM_EACHPAIRS	140
TTM_SCR_TAP	229500
TTM_SCR_BRK	65000
TTM_SCR_HLD	71000
TTM_SCR_SLD	54000
TTM_SCR_ALL	419500
TTM_SCR_S	404500
TTM_SCR_SS	417000
TTM_RAT_ACV	10059

