VERSION	0.00.00	1.05.00
FES_MODE	0
BPM_DEF	193.000	193.000	193.000	193.000
MET_DEF	4	4
RESOLUTION	384
CLK_DEF	384
COMPATIBLE_CODE	MA2

BPM	0	0	193.000
MET	0	0	4	4

NMTAP	6	0	1
NMTAP	6	96	1
NMTAP	6	192	1
NMTAP	7	0	0
NMTAP	7	96	0
NMTAP	7	192	0
NMTAP	8	0	7
NMTAP	8	96	7
NMTAP	8	192	7
NMTAP	9	0	6
NMTAP	9	96	6
NMTAP	9	192	6
NMHLD	10	0	0	384
NMHLD	10	0	7	384
NMTAP	12	0	0
NMTAP	12	96	0
NMTAP	12	192	1
NMTAP	13	0	2
NMTAP	13	96	2
NMTAP	13	192	3
NMTAP	14	0	4
NMTAP	14	96	4
NMTAP	14	192	5
NMTAP	15	0	6
NMTAP	15	96	6
NMTAP	15	192	0
NMTAP	15	192	7
EXTAP	16	0	7
NMTAP	16	96	7
EXTAP	16	192	6
EXTAP	17	0	5
NMTAP	17	96	5
EXTAP	17	192	4
EXTAP	18	0	3
EXTAP	18	96	3
EXTAP	18	192	2
EXTAP	19	0	1
EXTAP	19	96	1
BXTAP	19	192	0
BXTAP	19	192	7
NMTAP	20	0	1
NMTAP	20	96	1
NMTAP	20	192	0
NMTAP	20	192	1
NMTAP	21	0	2
NMTAP	21	96	2
NMTAP	21	192	2
NMTAP	21	192	3
NMTAP	22	0	4
NMTAP	22	96	4
NMTAP	22	192	4
NMTAP	22	192	5
NMTAP	23	0	6
NMTAP	23	0	7
NMTAP	23	96	6
NMTAP	23	96	7
NMTAP	23	192	6
NMTAP	23	192	7
NMTAP	24	0	6
NMTAP	24	96	6
NMTAP	24	192	6
NMTAP	24	192	7
NMTAP	25	0	5
NMTAP	25	96	5
NMTAP	25	192	4
NMTAP	25	192	5
NMTAP	26	0	3
NMTAP	26	96	3
NMTAP	26	192	2
NMTAP	26	192	3
NMTAP	27	0	0
NMTAP	27	0	1
NMTAP	27	96	0
NMTAP	27	96	1
BRTAP	27	192	0
BRTAP	27	192	1
NMHLD	28	0	2	192
NMHLD	28	192	3	192
NMHLD	29	0	4	192
NMTAP	29	192	5
NMHLD	30	0	5	192
NMHLD	30	192	4	192
NMHLD	31	0	3	192
NMTAP	31	192	2
NMHLD	32	0	1	192
NMHLD	32	192	2	192
NMHLD	33	0	3	192
NMTAP	33	192	4
NMHLD	34	0	6	192
NMHLD	34	192	5	192
NMHLD	35	0	4	192
NMTAP	35	192	3
NMTAP	36	0	4
NMTAP	36	0	5
NMTAP	36	96	4
NMTAP	36	96	5
NMTAP	36	192	4
NMTAP	36	192	5
NMTAP	37	0	6
NMTAP	37	96	6
NMTAP	37	192	6
NMTAP	38	0	0
NMTAP	38	0	7
NMTAP	38	96	0
NMTAP	38	96	7
NMTAP	38	192	0
NMTAP	38	192	7
NMTAP	39	0	1
NMTAP	39	96	1
NMTAP	39	192	1
NMTAP	40	0	2
NMTAP	40	0	3
NMTAP	40	96	2
NMTAP	40	96	3
NMTAP	40	192	2
NMTAP	40	192	3
NMTAP	41	0	1
NMTAP	41	96	1
NMTAP	41	192	1
NMSTR	42	0	0
NMSI_	42	0	0	96	288	3
NMSTR	42	0	7
NMSI_	42	0	7	96	288	4
NMTTP	44	0	4	B	0	L1
NMTTP	44	96	5	B	0	L1
NMTTP	44	192	6	B	0	L1
NMTTP	45	0	3	B	0	L1
NMTTP	45	96	2	B	0	L1
NMTTP	45	192	1	B	0	L1
NMTTP	46	0	6	B	0	L1
NMTTP	46	96	7	B	0	L1
NMTTP	46	192	0	B	0	L1
NMTTP	46	288	1	B	0	L1
NMTTP	47	0	0	C	0	L1
NMTTP	48	0	3	E	0	L1
NMTTP	48	96	2	E	0	L1
NMTTP	48	192	1	E	0	L1
NMTTP	49	0	5	E	0	L1
NMTTP	49	96	6	E	0	L1
NMTTP	49	192	7	E	0	L1
NMTTP	50	0	1	B	0	L1
NMTTP	50	96	0	B	0	L1
NMTTP	50	192	7	B	0	L1
NMTTP	50	288	6	B	0	L1
NMTTP	51	0	0	C	1	L1
NMSTR	52	0	7
NMSI_	52	0	7	96	288	3
NMTAP	53	192	2
NMSTR	54	0	1
NMSI_	54	0	1	96	288	5
NMTAP	55	192	6
NMSTR	56	0	6
NMSI_	56	0	6	96	288	2
NMTAP	57	192	1
NMSTR	58	0	2
NMSI_	58	0	2	96	288	7
NMTAP	59	192	6
EXSTR	60	0	6
NMSXL	60	0	6	96	672	3
EXTAP	63	0	3
EXTAP	63	0	4
BXTAP	64	0	2
NMTAP	64	96	2
NMTAP	64	192	1
NMTAP	64	288	1
NMTAP	65	0	0
NMTAP	65	96	0
NMTAP	65	192	6
NMTAP	65	192	7
NMTAP	66	0	5
NMTAP	66	96	5
NMTAP	66	192	6
NMTAP	66	288	6
NMTAP	67	0	7
NMTAP	67	96	7
NMTAP	67	192	0
NMTAP	67	192	1
NMTAP	68	0	1
NMTAP	68	96	1
NMTAP	68	192	2
NMTAP	68	288	2
NMTAP	69	0	3
NMTAP	69	96	3
NMTAP	69	192	4
NMTAP	69	192	5
NMTAP	70	0	6
NMTAP	70	96	6
NMTAP	70	192	5
NMTAP	70	288	5
NMTAP	71	0	4
NMTAP	71	96	4
NMTAP	71	192	2
NMTAP	71	192	3
NMTAP	72	0	2
NMTAP	72	96	2
NMTAP	72	192	1
NMTAP	72	288	1
NMTAP	73	0	0
NMTAP	73	96	0
NMTAP	73	192	6
NMTAP	73	192	7
NMTAP	73	288	6
NMTAP	73	288	7
NMTAP	74	0	5
NMTAP	74	96	5
NMTAP	74	192	6
NMTAP	74	288	6
NMTAP	75	0	7
NMTAP	75	96	7
EXTAP	75	192	0
EXTAP	75	192	1
NMTAP	76	0	1
NMTAP	76	96	1
NMTAP	76	192	2
NMTAP	76	288	2
NMTAP	77	0	3
NMTAP	77	96	3
NMTAP	77	192	4
NMTAP	77	192	5
NMTAP	77	288	4
NMTAP	77	288	5
NMTAP	78	0	6
NMTAP	78	96	6
NMTAP	78	192	5
NMTAP	78	288	5
NMTAP	79	0	4
NMTAP	79	96	4
BRTAP	79	192	2
BRTAP	79	192	3
NMHLD	80	0	1	192
NMTAP	80	192	0
NMTAP	81	0	0
NMTAP	81	0	1
NMTAP	81	192	0
NMTAP	81	192	1
NMHLD	82	0	2	192
NMTAP	82	192	3
NMTAP	83	0	2
NMTAP	83	0	3
NMTAP	83	192	2
NMTAP	83	192	3
NMHLD	84	0	5	192
NMTAP	84	192	4
NMTAP	85	0	4
NMTAP	85	0	5
NMTAP	85	192	4
NMTAP	85	192	5
NMHLD	86	0	6	192
NMTAP	86	192	7
NMTAP	87	0	6
NMTAP	87	0	7
BXTAP	87	192	6
BXTAP	87	192	7
NMTAP	88	0	5
NMTAP	88	96	5
NMTAP	88	192	6
NMTAP	88	192	7
NMTAP	88	288	6
NMTAP	88	288	7
NMTAP	89	0	0
NMTAP	89	96	0
NMTAP	89	192	0
NMTAP	89	192	1
NMTAP	90	0	2
NMTAP	90	96	2
NMTAP	90	192	0
NMTAP	90	192	1
NMTAP	90	288	0
NMTAP	90	288	1
NMTAP	91	0	7
NMTAP	91	96	7
NMTAP	91	192	6
NMTAP	91	192	7
NMTAP	92	0	6
NMTAP	92	96	6
NMTAP	92	192	4
NMTAP	92	192	5
NMTAP	92	288	4
NMTAP	92	288	5
NMTAP	93	0	3
NMTAP	93	96	3
NMTAP	93	192	2
NMTAP	93	192	3
NMTAP	94	0	1
NMTAP	94	96	1
NMTAP	94	192	2
NMTAP	94	192	3
NMTAP	94	288	2
NMTAP	94	288	3
NMTAP	95	0	4
NMTAP	95	96	4
NMTAP	95	192	4
NMTAP	95	192	5
NMTAP	96	0	6
NMTAP	96	0	7
NMTAP	96	96	6
NMTAP	96	96	7
NMTAP	96	192	0
NMTAP	96	192	5
NMTAP	96	288	0
NMTAP	96	288	5
NMTAP	97	0	1
NMTAP	97	0	4
NMTAP	97	96	1
NMTAP	97	96	4
NMTAP	97	192	2
NMTAP	97	192	3
NMSTR	98	0	0
NMSI_	98	0	0	96	288	5
NMSTR	98	0	1
NMSI_	98	0	1	96	288	4
NMTAP	99	192	6
NMTAP	99	192	7
NMTAP	100	0	0
NMTAP	100	0	7
NMTAP	100	96	1
NMTAP	100	96	6
NMTAP	100	192	2
NMTAP	100	192	5
NMTAP	100	288	3
NMTAP	100	288	4
NMTAP	101	0	3
NMTAP	101	0	4
BRTAP	101	96	2
BRTAP	101	96	5

T_REC_TAP	243
T_REC_BRK	6
T_REC_XTP	13
T_REC_BXX	5
T_REC_HLD	18
T_REC_XHO	0
T_REC_BHO	0
T_REC_BXH	0
T_REC_STR	8
T_REC_BST	0
T_REC_XST	1
T_REC_XBS	0
T_REC_TTP	22
T_REC_THO	0
T_REC_SLD	9
T_REC_BSL	0
T_REC_ALL	325
T_NUM_TAP	287
T_NUM_BRK	11
T_NUM_HLD	18
T_NUM_SLD	9
T_NUM_ALL	325
T_JUDGE_TAP	298
T_JUDGE_HLD	80
T_JUDGE_SLD	9
T_JUDGE_ALL	387
TTM_EACHPAIRS	71
TTM_SCR_TAP	143500
TTM_SCR_BRK	28600
TTM_SCR_HLD	18000
TTM_SCR_SLD	13500
TTM_SCR_ALL	203600
TTM_SCR_S	196450
TTM_SCR_SS	202500
TTM_RAT_ACV	10054

