VERSION	0.00.00	1.05.00
FES_MODE	0
BPM_DEF	193.000	193.000	193.000	193.000
MET_DEF	4	4
RESOLUTION	384
CLK_DEF	384
COMPATIBLE_CODE	MA2

BPM	0	0	193.000
MET	0	0	4	4

NMTAP	2	0	0
NMTAP	2	192	0
NMTAP	3	0	0
NMTAP	4	0	7
NMTAP	4	192	7
NMTAP	5	0	7
NMTAP	6	0	0
NMTAP	6	192	0
NMTAP	7	0	0
NMTAP	7	192	0
NMTAP	8	0	7
NMTAP	8	192	7
NMTAP	9	0	7
NMTAP	9	192	7
BXTAP	10	0	0
BXTAP	10	0	7
NMSTR	12	0	0
NMSI_	12	0	0	96	288	4
NMSTR	14	0	7
NMSI_	14	0	7	96	288	3
NMSTR	16	0	1
NMSI_	16	0	1	96	288	5
NMSTR	18	0	6
NMSI_	18	0	6	96	288	2
NMTAP	20	0	0
NMTAP	20	192	0
NMTAP	21	0	1
NMTAP	21	192	1
NMTAP	22	0	2
NMTAP	22	192	2
NMTAP	23	0	3
NMTAP	23	0	4
NMTAP	23	192	3
NMTAP	23	192	4
BRTAP	24	0	4
NMTAP	24	192	4
NMTAP	25	0	5
NMTAP	25	192	5
NMTAP	26	0	6
NMTAP	26	192	6
NMTAP	27	0	0
NMTAP	27	0	7
BRTAP	28	0	7
NMTAP	28	96	7
NMTAP	28	192	7
NMTAP	29	0	6
NMTAP	29	192	6
NMTAP	30	0	5
NMTAP	30	96	5
NMTAP	30	192	5
NMTAP	31	0	3
NMTAP	31	0	4
NMTAP	31	192	3
NMTAP	31	192	4
NMTAP	32	0	3
NMTAP	32	96	3
NMTAP	32	192	3
NMTAP	33	0	2
NMTAP	33	192	2
NMTAP	34	0	1
NMTAP	34	96	1
NMTAP	34	192	1
EXTAP	35	0	0
EXTAP	35	0	7
NMHLD	36	0	0	192
NMHLD	36	0	1	192
NMTAP	37	0	0
NMTAP	37	0	1
NMHLD	38	0	2	192
NMHLD	38	0	3	192
NMTAP	39	0	2
NMTAP	39	0	3
NMHLD	40	0	4	192
NMHLD	40	0	5	192
NMTAP	41	0	4
NMTAP	41	0	5
NMHLD	42	0	6	192
NMHLD	42	0	7	192
EXTAP	43	0	6
EXTAP	43	0	7
NMTTP	44	0	7	E	0	L1
NMTTP	45	0	6	E	0	L1
NMTTP	46	0	5	E	0	L1
NMTTP	47	0	4	E	0	L1
NMTTP	48	0	3	E	0	L1
NMTTP	49	0	2	E	0	L1
NMTTP	50	0	1	E	0	L1
NMTTP	51	0	0	C	1	L1
EXTAP	52	0	0
NMTAP	52	192	0
NMTAP	53	0	1
NMTAP	53	192	1
NMTAP	54	0	2
NMTAP	54	0	3
NMTAP	54	192	2
NMTAP	54	192	3
NMTAP	55	0	2
NMTAP	55	0	3
NMTAP	56	0	4
NMTAP	56	192	4
NMTAP	57	0	5
NMTAP	57	192	5
NMTAP	58	0	6
NMTAP	58	0	7
NMTAP	58	192	6
NMTAP	58	192	7
NMTAP	59	0	6
NMTAP	59	0	7
NMTAP	60	0	0
NMTAP	60	0	1
NMTAP	60	192	0
NMTAP	60	192	1
NMTAP	61	0	0
NMTAP	61	0	1
NMTAP	62	0	0
NMTAP	62	0	7
NMTAP	62	192	0
NMTAP	62	192	7
NMTAP	63	0	0
NMTAP	63	0	7
BRTAP	64	0	7
NMTAP	64	96	7
NMTAP	64	192	7
NMTAP	65	0	6
NMTAP	65	96	6
NMTAP	65	192	6
NMTAP	66	0	5
NMTAP	66	96	5
NMTAP	66	192	5
NMTAP	67	0	4
NMTAP	67	96	4
NMTAP	67	192	3
NMTAP	67	192	4
NMTAP	68	0	3
NMTAP	68	96	3
NMTAP	68	192	3
NMTAP	69	0	2
NMTAP	69	96	2
NMTAP	69	192	2
NMTAP	70	0	1
NMTAP	70	96	1
NMTAP	70	192	1
EXTAP	71	0	0
EXTAP	71	0	7
NMTAP	72	0	0
NMTAP	72	96	0
NMTAP	72	192	0
NMTAP	73	0	0
NMTAP	73	0	1
NMTAP	73	96	0
NMTAP	73	96	1
NMTAP	73	192	0
NMTAP	73	192	1
NMTAP	74	0	2
NMTAP	74	96	2
NMTAP	74	192	2
NMTAP	75	0	3
NMTAP	75	0	4
NMTAP	75	96	3
NMTAP	75	96	4
NMTAP	75	192	3
NMTAP	75	192	4
NMTAP	76	0	4
NMTAP	76	96	4
NMTAP	76	192	4
NMTAP	77	0	4
NMTAP	77	0	5
NMTAP	77	96	4
NMTAP	77	96	5
NMTAP	77	192	4
NMTAP	77	192	5
NMTAP	78	0	6
NMTAP	78	96	6
NMTAP	78	192	6
NMTAP	79	0	0
NMTAP	79	0	7
NMTAP	79	96	0
NMTAP	79	96	7
BRTAP	79	192	0
BRTAP	79	192	7
EXSTR	80	0	7
NMSI_	80	0	7	96	288	3
NMSTR	82	0	2
NMSI_	82	0	2	96	288	5
NMSTR	84	0	6
NMSI_	84	0	6	96	288	2
NMSTR	86	0	1
NMSI_	86	0	1	96	288	5
NMTAP	88	0	7
BXTAP	88	96	7
NMTAP	88	192	7
NMTAP	88	288	7
NMTAP	89	0	6
NMTAP	89	96	6
NMTAP	89	192	6
NMTAP	89	192	7
NMTAP	90	0	5
NMTAP	90	96	5
NMTAP	90	192	5
NMTAP	90	288	5
NMTAP	91	0	4
NMTAP	91	96	4
NMTAP	91	192	3
NMTAP	91	192	4
NMTAP	92	0	3
NMTAP	92	96	3
NMTAP	92	192	3
NMTAP	92	288	3
NMTAP	93	0	2
NMTAP	93	96	2
NMTAP	93	192	2
NMTAP	93	192	3
NMTAP	94	0	1
NMTAP	94	96	1
NMTAP	94	192	1
NMTAP	94	288	1
NMTAP	95	0	0
NMTAP	95	96	0
NMTAP	95	192	0
NMTAP	95	192	7
NMTAP	96	0	7
NMTAP	96	96	7
NMTAP	96	192	0
NMTAP	96	288	0
BXTAP	97	0	0
BXTAP	97	0	7
NMSTR	98	0	0
NMSI_	98	0	0	96	288	3
NMTHO	100	0	0	480	C	1	L1

T_REC_TAP	177
T_REC_BRK	5
T_REC_XTP	7
T_REC_BXX	5
T_REC_HLD	8
T_REC_XHO	0
T_REC_BHO	0
T_REC_BXH	0
T_REC_STR	8
T_REC_BST	0
T_REC_XST	1
T_REC_XBS	0
T_REC_TTP	8
T_REC_THO	1
T_REC_SLD	9
T_REC_BSL	0
T_REC_ALL	229
T_NUM_TAP	201
T_NUM_BRK	10
T_NUM_HLD	9
T_NUM_SLD	9
T_NUM_ALL	229
T_JUDGE_TAP	211
T_JUDGE_HLD	42
T_JUDGE_SLD	9
T_JUDGE_ALL	262
TTM_EACHPAIRS	46
TTM_SCR_TAP	100500
TTM_SCR_BRK	26000
TTM_SCR_HLD	9000
TTM_SCR_SLD	13500
TTM_SCR_ALL	149000
TTM_SCR_S	143600
TTM_SCR_SS	148000
TTM_RAT_ACV	10067

