VERSION	0.00.00	1.05.00
FES_MODE	0
BPM_DEF	143.000	143.000	143.000	143.000
MET_DEF	4	4
RESOLUTION	384
CLK_DEF	384
COMPATIBLE_CODE	MA2

BPM	0	0	143.000
MET	0	0	4	4

NMTAP	1	0	2
NMTAP	1	0	4
NMTAP	1	96	3
NMTAP	1	96	5
NMTAP	1	192	2
NMTAP	1	192	4
NMTAP	1	288	3
NMTAP	1	288	5
NMTAP	2	0	2
NMTAP	2	0	4
NMTAP	2	96	3
NMTAP	2	96	5
NMTAP	2	192	3
NMTAP	2	192	4
NMSTR	2	288	2
NMSCR	2	288	2	96	48	4
NMTAP	2	336	2
NMTAP	3	0	5
NMSTR	3	96	6
NMSCL	3	96	6	96	48	4
NMTAP	3	144	6
NMTAP	3	192	3
NMSTR	3	288	2
BRSCR	3	288	2	96	96	5
NMTAP	3	336	2
NMHLD	4	0	3	192
CNSUL	4	96	5	0	96	0
EXTAP	4	288	1
EXSTR	4	288	4
NMSI_	4	288	4	96	48	6
NMTAP	4	336	1
NMTAP	4	336	4
NMTAP	5	0	2
NMSTR	5	96	2
NMSI_	5	96	2	96	48	4
NMTAP	5	144	2
NMTAP	5	192	5
NMSTR	5	288	6
BRSCR	5	288	6	96	96	1
NMTAP	5	336	6
NMHLD	6	0	4	192
CNSUL	6	96	1	0	96	5
EXSTR	6	288	3
NMSUL	6	288	3	96	96	5
EXTAP	6	288	6
NMTAP	6	336	3
NMTAP	6	336	6
NMTAP	7	0	5
NMSTR	7	96	4
NMSUR	7	96	4	96	96	2
NMTAP	7	144	4
NMTAP	7	192	2
NMSTR	7	288	3
BRSV_	7	288	3	96	96	5
NMTAP	7	336	3
NMSTR	8	0	5
BRSUR	8	0	5	96	96	1
NMTAP	8	48	5
NMHLD	8	96	4	192
BRTAP	8	240	2
BRTAP	8	288	2
NMHLD	9	0	0	96
NMSTR	9	0	1
NMSI_	9	0	1	96	48	3
NMSTR	9	192	6
NMSI_	9	192	6	96	48	4
NMHLD	9	192	7	96
NMSTR	10	0	1
NMSV_	10	0	1	96	96	3
NMTAP	10	48	1
NMTAP	10	96	4
CNSV_	10	192	3	0	96	5
NMTAP	10	192	6
NMTAP	10	240	6
NMTAP	10	288	6
NMTAP	11	0	3
NMHLD	11	0	6	480
NMTAP	11	96	4
NMTAP	11	192	3
NMTAP	11	288	4
NMTAP	12	0	3
NMSTR	12	96	4
NMSI_	12	96	4	96	48	1
BRSTR	12	192	6
NMSI_	12	192	6	96	48	3
BRTAP	12	288	0
NMHLD	13	0	1	288
NMTAP	13	0	3
NMTAP	13	96	4
NMTAP	13	192	3
NMTAP	13	288	4
NMTAP	14	0	1
NMTAP	14	0	3
NMTAP	14	48	4
NMTAP	14	96	1
NMTAP	14	96	3
NMTAP	14	144	0
BRTAP	14	192	5
BRTAP	14	192	7
NMTAP	14	288	0
NMTAP	14	288	6
NMTAP	14	336	0
NMTAP	14	336	6
NMTAP	15	0	1
NMTAP	15	24	5
NMTAP	15	48	1
NMTAP	15	72	5
NMTAP	15	96	2
NMTAP	15	120	4
NMTAP	15	144	2
NMTAP	15	168	4
NMSTR	15	192	3
NMSI_	15	192	3	96	48	5
NMTAP	16	0	6
NMTAP	16	24	4
NMTAP	16	48	6
NMTAP	16	72	4
NMTAP	16	96	5
NMTAP	16	120	3
NMTAP	16	144	5
NMTAP	16	168	3
NMSTR	16	192	4
NMSXR	16	192	4	96	48	2
NMTAP	17	0	1
NMTAP	17	24	3
NMTAP	17	48	1
NMTAP	17	72	3
NMTAP	17	96	2
NMTAP	17	120	4
NMTAP	17	144	2
NMTAP	17	168	4
NMSTR	17	192	3
NMSI_	17	192	3	96	48	5
NMTAP	18	0	6
NMTAP	18	24	4
NMTAP	18	48	6
NMTAP	18	72	4
NMTAP	18	96	7
NMTAP	18	120	3
NMTAP	18	144	7
NMTAP	18	168	3
NMSTR	18	192	0
NMSI_	18	192	0	96	48	4
NMSTR	18	288	3
NMSCL	18	288	3	96	576	4
NMTTP	19	0	5	E	0	M1
NMTTP	19	48	6	E	0	M1
NMTTP	19	96	7	E	0	M1
NMTTP	19	192	1	E	0	M1
NMTTP	19	240	2	E	0	M1
NMTTP	19	288	3	E	0	M1
NMTTP	20	0	4	E	0	M1
NMTTP	20	48	0	C	0	M1
NMTTP	20	96	0	E	0	M1
NMTTP	20	192	4	E	0	M1
NMHLD	20	288	4	24
NMHLD	20	288	5	24
NMHLD	20	336	4	24
NMHLD	20	336	5	24
NMHLD	21	0	3	288
NMHLD	21	0	6	288
NMSTR	22	0	4
NMSV_	22	0	4	96	96	2
NMSTR	22	0	6
NMSI_	22	0	6	96	96	2
NMTAP	22	48	4
NMTAP	22	48	6
NMTAP	22	288	1
NMTAP	22	288	3
NMTAP	23	0	2
NMTAP	23	48	2
NMTAP	23	96	2
NMTAP	23	96	3
NMTAP	23	144	2
NMTAP	23	192	5
NMTAP	23	240	5
NMTAP	23	288	4
NMTAP	23	288	5
NMTAP	23	336	5
NMTAP	24	0	3
NMTAP	24	0	4
NMTAP	24	48	2
NMTAP	24	96	3
NMTAP	24	96	4
NMTAP	24	144	5
NMTAP	24	192	6
NMTAP	24	192	7
NMSTR	24	288	1
NMSV_	24	288	1	96	48	3
NMSTR	24	288	5
NMSV_	24	288	5	96	48	3
BXTAP	25	0	1
BXSTR	25	0	5
NMSCR	25	0	5	96	48	0
NMTAP	25	96	1
NMTAP	25	96	5
NMTAP	25	144	2
NMTAP	25	192	3
NMTAP	25	192	7
NMTAP	25	240	5
NMTAP	25	264	4
NMSTR	25	288	6
NMSV_	25	288	6	96	48	1
NMSTR	26	0	2
NMSI_	26	0	2	96	48	7
NMTAP	26	48	3
NMTAP	26	96	6
NMTAP	26	144	6
NMTAP	26	192	0
NMTAP	26	192	5
NMTAP	26	240	1
NMTAP	26	264	3
NMTAP	26	288	2
NMTAP	26	336	3
NMTAP	26	336	4
NMTAP	27	0	5
NMTAP	27	24	4
NMSTR	27	48	6
NMSI_	27	48	6	96	48	3
NMTAP	27	72	3
NMSTR	27	96	7
NMSI_	27	96	7	96	48	2
NMTAP	27	144	6
NMTAP	27	192	7
NMTAP	27	288	1
NMTAP	27	288	4
NMTAP	27	336	2
NMTAP	27	336	3
NMTAP	28	0	2
NMTAP	28	0	3
NMTAP	28	48	3
NMTAP	28	48	4
NMTAP	28	96	5
NMTAP	28	120	4
NMTAP	28	144	6
NMTAP	28	192	3
NMTAP	28	192	7
NMTAP	28	240	3
NMTAP	28	240	7
NMSTR	28	288	2
NMSV_	28	288	2	96	48	4
NMSTR	28	288	6
NMSV_	28	288	6	96	48	4
BRSTR	29	0	2
NMSCL	29	0	2	96	48	7
BRTAP	29	0	6
NMTAP	29	96	2
NMTAP	29	96	6
NMTAP	29	144	5
NMTAP	29	192	0
NMTAP	29	192	4
NMTAP	29	240	2
NMTAP	29	264	3
NMTAP	29	288	1
NMTAP	30	0	0
NMTAP	30	0	6
NMTAP	30	48	4
NMTAP	30	48	5
NMTAP	30	96	2
NMTAP	30	96	3
NMTAP	30	144	1
NMSTR	30	168	0
NMSCR	30	168	0	96	48	3
NMTAP	30	216	7
NMTAP	30	240	0
NMTAP	30	288	5
NMTAP	30	336	6
NMTAP	31	0	3
NMTAP	31	0	7
NMTAP	31	48	1
NMTAP	31	72	0
NMSTR	31	96	2
NMSI_	31	96	2	96	48	6
NMSI_	31	96	2	96	48	7
NMTAP	31	144	3
NMTAP	31	288	0
NMTAP	31	288	5
NMTAP	31	336	0
NMTAP	31	336	5
NMTAP	32	0	6
NMTAP	32	0	7
NMTAP	32	48	4
NMTAP	32	48	5
NMTAP	32	96	2
NMTAP	32	96	3
BXTAP	32	144	0
BXTAP	32	144	1
BXTAP	32	192	6
BXTAP	32	192	7
BXTAP	32	240	4
BXTAP	32	240	5
BXTAP	32	288	2
BXSTR	32	288	6
NMSI_	32	288	6	96	48	3
NMSTR	33	0	0
NMSI_	33	0	0	96	48	4
NMTAP	33	48	7
NMSTR	33	96	6
NMSI_	33	96	6	96	48	3
NMTAP	33	144	7
NMTAP	33	192	0
NMTAP	33	240	7
NMHLD	33	288	1	24
NMHLD	33	288	5	24
NMTAP	33	336	1
NMTAP	33	336	5
NMTAP	34	0	2
NMTAP	34	24	4
NMTAP	34	48	3
NMTAP	34	72	4
NMTAP	34	96	2
NMTAP	34	144	0
NMTAP	34	144	6
NMTAP	34	192	0
NMTAP	34	192	6
NMTTP	34	240	2	B	0	M1
NMTTP	34	240	2	E	0	M1
NMTTP	34	240	3	E	0	M1
NMTTP	34	288	6	B	0	M1
NMTTP	34	288	6	E	0	M1
NMTTP	34	288	7	E	0	M1
NMSTR	35	0	1
NMSI_	35	0	1	96	48	4
NMTAP	35	48	1
NMSTR	35	96	0
NMSCL	35	96	0	96	96	5
NMTAP	35	144	0
NMSTR	35	192	5
NMSCL	35	192	5	96	96	2
NMTAP	35	240	5
NMTAP	35	288	2
NMSTR	36	0	0
BRSV_	36	0	0	96	48	2
BRSV_	36	0	0	96	48	6
NMTAP	36	48	0
NMTAP	36	192	3
NMTAP	36	192	5
NMTAP	36	240	3
NMTAP	36	240	5
NMSTR	36	288	1
NMSI_	36	288	1	96	48	4
NMTAP	36	288	7
NMSTR	37	0	7
NMSI_	37	0	7	96	48	3
NMTAP	37	48	0
NMSTR	37	96	1
NMSCR	37	96	1	96	48	4
NMTAP	37	144	0
NMTAP	37	192	7
NMTAP	37	240	0
NMHLD	37	288	2	24
NMHLD	37	288	6	24
NMTAP	37	336	2
NMTAP	37	336	6
NMTAP	38	0	5
NMTAP	38	24	3
NMTAP	38	48	4
NMTAP	38	72	3
NMTAP	38	96	5
NMTAP	38	144	1
NMTAP	38	144	7
NMTAP	38	192	1
NMTAP	38	192	7
NMTTP	38	240	5	B	0	M1
NMTTP	38	240	5	E	0	M1
NMTTP	38	240	6	E	0	M1
NMTTP	38	288	1	B	0	M1
NMTTP	38	288	1	E	0	M1
NMTTP	38	288	2	E	0	M1
NMSTR	39	0	6
NMSI_	39	0	6	96	48	2
NMTAP	39	48	6
NMSTR	39	96	7
NMSI_	39	96	7	96	48	1
NMTAP	39	144	7
NMSTR	39	192	5
NMSCR	39	192	5	96	96	2
NMTAP	39	240	5
NMTAP	39	288	3
NMSTR	40	0	4
BRSV_	40	0	4	96	48	2
BRSV_	40	0	4	96	48	6
NMTAP	40	48	4
NMSTR	40	192	1
NMSI_	40	192	1	96	48	5
NMSTR	40	192	7
NMSI_	40	192	7	96	48	3
NMTAP	40	240	0
NMHLD	41	0	4	48
EXHLD	41	0	6	48
EXHLD	41	96	4	48
NMHLD	41	96	6	48
NMTAP	41	192	3
NMTAP	41	240	3
NMTAP	41	288	4
NMTAP	41	336	4
NMHLD	42	0	2	48
EXHLD	42	0	3	48
EXHLD	42	96	2	48
NMSTR	42	96	3
NMSXL	42	96	3	96	96	5
NMSXR	42	96	3	96	96	1
NMTAP	43	0	0
NMTAP	43	0	6
NMTTP	43	96	0	C	0	M1
NMTTP	43	96	1	B	0	M1
NMTTP	43	96	3	B	0	M1
NMTTP	43	96	5	B	0	M1
NMSTR	43	192	6
NMSI_	43	192	6	96	48	0
NMSTR	43	192	7
NMSI_	43	192	7	96	48	3
NMTAP	44	0	0
NMTAP	44	0	4
NMTAP	44	48	1
NMTAP	44	72	3
NMTAP	44	120	6
NMTAP	44	144	4
BRTAP	44	192	3
BRTAP	44	192	7
NMTAP	44	288	6
NMTAP	44	312	6
NMTAP	44	336	4
NMTAP	44	360	4
NMSTR	45	0	5
BRSCR	45	0	5	96	288	2
NMTAP	45	96	3
NMTAP	45	144	3
NMTAP	45	192	3
NMTAP	45	240	3
NMTAP	45	288	3
NMTAP	45	336	3
CNSCL	46	0	2	0	288	5
NMTAP	46	0	4
NMTAP	46	48	4
NMTAP	46	96	4
NMTAP	46	144	4
NMTAP	46	192	4
NMTAP	46	240	4
NMTAP	46	288	4
NMTAP	46	336	3
NMSTR	47	0	2
BRSCL	47	0	2	96	288	5
NMTAP	47	0	4
NMTAP	47	96	4
NMTAP	47	144	4
NMTAP	47	192	4
NMTAP	47	240	4
NMTAP	47	288	4
NMTAP	47	336	4
NMTAP	48	0	3
CNSCR	48	0	5	0	288	2
NMTAP	48	48	3
NMTAP	48	96	3
NMTAP	48	144	3
NMTAP	48	192	3
NMTAP	48	240	3
NMTAP	48	288	3
NMTAP	48	336	4
NMTAP	49	0	3
NMSTR	49	0	5
BRSLR	49	0	5	96	288	2
NMTAP	49	96	3
NMTAP	49	144	3
NMTAP	49	192	3
NMTAP	49	240	3
NMTAP	49	288	3
NMTAP	49	336	3
CNSLL	50	0	2	0	192	5
NMTAP	50	0	4
NMTAP	50	48	4
NMTAP	50	96	4
NMTAP	50	144	4
NMTAP	50	192	4
NMTAP	50	240	4
NMTAP	50	288	3
NMTAP	50	288	6
NMSTR	51	0	5
NMSI_	51	0	5	96	48	3
NMTAP	51	48	5
NMTAP	51	96	3
NMTAP	51	192	2
NMTAP	51	240	2
NMSTR	51	288	1
NMSV_	51	288	1	96	96	3
NMTAP	51	288	3
NMTAP	52	0	4
NMTAP	52	48	4
CNSV_	52	96	3	0	96	5
NMTAP	52	96	4
NMTAP	52	192	6
NMTAP	52	240	6
NMTAP	52	288	5
NMTAP	52	288	6
NMHLD	53	0	4	288
NMHLD	53	0	7	288
NMTHO	54	0	0	96	C	0	M1
NMTHO	54	0	1	96	B	0	M1
NMTHO	54	0	3	96	B	0	M1
NMTHO	54	0	5	96	B	0	M1
BXSTR	54	192	0
NMSXL	54	192	0	96	240	5
NMTAP	54	240	7
NMHLD	54	288	6	384
NMTAP	55	216	4
NMHLD	55	240	4	48
NMTAP	56	0	0
NMTAP	56	0	7
NMTAP	56	48	0
NMTAP	56	48	7
NMTAP	56	96	1
NMTAP	56	120	0
NMSTR	56	144	2
NMSI_	56	144	2	96	48	7
NMTAP	56	192	4
NMTAP	56	240	5
NMTAP	56	288	6
NMTAP	56	336	0
NMTAP	56	336	6
NMTAP	57	0	2
NMTAP	57	0	7
NMTAP	57	48	2
NMTAP	57	48	7
NMTAP	57	96	1
NMTAP	57	120	0
NMTAP	57	168	6
NMTAP	57	192	7
NMTAP	57	240	5
NMTAP	57	264	4
NMTAP	57	288	5
NMTAP	57	336	1
NMTAP	57	336	7
NMTAP	58	0	2
NMTAP	58	24	3
NMTAP	58	48	2
NMTAP	58	72	3
NMTAP	58	96	1
NMTAP	58	120	4
NMTAP	58	144	0
NMTAP	58	192	5
NMTAP	58	216	4
NMTAP	58	240	5
NMTAP	58	264	4
NMSTR	58	288	6
NMSV_	58	288	6	96	48	0
NMSV_	58	288	6	96	48	4
NMTAP	58	312	3
NMTAP	58	336	7
NMSTR	59	96	1
NMSI_	59	96	1	96	48	5
NMSTR	59	96	3
NMSI_	59	96	3	96	48	7
NMTAP	59	288	4
NMTAP	59	288	6
NMTAP	60	0	3
NMTAP	60	24	5
NMTAP	60	48	3
NMTAP	60	72	5
NMTAP	60	96	2
NMTAP	60	120	4
NMTAP	60	144	2
NMTAP	60	168	4
NMTAP	60	192	1
NMTAP	60	216	3
NMTAP	60	240	1
NMTTP	60	288	0	C	0	M1
NMTTP	60	288	2	B	0	M1
NMTTP	60	288	2	A	0	M1
NMTTP	60	288	4	B	0	M1
NMTTP	60	288	4	A	0	M1
NMTTP	60	288	6	B	0	M1
NMTTP	60	288	6	A	0	M1
NMTAP	61	0	1
NMTAP	61	24	7
NMTAP	61	48	1
NMTAP	61	72	7
NMTAP	61	96	0
NMTAP	61	120	6
NMTAP	61	144	0
NMTAP	61	168	6
NMTAP	61	192	7
NMTAP	61	216	5
NMTAP	61	240	7
NMTTP	61	288	0	C	0	M1
NMTTP	61	288	2	B	0	M1
NMTTP	61	288	2	A	0	M1
NMTTP	61	288	4	B	0	M1
NMTTP	61	288	4	A	0	M1
NMTTP	61	288	6	B	0	M1
NMTTP	61	288	6	A	0	M1
EXSTR	62	0	1
NMSI_	62	0	1	96	48	5
EXSTR	62	0	3
NMSV_	62	0	3	96	48	5
NMTAP	62	48	0
NMSTR	62	192	4
NMSV_	62	192	4	96	48	2
NMSTR	62	192	6
NMSI_	62	192	6	96	48	2
NMTAP	62	240	7
NMSTR	62	288	4
NMSCR	62	288	4	96	288	3
BRTAP	63	0	0
NMTAP	64	0	2
NMTAP	64	96	2
NMTAP	64	192	2
NMTAP	64	288	2
NMSTR	64	288	3
BRSUL	64	288	3	96	288	0
BRHLD	65	0	1	288
NMTAP	66	0	6
NMTAP	66	96	6
NMTAP	66	192	6
NMTTP	66	288	5	E	0	M1
NMTAP	66	288	6
NMTTP	67	0	4	E	0	M1
NMTAP	67	0	6
NMTTP	67	96	3	E	0	M1
NMTAP	67	96	6
NMTTP	67	192	0	C	0	M1
NMTAP	67	192	6
BRSTR	67	288	0
NMSI_	67	288	0	96	48	4
BRSTR	67	288	7
NMSI_	67	288	7	96	48	1
EXTAP	68	0	0
EXSTR	68	0	7
NMSCL	68	0	7	96	48	4
NMTAP	68	96	3
NMTAP	68	144	2
NMTAP	68	192	1
NMTAP	68	192	3
NMTAP	68	240	2
NMTAP	68	264	3
NMSTR	68	288	1
NMSV_	68	288	1	96	48	6
NMTAP	69	0	1
NMSTR	69	0	5
NMSCR	69	0	5	96	48	0
NMTAP	69	48	4
NMTAP	69	96	1
NMTAP	69	96	5
NMTAP	69	144	2
NMTAP	69	192	3
NMTAP	69	192	7
NMTAP	69	240	6
NMTAP	69	264	4
NMTAP	69	288	5
NMTAP	69	336	3
NMTAP	69	336	4
NMTAP	70	0	2
NMTAP	70	24	3
NMSTR	70	48	1
NMSI_	70	48	1	96	48	5
NMTAP	70	72	4
NMSTR	70	96	0
NMSI_	70	96	0	96	48	4
BRTAP	70	144	1
BRTAP	70	192	0
NMTAP	70	288	3
NMTAP	70	288	6
NMTAP	70	336	4
NMTAP	70	336	5
NMTAP	71	0	4
NMTAP	71	0	5
NMTAP	71	48	3
NMTAP	71	48	4
NMTAP	71	96	2
NMTAP	71	120	3
NMTAP	71	144	1
NMTAP	71	192	0
NMTAP	71	192	4
NMTAP	71	240	0
NMTAP	71	240	4
NMSTR	71	288	6
NMSI_	71	288	6	96	48	0
NMSTR	71	288	7
NMSI_	71	288	7	96	48	3
BRSTR	72	0	6
NMSCL	72	0	6	96	48	3
BRTAP	72	0	7
NMTAP	72	96	2
NMTAP	72	144	1
NMTAP	72	192	0
NMTAP	72	192	4
NMTAP	72	240	1
NMTAP	72	264	3
BRTAP	72	288	2
NMTAP	73	0	4
NMTAP	73	0	5
NMTAP	73	48	6
NMTAP	73	48	7
NMTAP	73	96	0
NMTAP	73	96	1
NMTAP	73	144	2
NMSTR	73	168	3
NMSCL	73	168	3	96	48	0
NMTAP	73	216	4
NMTAP	73	240	3
NMTAP	73	288	5
NMTAP	73	336	6
NMTAP	74	0	1
NMTAP	74	0	7
NMTAP	74	48	6
NMTAP	74	72	4
NMSTR	74	96	5
NMSI_	74	96	5	96	48	0
NMSV_	74	96	5	96	48	2
NMTAP	74	144	5
NMTAP	74	288	3
NMTAP	74	288	7
NMTAP	74	336	3
NMTAP	74	336	7
NMTAP	75	0	0
NMTAP	75	0	1
NMTAP	75	48	6
NMTAP	75	48	7
NMTAP	75	96	4
NMTAP	75	96	5
BXTAP	75	144	2
BXTAP	75	144	3
BXTAP	75	192	0
BXTAP	75	192	1
BXTAP	75	240	6
BXTAP	75	240	7
BXSTR	75	288	1
NMSI_	75	288	1	96	48	4
BXTAP	75	288	5
NMTAP	76	0	1
NMSTR	76	0	7
NMSI_	76	0	7	96	48	3
NMTAP	76	48	0
NMSTR	76	96	1
NMSCR	76	96	1	96	48	4
NMTAP	76	96	7
NMTAP	76	144	0
NMTAP	76	192	1
NMTAP	76	192	7
NMTAP	76	240	0
NMHLD	76	288	2	24
NMHLD	76	288	6	24
NMTAP	76	336	2
NMTAP	76	336	6
NMTAP	77	0	5
NMTAP	77	24	3
NMTAP	77	48	4
NMTAP	77	72	3
NMTAP	77	96	5
NMTAP	77	144	1
NMTAP	77	144	7
NMTAP	77	192	1
NMTAP	77	192	7
NMTTP	77	240	5	B	0	M1
NMTTP	77	240	5	E	0	M1
NMTTP	77	240	6	E	0	M1
NMTTP	77	288	1	B	0	M1
NMTTP	77	288	1	E	0	M1
NMTTP	77	288	2	E	0	M1
NMSTR	78	0	6
NMSI_	78	0	6	96	48	2
NMTAP	78	48	6
NMSTR	78	96	7
NMSCR	78	96	7	96	96	3
NMTAP	78	144	7
NMSTR	78	192	3
NMSCR	78	192	3	96	96	7
NMTAP	78	240	3
NMTAP	78	288	7
NMSTR	79	0	0
BRSV_	79	0	0	96	48	2
BRSV_	79	0	0	96	48	6
NMTAP	79	48	0
BRTAP	79	96	0
NMTAP	79	192	3
NMTAP	79	192	5
NMTAP	79	240	1
NMTAP	79	240	7
NMTAP	79	288	2
NMSTR	79	288	6
NMSI_	79	288	6	96	48	3
NMSTR	80	0	0
NMSI_	80	0	0	96	48	4
NMTAP	80	0	6
NMTAP	80	48	7
NMTAP	80	96	0
NMSTR	80	96	6
NMSCL	80	96	6	96	48	3
NMTAP	80	144	7
NMTAP	80	192	0
NMTAP	80	192	6
NMTAP	80	240	7
NMHLD	80	288	1	24
NMHLD	80	288	5	24
NMTAP	80	336	1
NMTAP	80	336	5
NMTAP	81	0	2
NMTAP	81	24	4
NMTAP	81	48	3
NMTAP	81	72	4
NMTAP	81	96	2
NMTAP	81	144	0
NMTAP	81	144	6
NMTAP	81	192	0
NMTAP	81	192	6
NMTTP	81	240	2	B	0	M1
NMTTP	81	240	3	B	0	M1
NMTTP	81	240	3	E	0	M1
NMTTP	81	288	5	B	0	M1
NMTTP	81	288	6	B	0	M1
NMTTP	81	288	6	E	0	M1
NMSTR	82	0	1
NMSI_	82	0	1	96	48	5
NMTAP	82	48	1
NMSTR	82	96	0
NMSI_	82	96	0	96	48	6
NMTAP	82	144	0
NMSTR	82	192	2
NMSCL	82	192	2	96	96	5
NMTAP	82	240	2
NMTAP	82	288	4
NMSTR	83	0	3
BRSV_	83	0	3	96	48	1
BRSV_	83	0	3	96	48	5
NMTAP	83	48	3
BRTAP	83	96	3
NMSTR	83	192	3
NMSI_	83	192	3	96	48	0
NMSI_	83	192	3	96	48	6
NMSTR	83	288	3
NMSCL	83	288	3	96	288	4
NMTTP	84	0	0	C	1	M1
NMTAP	85	0	2
NMTAP	85	24	3
NMTAP	85	48	1
NMTAP	85	72	4
NMSTR	85	96	0
NMSI_	85	96	0	96	48	4
NMTAP	85	120	5
NMTAP	85	144	7
NMTAP	85	168	6
NMTAP	85	192	0
NMTTP	85	240	7	B	0	M1
NMTTP	85	240	7	E	0	M1
NMTTP	85	288	5	B	0	M1
NMTTP	85	288	6	E	0	M1
NMSTR	86	0	2
NMSI_	86	0	2	96	48	7
NMSTR	86	48	3
NMSI_	86	48	3	96	48	6
NMTAP	86	96	2
NMTAP	86	144	3
NMSTR	86	192	1
NMSI_	86	192	1	96	48	5
NMSCR	86	192	1	96	48	4
NMTAP	86	240	0
NMTAP	86	288	1
NMTAP	87	0	3
NMTAP	87	0	6
NMTAP	87	48	5
NMTAP	87	72	4
NMTAP	87	96	6
NMTAP	87	120	3
NMTAP	87	144	7
NMTAP	87	168	2
NMSTR	87	192	0
NMSV_	87	192	0	96	48	2
NMSV_	87	192	0	96	48	6
NMTAP	87	240	0
NMSTR	87	288	0
NMSI_	87	288	0	96	48	3
NMSI_	87	288	0	96	48	5
NMTTP	88	0	0	A	1	M1
NMTAP	88	96	2
NMTAP	88	96	6
NMTAP	88	192	0
NMTAP	88	192	1
NMTAP	88	240	0
NMTAP	88	240	1
NMTAP	88	288	2
NMHLD	88	288	7	96
NMTAP	89	0	4
NMTAP	89	24	6
NMTAP	89	48	1
NMTAP	89	72	3
NMSTR	89	96	0
NMSI_	89	96	0	96	48	4
NMTAP	89	144	7
NMTAP	89	192	0
NMTTP	89	240	6	B	0	M1
NMTTP	89	240	6	E	0	M1
NMTTP	89	288	2	B	0	M1
NMTTP	89	288	3	E	0	M1
NMSTR	90	0	1
NMSCR	90	0	1	96	48	4
NMSTR	90	48	7
NMSCL	90	48	7	96	48	4
NMTAP	90	96	1
NMTAP	90	144	7
NMSTR	90	192	0
NMSF_	90	192	0	96	48	4
NMTAP	90	288	0
NMTAP	91	0	2
NMTAP	91	0	6
NMTAP	91	48	1
NMTAP	91	72	7
NMTAP	91	96	0
NMTAP	91	120	6
NMTAP	91	144	0
NMSTR	91	192	1
NMSI_	91	192	1	96	48	4
NMSTR	91	192	5
NMSI_	91	192	5	96	48	0
NMTAP	91	240	2
NMTAP	91	240	6
BXTAP	91	288	1
BXTAP	91	288	5
NMTTP	91	300	0	C	1	M1
EXTAP	92	0	2
EXSTR	92	0	6
NMSXL	92	0	6	96	384	3
NMTAP	93	96	2
NMHLD	93	192	2	48
NMHLD	93	192	3	48
NMHLD	93	288	4	48
NMHLD	93	288	5	48
NMSTR	94	0	6
NMSSR	94	0	6	96	192	2
NMSTR	95	0	1
NMSI_	95	0	1	96	48	5
NMSTR	95	96	3
NMSI_	95	96	3	96	192	7
NMTAP	95	192	0

T_REC_TAP	542
T_REC_BRK	15
T_REC_XTP	4
T_REC_BXX	17
T_REC_HLD	33
T_REC_XHO	4
T_REC_BHO	1
T_REC_BXH	0
T_REC_STR	98
T_REC_BST	5
T_REC_XST	6
T_REC_XBS	4
T_REC_TTP	67
T_REC_THO	4
T_REC_SLD	109
T_REC_BSL	16
T_REC_ALL	925
T_NUM_TAP	717
T_NUM_BRK	58
T_NUM_HLD	41
T_NUM_SLD	109
T_NUM_ALL	925
T_JUDGE_TAP	758
T_JUDGE_HLD	104
T_JUDGE_SLD	125
T_JUDGE_ALL	987
TTM_EACHPAIRS	155
TTM_SCR_TAP	358500
TTM_SCR_BRK	150800
TTM_SCR_HLD	41000
TTM_SCR_SLD	163500
TTM_SCR_ALL	713800
TTM_SCR_S	686800
TTM_SCR_SS	708000
TTM_RAT_ACV	10081

