VERSION	0.00.00	1.05.00
FES_MODE	0
BPM_DEF	143.000	143.000	143.000	143.000
MET_DEF	4	4
RESOLUTION	384
CLK_DEF	384
COMPATIBLE_CODE	MA2

BPM	0	0	143.000
MET	0	0	4	4

NMTAP	2	288	3
NMTAP	2	288	4
NMHLD	3	0	5	192
NMTAP	3	96	4
NMHLD	3	192	2	192
NMTAP	3	288	3
NMHLD	4	0	5	96
NMTAP	4	96	4
NMSTR	4	192	3
NMSCL	4	192	3	96	48	1
NMHLD	5	0	4	192
NMTAP	5	96	3
NMHLD	5	192	1	192
NMTAP	5	288	2
NMHLD	6	0	4	96
NMTAP	6	96	3
NMSTR	6	192	2
NMSCR	6	192	2	96	48	4
NMTAP	7	0	5
NMTAP	7	96	6
NMTAP	7	96	7
NMTAP	7	192	1
NMTAP	7	240	1
NMTAP	7	288	0
NMTAP	8	0	2
NMTAP	8	96	0
NMTAP	8	96	1
NMTAP	8	192	7
BXTAP	8	240	7
BXSTR	8	288	0
NMSCR	8	288	0	96	96	3
NMSTR	9	96	4
NMSCR	9	96	4	96	96	7
NMTAP	9	288	0
NMTAP	10	0	1
NMTAP	10	48	1
NMTAP	10	96	7
NMTAP	10	144	7
NMTAP	10	192	0
NMTAP	10	240	0
BXSTR	10	288	6
NMSI_	10	288	6	96	96	1
CNSI_	11	96	1	0	96	5
CNSI_	11	192	5	0	96	2
CNSI_	11	288	2	0	96	4
BXTAP	12	192	3
BXTAP	12	192	5
BXTAP	12	288	2
BXSTR	12	288	4
NMSI_	12	288	4	96	96	2
CNSI_	13	96	2	0	96	5
CNSI_	13	192	5	0	96	1
CNSI_	13	288	1	0	96	6
NMTAP	14	192	0
NMTAP	14	192	7
NMTAP	14	288	2
NMTAP	14	288	5
NMTAP	15	0	2
NMTAP	15	0	5
NMTAP	15	96	1
NMTAP	15	144	1
NMTAP	15	192	0
NMTAP	15	288	6
NMTAP	15	336	6
NMTAP	16	0	7
NMTAP	16	96	0
NMTAP	16	96	5
NMSTR	16	192	1
NMSCR	16	192	1	96	48	3
NMTAP	16	192	4
NMTAP	17	0	5
NMTAP	17	96	6
NMTAP	17	144	6
NMTAP	17	192	7
NMTAP	17	288	1
NMTAP	17	336	1
NMTAP	18	0	0
NMTAP	18	96	2
NMTAP	18	96	7
NMTAP	18	192	3
NMSTR	18	192	6
NMSCL	18	192	6	96	48	4
NMHLD	19	0	2	192
NMHLD	19	192	4	192
NMTAP	20	0	3
NMTAP	20	96	5
NMTAP	20	192	4
NMTAP	20	192	6
EXTAP	20	288	4
EXTAP	20	288	6
NMTHO	21	0	5	576	B	0	M1
NMTHO	21	192	2	384	B	0	M1
NMTHO	22	0	0	192	C	0	M1
NMTAP	23	0	1
NMTAP	23	48	1
NMTAP	23	96	7
NMTAP	23	144	7
NMTAP	23	192	0
NMTAP	23	240	0
NMTAP	23	288	1
NMTAP	23	288	5
NMSTR	24	0	2
NMSV_	24	0	2	96	96	4
NMSTR	24	0	6
NMSV_	24	0	6	96	96	4
NMTAP	24	288	7
NMSTR	25	0	0
NMSI_	25	0	0	96	48	4
NMSTR	25	0	1
NMSI_	25	0	1	96	48	5
NMTAP	25	192	3
NMTAP	25	192	6
NMTAP	25	240	3
NMTAP	25	240	6
NMTAP	25	288	4
NMTAP	25	288	5
NMSTR	26	0	6
NMSI_	26	0	6	96	48	2
NMSTR	26	0	7
NMSI_	26	0	7	96	48	3
NMTAP	26	192	1
NMTAP	26	192	4
NMTAP	26	240	1
NMTAP	26	240	4
NMTAP	26	288	2
NMTAP	26	288	3
NMTAP	27	0	1
NMTAP	27	48	1
NMTAP	27	96	0
NMTAP	27	192	2
NMTAP	27	192	7
NMTAP	27	288	4
NMTAP	27	288	5
NMTAP	28	0	6
NMTAP	28	48	6
NMTAP	28	96	7
NMTAP	28	192	0
NMTAP	28	192	5
NMTAP	28	288	2
NMTAP	28	288	3
NMSTR	29	0	0
NMSI_	29	0	0	96	48	4
NMSTR	29	0	1
NMSI_	29	0	1	96	48	5
NMTAP	29	192	3
NMTAP	29	192	6
NMTAP	29	240	3
NMTAP	29	240	6
NMTAP	29	288	4
NMTAP	29	288	5
NMSTR	30	0	6
NMSI_	30	0	6	96	48	2
NMSTR	30	0	7
NMSI_	30	0	7	96	48	3
NMTAP	30	192	1
NMTAP	30	192	4
NMTAP	30	240	1
NMTAP	30	240	4
NMTAP	30	288	2
NMTAP	30	288	3
NMTAP	31	0	1
NMTAP	31	48	1
NMTAP	31	96	0
NMTAP	31	192	6
NMTAP	31	240	6
NMTAP	31	288	7
NMTAP	32	0	0
NMTAP	32	0	5
NMTAP	32	96	0
NMTAP	32	96	5
BRTAP	32	192	2
BRTAP	32	192	7
BRTAP	32	288	0
BRTAP	32	288	5
NMHLD	33	0	1	96
NMHLD	33	96	3	96
NMTAP	33	192	2
NMTAP	33	240	2
NMTAP	33	288	3
NMTAP	33	288	4
NMTAP	34	0	5
NMTAP	34	48	5
NMTAP	34	96	4
NMTAP	34	96	6
NMTAP	34	192	7
EXTAP	34	240	0
EXTAP	34	240	6
EXTAP	34	288	0
EXTAP	34	288	6
NMSTR	35	0	2
NMSCL	35	0	2	96	96	7
NMSTR	35	192	6
NMSCL	35	192	6	96	96	3
NMTAP	36	0	2
NMTAP	36	48	2
NMTAP	36	96	0
NMTAP	36	192	0
NMTAP	36	192	7
NMSTR	36	288	6
NMSI_	36	288	6	96	96	2
NMTAP	36	288	7
CNSI_	37	96	2	0	96	5
CNSI_	37	192	5	0	96	3
NMTAP	38	0	2
NMTAP	38	48	2
NMTAP	38	96	1
NMTAP	38	96	3
NMTAP	38	192	0
EXTAP	38	240	1
EXTAP	38	240	7
EXTAP	38	288	1
EXTAP	38	288	7
NMSTR	39	0	5
NMSCR	39	0	5	96	96	0
NMSTR	39	192	1
NMSCR	39	192	1	96	96	4
NMTAP	40	0	5
NMTAP	40	48	5
NMTAP	40	96	4
NMTAP	40	96	6
NMTAP	40	192	0
NMTAP	40	192	7
BRTAP	40	288	3
BRTAP	40	288	5
EXTAP	41	0	6
NMTAP	41	96	4
EXTAP	41	192	2
NMTAP	41	288	1
NMTAP	41	288	3
BRTAP	42	0	6
BXTAP	42	96	4
BRTAP	42	192	2
BXTAP	42	288	1
BXTAP	42	288	3
NMSTR	43	0	1
NMSI_	43	0	1	96	96	7
NMTAP	43	0	3
CNSCR	43	192	7	0	48	0
CNSI_	43	240	0	0	144	4
EXTAP	44	0	5
EXTAP	44	48	5
EXSTR	44	96	4
BRSCL	44	96	4	96	96	1
EXSTR	44	96	5
BRSCR	44	96	5	96	96	0
EXTAP	45	0	0
EXTAP	45	0	1
EXHLD	45	72	0	216
EXHLD	45	72	1	216
EXTAP	46	0	6
EXTAP	46	0	7
EXHLD	46	72	6	216
EXHLD	46	72	7	216
NMTAP	47	0	0
NMTAP	47	0	2
NMHLD	47	72	0	216
NMHLD	47	72	2	216
NMTAP	48	0	5
NMTAP	48	0	7
NMHLD	48	72	5	216
NMHLD	48	72	7	216
NMHLD	49	0	6	72
NMHLD	49	72	4	72
NMTAP	49	144	5
NMHLD	49	192	1	72
NMHLD	49	264	3	72
NMTAP	49	336	2
NMHLD	50	0	5	72
NMHLD	50	72	4	72
NMTAP	50	144	6
NMHLD	50	192	2	72
NMHLD	50	264	3	72
NMTAP	50	336	1
NMSTR	51	0	1
NMSI_	51	0	1	96	96	5
NMSTR	51	192	6
NMSI_	51	192	6	96	96	2
NMTAP	52	0	1
NMTAP	52	96	0
NMTAP	52	144	0
NMTAP	52	192	0
NMTAP	52	192	7
NMSTR	52	288	6
NMSUL	52	288	6	96	192	1
NMTAP	52	288	7
CNSUR	53	192	1	0	192	7
NMTHO	54	0	0	192	C	1	M1
EXHLD	55	192	1	96
EXHLD	55	192	6	96
NMTAP	56	0	1
NMTAP	56	48	1
NMTAP	56	96	0
NMTAP	56	192	2
NMTAP	56	192	7
NMTAP	56	288	0
NMTAP	56	288	5
NMTAP	57	0	6
NMTAP	57	48	6
NMTAP	57	96	7
NMTAP	57	192	0
NMTAP	57	192	5
NMTAP	57	288	2
NMTAP	57	288	7
NMTAP	58	0	6
NMTAP	58	48	6
NMTAP	58	96	4
NMTAP	58	144	4
NMTAP	58	192	5
NMTAP	58	288	2
NMTAP	58	288	3
NMSTR	59	0	0
NMSI_	59	0	0	96	48	4
NMSTR	59	0	1
NMSI_	59	0	1	96	48	5
EXTAP	59	192	3
EXTAP	59	192	6
EXTAP	59	240	3
EXTAP	59	240	6
EXTAP	59	288	3
EXTAP	59	288	6
NMSTR	60	0	1
NMSI_	60	0	1	96	96	5
NMSV_	60	0	1	96	96	3
EXTAP	60	288	4
EXTAP	60	288	6
NMTAP	61	0	4
NMSTR	61	0	6
NMSI_	61	0	6	96	96	2
NMSV_	61	0	6	96	96	4
EXHLD	61	288	1	96
EXHLD	61	288	3	96
NMTTP	62	96	2	B	0	M1
NMTTP	62	96	2	E	0	M1
NMTTP	62	96	3	B	0	M1
NMTTP	62	96	3	E	0	M1
NMTTP	62	96	3	D	0	M1
NMTTP	62	96	4	E	0	M1
NMTTP	62	288	5	B	0	M1
NMTTP	62	288	6	B	0	M1
NMTTP	62	288	6	A	0	M1
NMTTP	62	288	7	B	0	M1
NMTTP	62	288	7	E	0	M1
BXHLD	63	0	0	384
NMTHO	64	0	0	384	C	0	M1
NMTHO	66	0	0	384	C	0	M1
NMTHO	66	0	1	384	B	0	M1
NMTHO	66	0	6	384	B	0	M1
EXTAP	67	288	0
EXTAP	67	288	6
NMSTR	68	0	2
NMSI_	68	0	2	96	48	6
NMSTR	68	0	3
NMSI_	68	0	3	96	48	7
EXTAP	68	192	0
EXTAP	68	192	5
EXTAP	68	240	0
EXTAP	68	240	5
EXTAP	68	288	0
EXTAP	68	288	5
NMSTR	69	0	4
NMSI_	69	0	4	96	48	0
NMSTR	69	0	5
NMSI_	69	0	5	96	48	1
EXTAP	69	192	2
EXTAP	69	192	7
EXTAP	69	240	2
EXTAP	69	240	7
EXTAP	69	288	2
EXTAP	69	288	7
NMHLD	70	0	1	96
NMHLD	70	96	3	96
NMHLD	70	192	4	96
NMHLD	70	288	6	96
NMTAP	71	0	1
NMTAP	71	48	1
NMTAP	71	96	0
NMTAP	71	192	6
NMTAP	71	240	6
NMTAP	71	288	7
NMSTR	72	0	4
NMSI_	72	0	4	96	48	0
NMSTR	72	0	5
NMSI_	72	0	5	96	48	1
EXTAP	72	192	2
EXTAP	72	192	7
EXTAP	72	240	2
EXTAP	72	240	7
EXTAP	72	288	2
EXTAP	72	288	7
NMSTR	73	0	2
NMSI_	73	0	2	96	48	6
NMSTR	73	0	3
NMSI_	73	0	3	96	48	7
EXTAP	73	192	0
EXTAP	73	192	5
EXTAP	73	240	0
EXTAP	73	240	5
EXTAP	73	288	0
EXTAP	73	288	5
NMHLD	74	0	6	96
NMHLD	74	96	4	96
NMHLD	74	192	3	96
NMHLD	74	288	1	96
NMTAP	75	0	6
NMTAP	75	48	6
NMTAP	75	96	7
BRTAP	75	192	0
BRTAP	75	192	5
BRTAP	75	288	2
BRTAP	75	288	7
NMHLD	76	0	4	96
NMHLD	76	0	5	96
NMTAP	76	192	6
NMTAP	76	192	7
NMTAP	76	240	6
NMTAP	76	240	7
NMTAP	76	288	0
NMTAP	76	288	5
NMTAP	77	0	4
NMTAP	77	0	5
NMTAP	77	48	4
NMTAP	77	48	5
NMTAP	77	96	3
NMTAP	77	96	6
NMTAP	77	192	7
EXTAP	77	240	0
EXTAP	77	240	1
EXTAP	77	288	0
EXTAP	77	288	1
NMSTR	78	0	2
NMSCR	78	0	2	96	96	5
NMTAP	78	0	7
NMSTR	78	192	6
NMSCR	78	192	6	96	96	1
NMTAP	79	0	2
NMTAP	79	48	2
NMTAP	79	96	3
NMTAP	79	192	1
NMTAP	79	192	4
NMTAP	79	288	3
NMTAP	79	288	6
NMHLD	80	0	0	96
NMHLD	80	0	1	96
NMTAP	80	192	6
NMTAP	80	192	7
NMTAP	80	240	6
NMTAP	80	240	7
NMTAP	80	288	0
NMTAP	80	288	5
NMTAP	81	0	4
NMTAP	81	0	5
NMTAP	81	48	4
NMTAP	81	48	5
NMTAP	81	96	3
NMTAP	81	96	6
NMTAP	81	192	7
EXTAP	81	240	0
EXTAP	81	240	1
EXTAP	81	288	0
EXTAP	81	288	1
NMHLD	82	0	7	96
NMHLD	82	96	1	96
NMHLD	82	192	3	96
NMSTR	82	288	5
NMSI_	82	288	5	96	144	1
NMSV_	82	288	5	96	144	3
NMTAP	83	288	0
NMTAP	83	288	6
NMTAP	83	336	0
NMTAP	83	336	6
BXTAP	84	0	0
BXHLD	84	0	6	96
NMTAP	84	96	7
NMHLD	84	192	1	96
NMTAP	84	192	7
NMTAP	84	288	0
NMTAP	85	0	6
NMTAP	85	48	6
NMTAP	85	96	7
NMTAP	85	144	5
NMTAP	85	192	0
EXTAP	85	240	1
EXTAP	85	240	3
EXTAP	85	288	1
EXTAP	85	288	3
NMSTR	86	0	4
NMSCR	86	0	4	96	96	7
NMSTR	86	96	0
NMSCR	86	96	0	96	96	3
EXTAP	86	288	7
EXTAP	87	0	7
NMTTP	87	96	0	C	0	M1
NMTTP	87	96	2	B	0	M1
NMTTP	87	96	4	B	0	M1
NMTTP	87	96	6	B	0	M1
NMTAP	87	288	1
NMTAP	87	288	7
NMTAP	87	336	1
NMTAP	87	336	7
BXHLD	88	0	1	96
BXTAP	88	0	7
NMTAP	88	96	0
NMTAP	88	192	0
NMHLD	88	192	6	96
NMTAP	88	288	7
NMTAP	89	0	1
NMTAP	89	48	1
NMTAP	89	96	0
NMTAP	89	144	2
NMTAP	89	192	7
EXTAP	89	240	4
EXTAP	89	240	6
EXTAP	89	288	4
EXTAP	89	288	6
NMSTR	90	0	3
NMSCL	90	0	3	96	96	0
NMSTR	90	96	7
NMSCL	90	96	7	96	96	4
EXTAP	90	288	0
NMTAP	91	0	1
NMTAP	91	0	7
NMTAP	91	48	1
NMTAP	91	48	7
NMTAP	91	96	1
NMTAP	91	96	7
NMTAP	91	192	0
NMTAP	91	192	6
NMTAP	91	240	0
NMTAP	91	240	6
NMHLD	91	288	0	1248
BRSTR	91	288	6
BRSI_	91	288	6	96	48	2
NMTTP	93	192	2	B	0	M1
NMTTP	93	192	3	E	0	M1
NMTTP	93	288	5	B	0	M1
NMTTP	93	288	5	E	0	M1
NMTAP	95	0	5
NMTAP	95	96	6
NMSTR	95	192	1
BRSI_	95	192	1	96	48	5
BXSTR	95	192	7
NMSI_	95	192	7	96	48	3

T_REC_TAP	256
T_REC_BRK	12
T_REC_XTP	71
T_REC_BXX	9
T_REC_HLD	40
T_REC_XHO	8
T_REC_BHO	0
T_REC_BXH	3
T_REC_STR	44
T_REC_BST	1
T_REC_XST	2
T_REC_XBS	4
T_REC_TTP	19
T_REC_THO	8
T_REC_SLD	50
T_REC_BSL	4
T_REC_ALL	531
T_NUM_TAP	392
T_NUM_BRK	33
T_NUM_HLD	56
T_NUM_SLD	50
T_NUM_ALL	531
T_JUDGE_TAP	418
T_JUDGE_HLD	228
T_JUDGE_SLD	54
T_JUDGE_ALL	700
TTM_EACHPAIRS	138
TTM_SCR_TAP	196000
TTM_SCR_BRK	85800
TTM_SCR_HLD	56000
TTM_SCR_SLD	75000
TTM_SCR_ALL	412800
TTM_SCR_S	397250
TTM_SCR_SS	409500
TTM_RAT_ACV	10080

