VERSION	0.00.00	1.05.00
FES_MODE	0
BPM_DEF	143.000	143.000	143.000	143.000
MET_DEF	4	4
RESOLUTION	384
CLK_DEF	384
COMPATIBLE_CODE	MA2

BPM	0	0	143.000
MET	0	0	4	4

NMTAP	3	0	3
NMTAP	3	96	3
NMTAP	3	192	2
NMTAP	4	0	1
NMTAP	4	96	1
NMTAP	4	192	0
NMTAP	5	0	7
NMTAP	5	96	7
NMTAP	5	192	6
NMTAP	6	0	5
NMTAP	6	96	5
NMTAP	6	192	4
NMTAP	6	192	5
NMTAP	7	0	4
NMTAP	7	96	4
NMTAP	7	192	5
NMTAP	8	0	6
NMTAP	8	96	6
NMTAP	8	192	7
NMTAP	9	0	0
NMTAP	9	96	0
NMTAP	9	192	1
NMTAP	10	0	2
NMTAP	10	96	2
NMTAP	10	192	2
NMTAP	10	192	3
NMSTR	11	0	1
NMSI_	11	0	1	96	192	4
NMSTR	12	0	5
NMSI_	12	0	5	96	192	0
NMSTR	13	0	1
NMSUR	13	0	1	96	480	4
NMTAP	15	0	5
NMTAP	15	96	5
NMTAP	15	192	4
NMTAP	15	192	5
NMTAP	16	0	6
NMTAP	16	96	6
NMTAP	16	192	6
NMTAP	16	192	7
NMTAP	17	0	0
NMTAP	17	96	0
NMTAP	17	192	0
NMTAP	17	192	1
NMTAP	18	0	2
NMTAP	18	0	3
NMTAP	18	96	2
NMTAP	18	96	3
NMTAP	18	192	2
NMTAP	18	192	3
NMTAP	19	0	2
NMTAP	19	96	2
NMTAP	19	192	2
NMTAP	19	192	3
NMTAP	20	0	1
NMTAP	20	96	1
NMTAP	20	192	0
NMTAP	20	192	1
NMTAP	21	0	7
NMTAP	21	96	7
NMTAP	21	192	6
NMTAP	21	192	7
NMTAP	22	0	4
NMTAP	22	0	5
NMTAP	22	96	4
NMTAP	22	96	5
BXTAP	22	192	4
BXTAP	22	192	5
NMHLD	23	0	3	384
NMHLD	23	0	4	384
NMTAP	25	0	5
NMTAP	25	96	5
NMTAP	25	192	6
NMTAP	25	288	6
NMTAP	26	0	7
NMTAP	26	96	7
NMTAP	26	192	0
NMTAP	26	192	1
NMTAP	27	0	2
NMTAP	27	96	2
NMTAP	27	192	1
NMTAP	27	288	1
NMTAP	28	0	0
NMTAP	28	96	0
NMTAP	28	192	6
NMTAP	28	192	7
NMTAP	29	0	6
NMTAP	29	96	6
NMTAP	29	192	5
NMTAP	29	288	5
NMTAP	30	0	4
NMTAP	30	96	4
NMTAP	30	192	2
NMTAP	30	192	3
NMTAP	31	0	1
NMTAP	31	96	1
NMTAP	31	192	2
NMTAP	31	288	2
NMTAP	32	0	3
NMTAP	32	96	3
BXTAP	32	192	4
BXTAP	32	192	5
NMTAP	33	0	6
NMTAP	33	96	6
NMTAP	33	192	6
NMTAP	33	288	6
NMTAP	33	288	7
NMTAP	34	0	5
NMTAP	34	96	5
NMTAP	34	192	5
NMTAP	34	288	4
NMTAP	34	288	5
NMTAP	35	0	3
NMTAP	35	96	3
NMTAP	35	192	3
NMTAP	35	288	2
NMTAP	35	288	3
NMTAP	36	0	1
NMTAP	36	96	1
BRTAP	36	192	0
BRTAP	36	192	1
NMTAP	37	0	1
NMTAP	37	96	1
NMTAP	37	192	1
NMTAP	37	288	0
NMTAP	37	288	1
NMTAP	38	0	2
NMTAP	38	96	2
NMTAP	38	192	2
NMTAP	38	288	2
NMTAP	38	288	3
NMTAP	39	0	4
NMTAP	39	96	4
NMTAP	39	192	4
NMTAP	39	288	4
NMTAP	39	288	5
NMTAP	40	0	6
NMTAP	40	96	6
BRTAP	40	192	6
BRTAP	40	192	7
NMTTP	41	0	6	B	0	L1
NMTTP	41	96	5	B	0	L1
NMTTP	41	192	4	B	0	L1
NMTTP	42	0	1	B	0	L1
NMTTP	42	96	2	B	0	L1
NMTTP	42	192	3	B	0	L1
NMTTP	43	0	5	B	0	L1
NMTTP	43	96	4	B	0	L1
NMTTP	43	192	3	B	0	L1
NMTTP	43	288	2	B	0	L1
NMTTP	44	0	0	C	1	L1
NMHLD	45	0	6	192
NMHLD	45	192	7	192
NMHLD	46	0	0	192
NMTAP	46	192	1
NMHLD	47	0	1	192
NMHLD	47	192	0	192
NMHLD	48	0	7	192
NMTAP	48	192	6
NMHLD	49	0	5	192
NMHLD	49	192	4	192
NMHLD	50	0	3	192
NMTAP	50	192	2
NMHLD	51	0	2	192
NMHLD	51	192	3	192
NMHLD	52	0	4	192
NMTAP	52	192	5
NMSTR	53	0	3
NMSI_	53	0	3	96	192	0
NMSTR	53	0	4
NMSI_	53	0	4	96	192	7
EXHLD	54	192	0	192
EXHLD	54	192	7	192
NMTAP	56	0	1
NMTAP	56	96	1
NMTAP	56	192	1
NMTAP	56	288	1
NMTAP	57	0	0
NMTAP	57	96	0
NMTAP	57	192	0
NMTAP	57	288	0
NMTAP	58	0	7
NMTAP	58	96	7
NMTAP	58	192	7
NMTAP	58	288	7
NMTAP	59	0	6
NMTAP	59	0	7
EXTAP	59	192	6
EXTAP	59	192	7
NMTAP	60	0	5
NMTAP	60	96	5
NMTAP	60	192	5
BXTAP	60	288	5
NMTAP	61	0	6
NMTAP	61	96	6
NMTAP	61	192	6
BXTAP	61	288	6
NMTAP	62	0	7
BXTAP	62	96	7
NMTAP	62	192	7
BXTAP	62	288	7
EXTAP	63	0	0
EXTAP	63	0	1
NMTTP	64	0	1	B	0	L1
NMTTP	64	96	2	B	0	L1
NMTTP	64	192	3	B	0	L1
NMTTP	65	0	6	B	0	L1
NMTTP	65	96	5	B	0	L1
NMTTP	65	192	4	B	0	L1
NMTTP	66	0	1	B	0	L1
NMTTP	66	96	2	B	0	L1
NMTTP	66	192	3	B	0	L1
NMTTP	66	288	4	B	0	L1
NMTTP	67	0	0	C	0	L1
NMTAP	68	0	1
NMTAP	68	96	1
NMTAP	68	192	0
NMTAP	68	192	1
NMTAP	68	288	0
NMTAP	68	288	1
NMTAP	69	0	7
NMTAP	69	96	7
NMTAP	69	192	6
NMTAP	69	192	7
NMTAP	70	0	5
NMTAP	70	96	5
NMTAP	70	192	6
NMTAP	70	192	7
NMTAP	70	288	6
NMTAP	70	288	7
NMTAP	71	0	0
NMTAP	71	96	0
NMTAP	71	192	0
NMTAP	71	192	1
NMTAP	72	0	1
NMTAP	72	96	1
NMTAP	72	192	2
NMTAP	72	192	3
NMTAP	72	288	2
NMTAP	72	288	3
NMTAP	73	0	4
NMTAP	73	96	4
NMTAP	73	192	4
NMTAP	73	192	5
NMTAP	74	0	6
NMTAP	74	96	6
NMTAP	74	192	4
NMTAP	74	192	5
NMTAP	74	288	4
NMTAP	74	288	5
NMTAP	75	0	3
NMTAP	75	96	3
BXTAP	75	192	2
BXTAP	75	192	3
NMTAP	76	0	1
NMTAP	76	96	1
NMTAP	76	192	0
NMTAP	76	192	1
NMTAP	76	288	0
NMTAP	76	288	1
NMTAP	77	0	2
NMTAP	77	96	2
NMTAP	77	192	2
NMTAP	77	192	3
NMTAP	77	288	2
NMTAP	77	288	3
NMTAP	78	0	4
NMTAP	78	96	4
NMTAP	78	192	4
NMTAP	78	192	5
NMTAP	78	288	4
NMTAP	78	288	5
NMTAP	79	0	6
NMTAP	79	96	6
BXTAP	79	192	6
BXTAP	79	192	7
NMTAP	80	0	6
NMTAP	80	96	6
NMTAP	80	192	6
NMTAP	80	192	7
NMTAP	80	288	6
NMTAP	80	288	7
NMTAP	81	0	5
NMTAP	81	96	5
NMTAP	81	192	4
NMTAP	81	192	5
NMTAP	81	288	4
NMTAP	81	288	5
NMTAP	82	0	3
NMTAP	82	96	3
NMTAP	82	192	2
NMTAP	82	192	3
NMTAP	82	288	2
NMTAP	82	288	3
NMTAP	83	0	1
NMTAP	83	96	1
NMTAP	83	192	0
NMTAP	83	192	1
NMSTR	84	0	0
NMSXL	84	0	0	96	480	3
NMSTR	84	0	7
NMSXR	84	0	7	96	480	4
NMTAP	86	0	2
NMTAP	86	96	2
NMTAP	86	192	2
NMTAP	86	192	3
NMTAP	87	0	5
NMTAP	87	96	5
NMTAP	87	192	4
NMTAP	87	192	5
NMTAP	88	0	3
NMTAP	88	96	2
NMTAP	88	192	1
NMTAP	88	288	0
NMTAP	89	0	7
NMTAP	89	96	6
NMTAP	89	192	5
NMTAP	89	288	4
NMTAP	90	0	3
NMTAP	90	96	2
NMTAP	90	192	1
NMTAP	90	288	0
NMTAP	91	0	0
NMTAP	91	0	7
NMTAP	91	96	0
NMTAP	91	96	7
BRTAP	91	192	1
BRTAP	91	192	6
NMSTR	92	0	7
NMSXR	92	0	7	96	480	3
NMSTR	94	0	1
NMSXL	94	0	1	96	480	5

T_REC_TAP	254
T_REC_BRK	6
T_REC_XTP	4
T_REC_BXX	12
T_REC_HLD	14
T_REC_XHO	2
T_REC_BHO	0
T_REC_BXH	0
T_REC_STR	9
T_REC_BST	0
T_REC_XST	0
T_REC_XBS	0
T_REC_TTP	22
T_REC_THO	0
T_REC_SLD	9
T_REC_BSL	0
T_REC_ALL	332
T_NUM_TAP	289
T_NUM_BRK	18
T_NUM_HLD	16
T_NUM_SLD	9
T_NUM_ALL	332
T_JUDGE_TAP	307
T_JUDGE_HLD	72
T_JUDGE_SLD	9
T_JUDGE_ALL	388
TTM_EACHPAIRS	64
TTM_SCR_TAP	144500
TTM_SCR_BRK	46800
TTM_SCR_HLD	16000
TTM_SCR_SLD	13500
TTM_SCR_ALL	220800
TTM_SCR_S	212450
TTM_SCR_SS	219000
TTM_RAT_ACV	10082

