VERSION	0.00.00	1.05.00
FES_MODE	0
BPM_DEF	143.000	143.000	143.000	143.000
MET_DEF	4	4
RESOLUTION	384
CLK_DEF	384
COMPATIBLE_CODE	MA2

BPM	0	0	143.000
MET	0	0	4	4

NMTAP	3	0	0
NMTAP	3	192	0
NMTAP	4	0	1
NMTAP	5	0	2
NMTAP	5	192	2
NMTAP	6	0	3
NMTAP	7	0	4
NMTAP	7	192	4
NMTAP	8	0	5
NMTAP	9	0	6
NMTAP	9	192	6
NMTAP	10	0	0
NMTAP	10	0	7
NMSTR	11	0	7
NMSI_	11	0	7	96	288	3
NMSTR	13	0	0
NMSI_	13	0	0	96	288	4
NMTAP	15	0	7
NMTAP	15	192	7
NMTAP	16	0	6
NMTAP	16	192	6
NMTAP	17	0	5
NMTAP	17	192	5
NMTAP	18	0	3
NMTAP	18	0	4
NMTAP	19	0	3
NMTAP	19	192	3
NMTAP	20	0	2
NMTAP	20	192	2
NMTAP	21	0	1
NMTAP	21	192	1
NMTAP	22	0	0
NMTAP	22	0	7
NMHLD	23	0	0	384
NMHLD	23	0	7	384
BRTAP	25	0	0
NMTAP	25	96	0
NMTAP	25	192	0
NMTAP	26	0	1
NMTAP	26	192	1
NMTAP	27	0	2
NMTAP	27	96	2
NMTAP	27	192	2
NMTAP	28	0	3
NMTAP	28	0	4
NMTAP	28	192	3
NMTAP	28	192	4
NMTAP	29	0	4
NMTAP	29	96	4
NMTAP	29	192	4
NMTAP	30	0	5
NMTAP	30	192	5
NMTAP	31	0	6
NMTAP	31	96	6
NMTAP	31	192	6
NMTAP	32	0	0
NMTAP	32	0	7
NMTAP	32	192	0
NMTAP	32	192	7
NMTAP	33	0	6
NMTAP	33	96	6
NMTAP	33	192	6
NMTAP	34	0	6
NMTAP	34	0	7
NMTAP	34	192	6
NMTAP	34	192	7
NMTAP	35	0	5
NMTAP	35	96	5
NMTAP	35	192	5
NMTAP	36	0	4
NMTAP	36	0	5
NMTAP	36	192	4
NMTAP	36	192	5
NMTAP	37	0	3
NMTAP	37	96	3
NMTAP	37	192	3
NMTAP	38	0	2
NMTAP	38	0	3
NMTAP	38	192	2
NMTAP	38	192	3
NMTAP	39	0	1
NMTAP	39	96	1
NMTAP	39	192	1
NMTAP	40	0	0
NMTAP	40	0	1
NMTAP	40	192	0
NMTAP	40	192	1
NMSTR	41	0	1
NMSI_	41	0	1	96	288	5
NMSTR	43	0	6
NMSI_	43	0	6	96	288	2
NMHLD	45	0	0	192
NMHLD	45	0	1	192
NMTAP	46	0	0
NMTAP	46	0	1
NMHLD	47	0	2	192
NMHLD	47	0	3	192
NMTAP	48	0	2
NMTAP	48	0	3
NMHLD	49	0	4	192
NMHLD	49	0	5	192
NMTAP	50	0	4
NMTAP	50	0	5
NMHLD	51	0	6	192
NMHLD	51	0	7	192
NMTAP	52	0	6
NMTAP	52	0	7
NMTAP	53	0	0
NMTAP	53	192	0
NMTAP	54	0	0
NMTAP	54	0	7
NMHLD	54	192	0	192
NMHLD	54	192	7	192
NMTAP	56	0	7
NMTAP	56	192	7
NMTAP	57	0	6
NMTAP	57	0	7
NMTAP	57	192	6
NMTAP	57	192	7
NMTAP	58	0	5
NMTAP	58	192	5
NMTAP	59	0	3
NMTAP	59	0	4
NMTAP	59	192	3
NMTAP	59	192	4
NMTAP	60	0	3
NMTAP	60	192	3
NMTAP	61	0	2
NMTAP	61	0	3
NMTAP	61	192	2
NMTAP	61	192	3
NMTAP	62	0	1
NMTAP	62	192	1
BXTAP	63	0	0
BXTAP	63	0	7
NMTTP	64	0	0	E	0	L1
NMTTP	65	0	0	B	0	L1
NMTTP	65	0	7	B	0	L1
NMTTP	66	0	1	B	0	L1
NMTTP	66	0	6	B	0	L1
NMTTP	67	0	0	C	1	L1
BRTAP	68	0	0
NMTAP	68	96	0
NMTAP	68	192	0
NMTAP	69	0	1
NMTAP	69	96	1
NMTAP	69	192	1
NMTAP	70	0	2
NMTAP	70	96	2
NMTAP	70	192	2
NMTAP	71	0	3
NMTAP	71	0	4
NMTAP	71	192	3
NMTAP	71	192	4
NMTAP	72	0	4
NMTAP	72	96	4
NMTAP	72	192	4
NMTAP	73	0	5
NMTAP	73	96	5
NMTAP	73	192	5
NMTAP	74	0	6
NMTAP	74	96	6
NMTAP	74	192	6
NMTAP	75	0	0
NMTAP	75	0	7
NMTAP	75	192	0
NMTAP	75	192	7
NMTAP	76	0	7
NMTAP	76	96	7
NMTAP	76	192	7
NMTAP	77	0	6
NMTAP	77	96	6
NMTAP	77	192	6
NMTAP	78	0	5
NMTAP	78	96	5
NMTAP	78	192	5
NMTAP	79	0	3
NMTAP	79	0	4
NMTAP	79	192	3
NMTAP	79	192	4
NMTAP	80	0	3
NMTAP	80	96	3
NMTAP	80	192	3
NMTAP	81	0	2
NMTAP	81	96	2
NMTAP	81	192	2
NMTAP	82	0	1
NMTAP	82	96	1
NMTAP	82	192	1
NMTAP	83	0	0
NMTAP	83	0	7
NMTAP	83	192	0
NMTAP	83	192	7
BRTAP	84	0	0
NMTAP	84	96	0
NMTAP	84	192	0
NMTAP	85	0	1
NMTAP	85	96	1
NMTAP	85	192	0
NMTAP	85	192	1
NMTAP	86	0	2
NMTAP	86	96	2
NMTAP	86	192	2
NMTAP	87	0	3
NMTAP	87	96	3
NMTAP	87	192	3
NMTAP	87	192	4
NMTAP	88	0	4
NMTAP	88	96	4
NMTAP	88	192	4
NMTAP	89	0	5
NMTAP	89	96	5
NMTAP	89	192	4
NMTAP	89	192	5
NMTAP	90	0	6
NMTAP	90	96	6
NMTAP	90	192	6
NMTAP	91	0	0
NMTAP	91	0	7
NMTTP	92	0	0	E	0	L1
NMTTP	93	0	0	B	0	L1
NMTTP	93	0	7	B	0	L1
NMTTP	94	0	1	B	0	L1
NMTTP	94	0	6	B	0	L1
NMTHO	95	0	0	288	C	0	L1

T_REC_TAP	188
T_REC_BRK	3
T_REC_XTP	0
T_REC_BXX	2
T_REC_HLD	12
T_REC_XHO	0
T_REC_BHO	0
T_REC_BXH	0
T_REC_STR	4
T_REC_BST	0
T_REC_XST	0
T_REC_XBS	0
T_REC_TTP	11
T_REC_THO	1
T_REC_SLD	4
T_REC_BSL	0
T_REC_ALL	225
T_NUM_TAP	203
T_NUM_BRK	5
T_NUM_HLD	13
T_NUM_SLD	4
T_NUM_ALL	225
T_JUDGE_TAP	208
T_JUDGE_HLD	62
T_JUDGE_SLD	4
T_JUDGE_ALL	274
TTM_EACHPAIRS	45
TTM_SCR_TAP	101500
TTM_SCR_BRK	13000
TTM_SCR_HLD	13000
TTM_SCR_SLD	6000
TTM_SCR_ALL	133500
TTM_SCR_S	129050
TTM_SCR_SS	133000
TTM_RAT_ACV	10037

