VERSION	0.00.00	1.05.00
FES_MODE	0
BPM_DEF	198.000	198.000	198.000	198.000
MET_DEF	4	4
RESOLUTION	384
CLK_DEF	384
COMPATIBLE_CODE	MA2

BPM	0	0	198.000
MET	0	0	4	4

NMHLD	1	0	1	96
NMHLD	1	0	7	96
NMTAP	1	192	0
NMTAP	1	192	6
EXTAP	1	288	1
EXTAP	1	288	7
EXTAP	1	336	1
EXTAP	1	336	7
EXTAP	2	48	0
EXTAP	2	48	6
EXTAP	2	144	1
EXTAP	2	144	7
NMTAP	2	240	0
NMHLD	2	288	0	96
NMTHO	3	0	0	192	C	1	M1
NMTTP	3	336	0	C	1	M1
NMTTP	3	336	0	E	0	M1
NMTTP	3	336	3	B	0	M1
NMTTP	3	336	4	E	0	M1
NMTTP	3	336	7	B	0	M1
EXTAP	4	192	0
EXTAP	4	192	7
EXTAP	4	288	0
EXTAP	4	288	7
NMTAP	5	0	0
EXTAP	5	32	1
EXTAP	5	64	2
NMTAP	5	96	6
EXTAP	5	128	5
EXTAP	5	160	4
NMTAP	5	192	0
EXTAP	5	224	1
EXTAP	5	256	2
NMTAP	5	288	6
EXTAP	5	320	5
EXTAP	5	352	4
NMTAP	6	0	0
EXTAP	6	32	1
EXTAP	6	64	2
NMTAP	6	96	7
EXTAP	6	128	6
EXTAP	6	160	5
NMTAP	6	192	1
EXTAP	6	224	2
EXTAP	6	256	3
NMTAP	6	288	6
EXTAP	6	320	5
EXTAP	6	352	4
NMTAP	7	0	1
NMTAP	7	48	1
NMTAP	7	96	3
NMTAP	7	144	2
NMTAP	7	192	6
NMTAP	7	240	6
NMSTR	7	288	4
NMSCL	7	288	4	96	96	0
NMSTR	8	0	0
NMSCL	8	0	0	96	96	4
NMTAP	8	96	4
NMTAP	8	192	0
NMTAP	8	240	0
NMTAP	8	288	1
NMTAP	8	288	7
NMTAP	9	0	7
EXTAP	9	32	6
EXTAP	9	64	5
NMTAP	9	96	1
EXTAP	9	128	2
EXTAP	9	160	3
NMTAP	9	192	7
EXTAP	9	224	6
EXTAP	9	256	5
NMTAP	9	288	1
EXTAP	9	320	2
EXTAP	9	352	3
NMTAP	10	0	7
EXTAP	10	32	6
EXTAP	10	64	5
NMTAP	10	96	0
EXTAP	10	128	1
EXTAP	10	160	2
NMTAP	10	192	6
EXTAP	10	224	5
EXTAP	10	256	4
NMTAP	10	288	1
EXTAP	10	320	2
EXTAP	10	352	3
NMTAP	11	0	6
NMTAP	11	48	6
NMTAP	11	96	4
NMTAP	11	144	7
NMTAP	11	192	1
NMTAP	11	240	1
NMTAP	11	288	3
EXHLD	12	0	0	48
EXHLD	12	0	5	48
EXHLD	12	96	2	48
EXHLD	12	96	7	48
BXTAP	12	192	0
BXTAP	12	192	5
EXSTR	13	0	6
NMSCL	13	0	6	96	192	2
NMTAP	13	96	1
NMTAP	13	192	1
NMTAP	13	288	0
NMSTR	14	0	0
NMSCR	14	0	0	96	192	4
NMTAP	14	96	5
NMTAP	14	192	5
NMSTR	14	288	6
NMSI_	14	288	6	96	48	2
NMTAP	15	0	6
NMTAP	15	96	0
NMHLD	15	144	0	96
NMTAP	15	240	3
NMSTR	15	288	3
NMSXL	15	288	3	96	96	3
NMSXR	15	288	3	96	96	3
EXTAP	16	192	1
EXTAP	16	192	5
NMTAP	16	288	2
NMTAP	16	312	4
NMTAP	16	336	2
NMTAP	16	360	4
NMSTR	17	0	1
NMSI_	17	0	1	96	48	4
NMTAP	17	96	5
NMTAP	17	144	6
NMSTR	17	192	6
NMSI_	17	192	6	96	48	2
NMTAP	17	288	2
NMTAP	17	336	1
NMSTR	18	0	1
NMSCR	18	0	1	96	48	4
NMTAP	18	96	6
NMTAP	18	144	7
NMTAP	18	192	7
NMTAP	18	288	0
NMTAP	18	288	6
NMSTR	19	0	6
NMSI_	19	0	6	96	48	4
NMSTR	19	0	7
NMSI_	19	0	7	96	48	1
NMSTR	19	192	2
NMSI_	19	192	2	96	48	7
NMSTR	19	192	3
NMSI_	19	192	3	96	48	6
BRTAP	20	0	0
BRTAP	20	0	5
BRTAP	20	96	1
BRTAP	20	96	7
BRTAP	20	192	0
BRTAP	20	192	1
NMTAP	20	288	2
NMTAP	20	288	3
NMHLD	21	0	1	96
NMHLD	21	0	4	96
NMTAP	21	192	3
NMTAP	21	192	6
NMTAP	21	288	4
NMTAP	21	288	5
NMTAP	22	0	6
NMTAP	22	0	7
NMTAP	22	96	0
NMTAP	22	96	1
NMTAP	22	192	2
NMTAP	22	192	3
NMSTR	22	288	0
NMSCR	22	288	0	96	48	3
NMSTR	22	288	6
NMSI_	22	288	6	96	48	4
NMSTR	23	96	1
NMSI_	23	96	1	96	48	3
NMSTR	23	96	7
NMSCL	23	96	7	96	48	4
NMSTR	23	288	0
NMSCR	23	288	0	96	48	3
NMSTR	23	288	6
NMSI_	23	288	6	96	48	4
NMSTR	24	96	1
NMSI_	24	96	1	96	48	3
NMSTR	24	96	7
NMSCL	24	96	7	96	48	4
NMTAP	24	288	0
NMTAP	24	288	6
NMSTR	25	0	0
NMSV_	25	0	0	96	96	1
NMTAP	25	0	6
NMTAP	25	96	5
NMTAP	25	144	5
CNSI_	25	192	1	0	48	3
NMTAP	25	240	6
NMHLD	25	288	6	96
NMSTR	26	0	4
NMSI_	26	0	4	96	48	1
NMTAP	26	96	5
NMSTR	26	144	5
NMSI_	26	144	5	96	48	7
NMTTP	26	240	0	B	1	M1
NMTAP	27	48	7
NMTAP	27	96	7
NMTAP	27	192	0
NMTAP	27	192	5
NMTAP	27	240	0
NMTAP	27	240	5
BRTAP	27	336	2
BRTAP	27	336	7
NMTAP	28	48	0
NMTAP	28	48	5
BRTAP	28	96	0
BRTAP	28	96	5
BRTAP	28	192	2
BRTAP	28	192	7
NMSTR	29	0	1
NMSI_	29	0	1	96	96	4
NMSTR	29	192	5
NMSI_	29	192	5	96	96	0
NMTAP	30	0	1
NMTAP	30	96	1
NMHLD	30	192	2	96
NMHLD	30	192	4	96
NMTAP	31	0	3
NMHLD	31	0	5	96
NMTAP	31	96	3
NMHLD	31	192	2	96
NMTAP	31	192	4
NMTAP	31	288	4
NMTTP	32	0	0	E	1	M1
NMTTP	32	0	0	A	0	M1
NMTTP	32	0	1	E	0	M1
NMTTP	32	0	1	D	0	M1
NMTTP	32	0	7	E	0	M1
NMTTP	32	0	7	A	0	M1
NMTTP	32	0	7	D	0	M1
EXTAP	32	192	2
EXTAP	32	192	5
EXTAP	32	288	2
EXTAP	32	288	5
NMHLD	33	0	6	96
NMTAP	33	96	4
NMHLD	33	192	1	96
NMSTR	33	288	3
BRSI_	33	288	3	96	48	6
NMSTR	34	0	3
BRSI_	34	0	3	96	48	0
NMSTR	34	96	3
BRSI_	34	96	3	96	48	7
NMSTR	34	192	3
BRSI_	34	192	3	96	48	1
NMTAP	34	288	3
NMHLD	35	0	6	96
NMHLD	35	96	4	96
NMHLD	35	192	3	96
NMSTR	35	288	1
NMSCR	35	288	1	96	192	7
EXTAP	36	0	0
EXSTR	36	288	0
NMSF_	36	288	0	96	96	4
NMTAP	37	192	2
NMTAP	37	192	6
NMTAP	37	240	2
NMTAP	37	240	6
NMSTR	37	288	2
BRSCL	37	288	2	96	192	4
NMSTR	37	288	6
BRSUL	37	288	6	96	192	3
BRTAP	38	288	2
BRTAP	38	288	5
NMSTR	39	0	1
NMSI_	39	0	1	96	48	5
NMSTR	39	0	6
NMSI_	39	0	6	96	48	3
EXTAP	39	96	1
EXTAP	39	96	6
BRTAP	39	192	1
BRTAP	39	192	7
NMSTR	39	288	2
NMSI_	39	288	2	96	48	0
NMSTR	39	288	3
NMSI_	39	288	3	96	48	6
NMSTR	40	96	2
NMSI_	40	96	2	96	48	0
NMSTR	40	96	3
NMSI_	40	96	3	96	48	6
NMTAP	40	288	2
NMTAP	40	288	3
NMSTR	41	0	0
NMSI_	41	0	0	96	48	4
NMSTR	41	0	6
NMSI_	41	0	6	96	48	3
NMTAP	41	96	0
NMTAP	41	96	6
NMTAP	41	192	1
NMTAP	41	192	5
NMTAP	41	288	3
NMTAP	41	288	4
NMHLD	42	0	0	48
NMHLD	42	0	2	48
NMTAP	42	96	3
NMTAP	42	96	4
NMHLD	42	192	5	48
NMHLD	42	192	7	48
NMSTR	42	288	4
NMSCR	42	288	4	96	144	0
NMTAP	43	0	3
NMTAP	43	96	3
NMTAP	43	192	3
BRSTR	43	288	1
NMSXL	43	288	1	96	192	4
BRTAP	43	288	5
NMTAP	44	0	6
NMTAP	44	96	7
NMTAP	44	192	7
BRTAP	44	288	5
BRTAP	44	288	7
BRTAP	45	0	0
BRTAP	45	0	2
NMTAP	45	96	4
NMTAP	45	96	5
NMTAP	45	144	4
NMTAP	45	144	5
NMTAP	45	240	2
NMTAP	45	240	3
NMSTR	45	288	2
NMSCL	45	288	2	96	48	7
NMSTR	45	288	3
NMSCR	45	288	3	96	48	6
NMSTR	46	96	4
NMSI_	46	96	4	96	48	0
NMSTR	46	96	5
NMSI_	46	96	5	96	48	1
EXTAP	46	288	2
EXTAP	46	288	3
NMSTR	47	0	0
NMSI_	47	0	0	96	48	4
NMSTR	47	0	6
NMSI_	47	0	6	96	48	3
NMTAP	47	96	0
NMTAP	47	96	6
NMTAP	47	192	1
NMTAP	47	192	5
NMSTR	47	288	2
NMSI_	47	288	2	96	48	0
NMSTR	47	288	3
NMSI_	47	288	3	96	48	6
NMSTR	48	96	2
NMSI_	48	96	2	96	48	0
NMSTR	48	96	3
NMSI_	48	96	3	96	48	6
NMTAP	48	288	2
NMTAP	48	288	3
NMHLD	49	0	4	72
NMHLD	49	72	5	72
NMTAP	49	144	6
NMSTR	49	192	6
NMSUL	49	192	6	96	96	1
NMSTR	50	0	0
NMSXL	50	0	0	96	96	0
EXTAP	50	192	7
NMTAP	50	288	0
NMTAP	50	336	0
NMTAP	51	0	1
NMTAP	51	0	7
NMTAP	51	96	4
NMTAP	51	96	5
NMTAP	51	192	1
NMTAP	51	192	7
NMTAP	51	288	2
NMSTR	51	288	3
NMSI_	51	288	3	96	48	7
NMSTR	52	0	1
NMSI_	52	0	1	96	48	5
NMTAP	52	0	3
NMTAP	52	96	1
NMSTR	52	96	6
NMSI_	52	96	6	96	48	2
NMTAP	52	192	0
NMTAP	52	192	6
EXTAP	52	288	1
EXSTR	52	288	4
NMSCR	52	288	4	96	96	0
NMSTR	53	0	0
NMSCR	53	0	0	96	96	4
NMSTR	53	96	4
NMSCR	53	96	4	96	96	0
NMSTR	53	192	0
NMSCR	53	192	0	96	96	4
NMTAP	53	288	4
NMTAP	54	0	0
NMTAP	54	96	2
NMTAP	54	96	6
NMTAP	54	144	2
NMTAP	54	144	6
NMTAP	54	192	2
NMTAP	54	192	6
NMSTR	54	288	5
NMSI_	54	288	5	96	48	0
NMSTR	55	0	4
NMSI_	55	0	4	96	48	1
NMSTR	55	96	5
NMSI_	55	96	5	96	48	0
NMSTR	55	192	4
NMSI_	55	192	4	96	48	1
NMTAP	55	288	5
NMHLD	56	0	0	96
NMSTR	56	0	6
NMSCL	56	0	6	96	48	3
NMTAP	56	192	1
NMTAP	56	192	4
NMTAP	56	240	1
NMTAP	56	240	4
NMSTR	56	288	2
NMSI_	56	288	2	96	48	7
NMSTR	57	0	3
NMSI_	57	0	3	96	48	6
NMSTR	57	96	2
NMSI_	57	96	2	96	48	7
NMSTR	57	192	3
NMSI_	57	192	3	96	48	6
NMTAP	57	288	2
NMTAP	58	0	1
NMTAP	58	0	7
NMHLD	58	48	1	96
NMHLD	58	48	7	96
NMTAP	58	240	0
NMTAP	58	240	6
NMSTR	58	288	0
NMSXL	58	288	0	96	192	3
NMSTR	58	288	6
NMSXR	58	288	6	96	192	3
EXTAP	59	240	2
EXTAP	59	240	4
EXTAP	59	288	2
EXTAP	59	288	4
NMSTR	60	0	1
NMSI_	60	0	1	96	48	6
NMSTR	60	0	5
NMSI_	60	0	5	96	48	2
NMTAP	60	96	1
NMTAP	60	96	5
EXTAP	60	192	0
EXTAP	60	192	4
EXTAP	60	288	2
EXTAP	60	288	6
NMTAP	61	0	1
NMTAP	61	48	1
NMTAP	61	96	0
NMTAP	61	144	2
NMTAP	61	192	5
NMTAP	61	240	5
NMTAP	61	288	4
NMTAP	61	336	6
NMTAP	62	0	4
NMTAP	62	0	6
NMTAP	62	64	3
NMTAP	62	64	4
NMTAP	62	128	1
NMTAP	62	128	3
NMTAP	62	192	0
NMTAP	62	192	7
BRTAP	62	288	3
BRSTR	62	288	5
NMSI_	62	288	5	96	48	0
NMSTR	63	0	4
NMSI_	63	0	4	96	48	1
NMSTR	63	96	5
NMSI_	63	96	5	96	48	0
NMSTR	63	192	4
NMSI_	63	192	4	96	48	1
NMTAP	63	288	5
NMHLD	64	0	0	96
NMSTR	64	0	6
NMSCL	64	0	6	96	48	3
NMTAP	64	192	1
NMTAP	64	192	4
NMTAP	64	240	1
NMTAP	64	240	4
NMSTR	64	288	2
NMSI_	64	288	2	96	48	7
NMSTR	65	0	3
NMSI_	65	0	3	96	48	6
NMSTR	65	96	2
NMSI_	65	96	2	96	48	7
NMSTR	65	192	3
NMSI_	65	192	3	96	48	6
NMTAP	65	288	2
NMTAP	66	0	1
NMTAP	66	0	7
NMHLD	66	48	1	96
NMHLD	66	48	7	96
NMTAP	66	240	2
NMTAP	66	240	6
BRTAP	66	288	2
BRTAP	66	288	6
NMSTR	67	0	4
NMSCL	67	0	4	96	96	0
NMTAP	67	0	5
NMSTR	67	192	3
NMSCR	67	192	3	96	96	7
NMHLD	68	0	2	96
NMHLD	68	96	0	96
NMHLD	68	192	7	96
NMHLD	68	288	5	96
NMTAP	69	0	4
NMTAP	69	48	4
NMTAP	69	96	3
NMTAP	69	96	6
NMTAP	69	192	1
NMTAP	69	192	4
NMTAP	69	240	1
NMTAP	69	240	4
NMTTP	69	336	0	C	1	M1
NMTTP	69	336	0	E	0	M1
NMTTP	69	336	2	B	0	M1
NMTTP	69	336	3	B	0	M1
NMTTP	69	336	4	E	0	M1
NMTTP	69	336	6	B	0	M1
NMTTP	69	336	7	B	0	M1
EXTAP	70	96	0
EXTAP	70	144	0
NMTAP	70	192	1
NMTAP	70	192	7
BRTAP	70	288	2
BRTAP	70	288	6
NMTAP	71	0	1
EXTAP	71	32	3
EXTAP	71	64	2
NMTAP	71	96	6
EXTAP	71	128	4
EXTAP	71	160	5
NMTAP	71	192	1
EXTAP	71	224	3
EXTAP	71	256	2
NMTAP	71	288	6
EXTAP	71	320	4
EXTAP	71	352	5
NMTAP	72	0	1
EXTAP	72	32	3
EXTAP	72	64	2
NMTAP	72	96	6
EXTAP	72	128	4
EXTAP	72	160	5
NMTAP	72	192	2
EXTAP	72	224	3
EXTAP	72	256	1
NMTAP	72	288	5
EXTAP	72	320	4
EXTAP	72	352	6
NMTAP	73	0	0
NMTAP	73	48	0
NMTAP	73	96	1
NMTAP	73	96	7
NMTAP	73	144	1
NMTAP	73	144	7
NMTAP	73	192	6
NMTAP	73	240	6
NMTAP	73	288	3
NMSTR	73	288	5
NMSXR	73	288	5	96	192	2
BRTAP	74	0	2
BRTAP	74	96	0
BRTAP	74	192	7
EXTAP	74	336	0
EXTAP	74	336	4
EXHLD	75	0	0	576
EXHLD	75	0	4	96
NMTAP	75	192	3
NMTAP	75	288	3
NMTAP	76	0	3
NMTAP	76	96	3
NMSTR	76	192	3
NMSI_	76	192	3	96	48	7
NMSTR	76	288	1
NMSI_	76	288	1	96	48	5
NMTAP	76	288	3
NMTAP	77	0	1
NMHLD	77	0	6	576
NMTAP	77	192	4
NMTAP	77	288	4
NMTAP	78	0	4
NMTAP	78	96	4
NMTAP	78	192	4
NMTAP	78	240	3
NMTAP	78	240	7
BRTAP	78	288	3
BRTAP	78	288	7
NMSTR	79	0	1
NMSI_	79	0	1	96	48	3
NMTAP	79	48	1
NMSTR	79	96	6
NMSI_	79	96	6	96	48	4
NMTAP	79	144	6
NMSTR	79	192	0
NMSI_	79	192	0	96	48	2
NMTAP	79	240	0
NMSTR	79	288	7
NMSI_	79	288	7	96	48	5
NMTAP	79	336	7
NMTAP	80	0	3
NMTAP	80	48	3
NMTAP	80	96	2
NMTAP	80	96	4
NMSTR	80	192	1
NMSI_	80	192	1	96	48	6
NMSTR	80	192	5
NMSI_	80	192	5	96	48	2
BRTAP	80	288	1
BRTAP	80	288	5
EXTAP	81	0	0
NMSTR	81	96	7
NMSF_	81	96	7	96	48	3
NMTAP	81	144	7
NMTAP	81	336	1
NMTAP	81	336	3
NMTAP	82	0	1
NMTAP	82	0	3
NMSTR	82	96	4
NMSI_	82	96	4	96	48	0
NMTAP	82	96	6
EXTAP	82	192	4
NMSTR	83	0	6
NMSI_	83	0	6	96	48	4
NMTAP	83	0	7
NMTAP	83	96	6
NMTAP	83	96	7
NMTAP	83	192	0
NMSTR	83	192	1
NMSI_	83	192	1	96	48	3
NMTAP	83	288	0
NMTAP	83	288	1
NMSTR	84	0	6
NMSI_	84	0	6	96	48	4
NMTAP	84	0	7
NMTAP	84	96	6
NMTAP	84	96	7
NMTAP	84	192	0
NMSTR	84	192	1
NMSI_	84	192	1	96	48	3
NMTAP	84	288	0
NMTAP	84	288	1
NMTAP	85	0	6
NMTAP	85	48	6
NMTAP	85	96	5
NMTAP	85	96	7
NMTAP	85	192	1
NMTAP	85	240	1
NMTAP	85	288	0
NMTAP	85	288	2
NMSTR	86	0	6
NMSCL	86	0	6	96	96	2
NMSTR	86	96	2
NMSCR	86	96	2	96	96	6
NMTAP	86	192	1
NMTAP	86	288	0
NMTAP	87	0	0
NMTAP	87	0	6
NMTAP	87	96	0
NMTAP	87	96	6
NMTAP	87	192	1
NMTAP	87	192	5
NMTAP	87	288	2
NMSTR	87	288	4
BRSI_	87	288	4	96	48	6
NMSTR	88	0	4
BRSI_	88	0	4	96	48	7
NMSTR	88	96	4
BRSI_	88	96	4	96	48	0
NMSTR	88	192	4
BRSI_	88	192	4	96	48	1
NMTAP	88	288	4
NMTAP	89	0	7
NMTAP	89	96	7
NMTAP	89	192	0
NMTAP	89	192	6
NMTAP	89	288	0
NMTAP	89	288	6
NMTAP	90	0	1
NMTAP	90	0	5
NMTAP	90	48	1
NMTAP	90	48	5
NMTAP	90	96	1
NMTAP	90	96	5
NMTAP	90	144	1
NMTAP	90	144	5
NMTAP	90	192	2
NMTAP	90	216	4
NMTAP	90	240	2
NMTAP	90	264	4
NMTAP	90	288	2
BRSTR	91	0	1
NMSI_	91	0	1	96	48	7
NMTAP	91	96	4
NMSTR	91	144	5
NMSCR	91	144	5	96	48	0
NMTAP	91	240	2
NMTAP	91	288	2
NMSTR	92	0	3
BRSF_	92	0	3	96	96	7
EXSTR	92	288	0
NMSI_	92	288	0	96	288	4
EXTAP	92	288	6
NMTAP	93	0	5
NMTAP	93	96	5
NMTAP	93	192	5
NMTAP	93	288	5
NMTAP	94	0	5
NMTAP	94	96	5
NMTAP	94	192	5
NMSTR	94	288	4
NMSCL	94	288	4	96	288	0
NMTAP	94	288	5
NMTAP	95	0	5
NMTAP	95	96	5
NMTAP	95	192	5
NMTAP	95	288	5
NMTAP	96	0	5
NMTAP	96	96	5
NMTAP	96	192	5
NMTAP	96	288	2
NMTAP	96	288	4
NMHLD	97	0	1	192
NMTAP	97	0	3
NMTAP	97	96	3
NMTAP	97	192	3
BRTAP	97	288	0
BRTAP	97	288	7
NMTAP	98	0	4
NMHLD	98	0	6	192
NMTAP	98	96	4
NMTAP	98	192	4
BRTAP	98	288	0
BRTAP	98	288	7
NMTAP	99	0	1
NMTAP	99	0	3
NMTAP	99	96	6
NMTAP	99	144	5
NMTAP	99	144	7
NMTAP	99	240	1
NMTAP	99	288	0
NMTAP	99	288	2
EXTAP	100	0	0
EXTAP	100	0	2
NMTAP	100	64	1
NMTAP	100	64	3
NMTAP	100	128	2
NMTAP	100	128	4
NMTAP	100	192	3
NMTAP	100	192	5
EXTAP	100	288	2
EXTAP	100	288	6
NMSTR	101	0	1
NMSI_	101	0	1	96	48	4
NMSTR	101	0	7
NMSI_	101	0	7	96	48	3
EXTAP	101	96	1
EXTAP	101	96	7
NMTAP	101	192	1
NMTAP	101	192	5
NMTAP	101	288	7
NMTAP	101	336	7
NMTAP	102	0	0
NMTAP	102	0	6
NMTAP	102	96	2
NMTAP	102	144	2
NMSTR	102	192	2
NMSI_	102	192	2	96	48	7
NMSTR	102	192	3
NMSI_	102	192	3	96	48	6
NMHLD	103	0	0	72
NMHLD	103	72	1	72
NMTAP	103	144	2
BXHLD	103	192	7	72
BXHLD	103	264	6	72
BXTAP	103	336	5
NMTAP	104	0	4
NMSTR	104	96	3
NMSCL	104	96	3	96	48	0
NMSTR	104	96	6
NMSCL	104	96	6	96	48	3
BRTAP	104	192	3
BRTAP	104	192	6
NMSTR	105	0	0
NMSI_	105	0	0	96	48	4
NMSTR	105	0	1
NMSI_	105	0	1	96	48	4
EXTAP	105	96	0
EXTAP	105	96	1
NMSTR	105	192	6
NMSI_	105	192	6	96	48	3
NMSTR	105	192	7
NMSI_	105	192	7	96	48	3
EXTAP	105	288	6
EXTAP	105	288	7
NMSTR	106	0	0
NMSI_	106	0	0	96	48	4
NMSTR	106	0	7
NMSI_	106	0	7	96	48	5
NMSTR	106	96	0
NMSI_	106	96	0	96	48	2
NMSTR	106	96	7
NMSI_	106	96	7	96	48	3
EXTAP	106	192	0
EXTAP	106	192	7
NMTAP	106	288	4
NMTAP	106	288	5
NMSTR	107	0	6
NMSCR	107	0	6	96	96	2
NMSTR	107	96	2
NMSCR	107	96	2	96	96	6
NMSTR	107	192	6
NMSCR	107	192	6	96	96	2
NMSTR	107	288	2
NMSCR	107	288	2	96	96	6
NMTAP	108	0	6
NMTAP	108	96	2
BRTAP	108	192	1
BRTAP	108	192	5
NMTAP	108	288	2
NMSTR	108	288	6
NMSI_	108	288	6	96	48	0
NMSTR	109	0	4
NMSI_	109	0	4	96	48	1
NMTAP	109	48	4
NMSTR	109	96	5
NMSI_	109	96	5	96	48	0
NMTAP	109	144	5
NMSTR	109	192	4
NMSI_	109	192	4	96	48	1
NMTAP	109	240	4
NMSTR	109	288	5
NMSI_	109	288	5	96	48	0
NMTAP	109	336	5
NMTAP	110	0	2
NMTAP	110	48	2
NMTAP	110	144	3
NMTAP	110	144	6
NMTAP	110	240	1
NMTAP	110	240	4
NMSTR	110	288	1
NMSI_	110	288	1	96	48	7
NMTAP	110	288	4
NMSTR	111	0	3
NMSI_	111	0	3	96	48	6
NMTAP	111	48	3
NMSTR	111	96	2
NMSI_	111	96	2	96	48	7
NMTAP	111	144	2
NMSTR	111	192	3
NMSI_	111	192	3	96	48	6
NMTAP	111	240	3
NMSTR	111	288	2
NMSI_	111	288	2	96	48	7
NMTAP	111	336	2
NMTAP	112	0	5
NMTAP	112	48	5
NMTAP	112	144	1
NMTAP	112	144	4
NMTAP	112	240	3
NMTAP	112	240	6
NMTAP	112	288	3
NMTAP	112	288	6
NMHLD	113	0	1	96
NMTAP	113	96	3
NMTAP	113	144	3
NMTAP	113	240	0
NMTAP	113	240	1
NMTAP	113	288	0
NMTAP	113	288	1
NMHLD	114	0	6	96
NMTAP	114	96	7
NMTAP	114	144	7
NMTAP	114	240	4
NMTAP	114	240	5
NMTAP	114	288	4
NMTAP	114	288	5
NMSTR	115	0	4
NMSCL	115	0	4	96	48	1
NMSTR	115	0	5
NMSCR	115	0	5	96	48	0
NMSTR	115	192	2
NMSCL	115	192	2	96	48	7
NMSTR	115	192	3
NMSCR	115	192	3	96	48	6
BRTAP	116	0	4
BRTAP	116	0	5
BRTAP	116	64	6
BRTAP	116	64	7
BRTAP	116	128	0
BRTAP	116	128	1
BRTAP	116	192	2
BRTAP	116	192	3
BRTAP	116	288	3
BRSTR	116	288	6
NMSI_	116	288	6	96	48	0
NMSTR	117	0	4
NMSI_	117	0	4	96	48	1
NMTAP	117	48	4
NMSTR	117	96	5
NMSI_	117	96	5	96	48	0
NMTAP	117	144	5
NMSTR	117	192	4
NMSI_	117	192	4	96	48	1
NMTAP	117	240	4
NMSTR	117	288	5
NMSI_	117	288	5	96	48	0
NMTAP	117	336	5
NMTAP	118	0	2
NMTAP	118	48	2
NMTAP	118	144	3
NMTAP	118	144	6
NMTAP	118	240	1
NMTAP	118	240	4
NMSTR	118	288	1
NMSI_	118	288	1	96	48	7
NMTAP	118	288	4
NMSTR	119	0	3
NMSI_	119	0	3	96	48	6
NMTAP	119	48	3
NMSTR	119	96	2
NMSI_	119	96	2	96	48	7
NMTAP	119	144	2
NMSTR	119	192	3
NMSI_	119	192	3	96	48	6
NMTAP	119	240	3
NMSTR	119	288	2
NMSI_	119	288	2	96	48	7
NMTAP	119	336	2
NMTAP	120	0	5
NMTAP	120	48	5
BRTAP	120	144	0
BRTAP	120	144	6
BRTAP	120	192	0
BRTAP	120	192	6
NMTAP	120	288	2
NMSTR	120	288	3
NMSCR	120	288	3	96	96	7
BRTAP	121	0	2
NMSTR	121	96	4
NMSCL	121	96	4	96	96	0
BRTAP	121	192	5
NMSTR	121	288	3
NMSCR	121	288	3	96	96	7
BRTAP	122	0	2
NMSTR	122	96	4
NMSCL	122	96	4	96	96	0
BRTAP	122	192	5
NMTAP	122	288	3
NMTAP	123	0	2
NMTAP	123	96	1
NMTAP	123	96	4
NMTAP	123	192	6
NMTAP	123	240	6
NMTAP	123	288	5
NMTAP	123	288	7
NMTAP	123	336	5
NMTAP	123	336	7
NMTAP	124	48	0
NMTAP	124	48	2
NMTAP	124	96	0
NMTAP	124	96	2
NMTAP	124	192	3
NMTAP	124	192	5
BRTAP	124	288	2
BRTAP	124	288	6
NMTAP	125	0	3
NMTAP	125	96	2
NMTAP	125	96	4
NMTAP	125	192	4
NMTAP	125	192	5
NMTAP	125	240	4
NMTAP	125	240	5
NMTTP	125	336	0	C	1	M1
NMTTP	125	336	0	E	0	M1
NMTTP	125	336	2	B	0	M1
NMTTP	125	336	3	B	0	M1
NMTTP	125	336	4	E	0	M1
NMTTP	125	336	6	B	0	M1
NMTTP	125	336	7	B	0	M1
EXTAP	126	48	0
EXTAP	126	96	0
NMTAP	126	192	1
NMTAP	126	192	5
BRTAP	126	288	2
BRTAP	126	288	6

T_REC_TAP	422
T_REC_BRK	62
T_REC_XTP	102
T_REC_BXX	3
T_REC_HLD	39
T_REC_XHO	6
T_REC_BHO	0
T_REC_BXH	2
T_REC_STR	151
T_REC_BST	4
T_REC_XST	4
T_REC_XBS	0
T_REC_TTP	27
T_REC_THO	1
T_REC_SLD	149
T_REC_BSL	11
T_REC_ALL	983
T_NUM_TAP	706
T_NUM_BRK	82
T_NUM_HLD	46
T_NUM_SLD	149
T_NUM_ALL	983
T_JUDGE_TAP	775
T_JUDGE_HLD	114
T_JUDGE_SLD	160
T_JUDGE_ALL	1049
TTM_EACHPAIRS	219
TTM_SCR_TAP	353000
TTM_SCR_BRK	213200
TTM_SCR_HLD	46000
TTM_SCR_SLD	223500
TTM_SCR_ALL	835700
TTM_SCR_S	802700
TTM_SCR_SS	827500
TTM_RAT_ACV	10099

