VERSION	0.00.00	1.05.00
FES_MODE	0
BPM_DEF	198.000	198.000	198.000	198.000
MET_DEF	4	4
RESOLUTION	384
CLK_DEF	384
COMPATIBLE_CODE	MA2

BPM	0	0	198.000
MET	0	0	4	4

EXTAP	1	0	2
EXTAP	1	0	4
EXHLD	1	192	1	96
EXTAP	1	288	3
EXTAP	1	336	3
EXTAP	2	48	2
EXTAP	2	48	4
EXTAP	2	144	3
EXTAP	2	144	5
NMTAP	2	240	6
NMHLD	2	288	6	96
NMTAP	3	0	4
NMTAP	3	96	3
NMTAP	3	192	2
NMTAP	3	192	4
NMTAP	3	288	1
NMHLD	3	336	1	96
NMTAP	4	48	7
NMTAP	4	96	7
NMTAP	4	192	2
NMTAP	4	192	6
BXTAP	4	288	2
BXTAP	4	288	6
NMHLD	5	0	1	288
NMTAP	5	96	0
NMTAP	5	192	7
NMTAP	5	288	0
NMHLD	6	0	6	288
NMTAP	6	96	7
NMTAP	6	192	0
NMTAP	6	288	7
NMTAP	7	0	1
NMTAP	7	96	0
NMTAP	7	96	1
NMTAP	7	192	6
NMTAP	7	288	6
NMTAP	7	288	7
NMTAP	8	0	0
NMTAP	8	0	5
NMTAP	8	96	1
NMTAP	8	96	6
BXTAP	8	192	2
BXTAP	8	192	7
NMHLD	9	0	6	288
NMTAP	9	96	4
NMTAP	9	192	3
NMTAP	9	288	4
NMHLD	10	0	1	288
NMTAP	10	96	3
NMTAP	10	192	4
NMTAP	10	288	3
NMTAP	11	0	5
NMTAP	11	96	4
NMTAP	11	96	6
NMTAP	11	192	2
NMTAP	11	288	1
NMTAP	11	288	3
NMTAP	12	0	0
NMTAP	12	0	4
NMTAP	12	96	1
NMTAP	12	96	5
BXTAP	12	192	2
BXTAP	12	192	6
NMTAP	13	0	5
NMTAP	13	96	5
NMTAP	13	192	4
NMTAP	13	192	6
NMTAP	13	288	4
NMTAP	13	288	6
NMTTP	14	0	5	E	0	M1
NMTTP	14	96	6	E	0	M1
NMTTP	14	192	7	E	0	M1
NMTAP	15	0	7
NMTAP	15	96	7
NMTAP	15	192	0
NMTAP	15	192	6
NMTAP	15	288	0
NMTAP	15	288	6
NMTAP	16	0	2
NMTAP	16	0	4
NMTAP	16	96	2
NMTAP	16	96	4
NMTAP	16	192	1
NMTAP	16	192	5
NMTAP	17	0	2
NMTAP	17	96	2
NMTAP	17	192	1
NMTAP	17	192	3
NMTAP	17	288	1
NMTAP	17	288	3
NMTTP	18	0	3	E	0	M1
NMTTP	18	96	2	E	0	M1
NMTTP	18	192	1	E	0	M1
NMTAP	19	0	0
NMTAP	19	96	0
NMTAP	19	192	1
NMTAP	19	192	7
NMTAP	19	288	1
NMTAP	19	288	7
NMTAP	20	0	3
NMTAP	20	0	5
NMTAP	20	96	3
NMTAP	20	96	5
BXTAP	20	192	2
BXTAP	20	192	6
NMTAP	21	0	3
NMTAP	21	0	4
NMTAP	21	96	2
NMTAP	21	144	2
NMTAP	21	192	3
NMTAP	21	288	4
NMSTR	22	0	5
NMSI_	22	0	5	96	96	7
NMTAP	22	288	0
NMTAP	23	0	1
NMTAP	23	96	2
NMTAP	23	144	2
NMTAP	23	192	3
NMTAP	23	288	4
NMTAP	23	288	5
NMSTR	24	0	6
NMSI_	24	0	6	96	96	2
NMTAP	24	288	1
NMTAP	25	0	0
NMTAP	25	0	1
NMTAP	25	96	6
NMTAP	25	144	6
NMTAP	25	192	7
NMTAP	25	288	4
NMTAP	25	288	5
NMTAP	26	0	2
NMTAP	26	0	3
NMTAP	26	96	1
NMTAP	26	144	1
NMTAP	26	192	3
EXTAP	26	240	3
EXTAP	26	288	2
NMTTP	27	0	5	B	0	M1
NMTTP	27	0	5	E	0	M1
NMTTP	27	96	7	B	0	M1
NMTTP	27	96	7	E	0	M1
NMTTP	27	192	1	B	0	M1
NMTTP	27	192	1	E	0	M1
NMTTP	27	288	3	B	0	M1
NMTTP	27	288	3	E	0	M1
NMTAP	28	0	4
NMTAP	28	0	5
NMTAP	28	96	4
NMTAP	28	96	5
NMTAP	28	192	3
NMTAP	28	192	6
NMTAP	29	0	2
NMSTR	29	96	2
NMSCR	29	96	2	96	144	5
NMTAP	30	0	6
NMHLD	30	96	6	96
NMTTP	30	192	4	E	0	M1
NMTAP	31	0	5
NMSTR	31	96	5
NMSCL	31	96	5	96	144	2
NMTAP	32	0	1
NMHLD	32	96	1	96
NMTTP	32	192	4	E	0	M1
NMTAP	33	0	0
NMTAP	33	96	0
NMTAP	33	192	1
NMTAP	33	192	7
NMTAP	33	288	1
NMTAP	33	288	7
NMTAP	34	0	5
NMTAP	34	96	5
NMTAP	34	192	4
NMTAP	34	192	6
NMTAP	34	288	4
NMTAP	34	288	6
NMTAP	35	0	3
NMTAP	35	96	3
NMTAP	35	192	2
NMTAP	35	192	4
NMSTR	35	288	2
NMSXL	35	288	2	96	288	3
NMSLL	35	288	2	96	288	3
NMTAP	35	288	4
EXHLD	37	0	2	96
EXHLD	37	0	4	96
EXHLD	37	192	3	96
EXHLD	37	192	5	96
NMTAP	38	0	3
NMTAP	38	0	4
NMSTR	38	96	3
NMSI_	38	96	3	96	96	0
NMSTR	38	96	4
NMSI_	38	96	4	96	96	7
BXTAP	39	0	0
BXTAP	39	0	1
BXTAP	39	96	6
BXTAP	39	96	7
BXTAP	39	192	1
BXTAP	39	192	5
NMHLD	40	0	1	96
NMHLD	40	96	3	96
NMHLD	40	192	4	96
NMTAP	40	288	6
BXTAP	41	0	6
BXTAP	41	0	7
BXTAP	41	96	0
BXTAP	41	96	1
BXTAP	41	192	2
BXTAP	41	192	6
NMHLD	42	0	6	96
NMHLD	42	96	4	96
NMHLD	42	192	3	96
NMTAP	42	288	1
NMSTR	43	0	0
NMSI_	43	0	0	96	96	5
NMSTR	43	0	1
NMSI_	43	0	1	96	96	4
EXTAP	43	288	6
EXTAP	43	288	7
NMSTR	44	0	6
NMSI_	44	0	6	96	96	3
NMSTR	44	0	7
NMSI_	44	0	7	96	96	2
EXTAP	44	288	0
EXTAP	44	288	1
NMTAP	45	0	0
NMTAP	45	0	1
NMTAP	45	96	2
NMTAP	45	96	3
NMTAP	45	192	4
NMTAP	45	192	5
NMTAP	45	288	6
NMTAP	45	288	7
NMTAP	46	0	1
NMTAP	46	48	1
NMTAP	46	96	0
NMTAP	46	192	2
NMTAP	46	192	7
NMTAP	46	288	2
NMTAP	46	288	7
BXTAP	47	0	0
BXTAP	47	0	1
BXTAP	47	96	6
BXTAP	47	96	7
BXTAP	47	192	1
BXTAP	47	192	5
NMHLD	48	0	2	96
NMHLD	48	96	0	96
NMHLD	48	192	7	96
NMTAP	48	288	5
NMSTR	49	0	6
NMSCL	49	0	6	96	96	3
NMSTR	49	192	2
NMSCL	49	192	2	96	96	7
NMTAP	50	0	6
NMTAP	50	96	7
NMTAP	50	192	0
NMTAP	50	192	5
NMHLD	51	0	1	96
NMTAP	51	96	3
NMHLD	51	192	6	96
NMSTR	51	288	4
NMSXL	51	288	4	96	288	4
NMSXR	51	288	4	96	288	4
EXTAP	53	0	2
EXTAP	53	0	3
NMTAP	53	96	0
NMTAP	53	96	1
NMTAP	53	192	6
NMTAP	53	192	7
NMTAP	53	288	4
NMTAP	53	288	5
NMTAP	54	0	2
NMTAP	54	0	3
NMTAP	54	96	2
NMTAP	54	96	3
BRTAP	54	192	1
BRTAP	54	192	4
NMTAP	55	0	6
NMTAP	55	48	6
NMTAP	55	96	0
NMTAP	55	144	0
NMTAP	55	192	7
NMTAP	55	240	7
NMTAP	55	288	1
EXTAP	56	0	4
EXTAP	56	0	6
EXTAP	56	48	4
EXTAP	56	48	6
NMHLD	56	144	1	144
NMHLD	56	144	3	144
NMTAP	57	0	2
NMTAP	57	48	2
NMTAP	57	96	4
NMTAP	57	144	4
NMTAP	57	192	3
NMTAP	57	240	3
NMTAP	57	288	5
EXTAP	58	0	4
EXTAP	58	0	6
EXTAP	58	48	4
EXTAP	58	48	6
BRHLD	58	144	1	144
BRHLD	58	144	3	144
NMSTR	59	0	2
NMSLL	59	0	2	96	192	6
NMTAP	59	288	5
NMTAP	60	0	4
NMSTR	60	0	5
NMSLR	60	0	5	96	192	1
NMTAP	60	288	2
NMTAP	61	0	2
NMTAP	61	96	0
NMTAP	61	96	1
NMTAP	61	192	5
NMSTR	61	288	6
NMSXR	61	288	6	96	240	3
NMTAP	61	288	7
BRTAP	62	288	0
NMTAP	63	0	1
NMTAP	63	48	1
NMTAP	63	96	7
NMTAP	63	144	7
NMTAP	63	192	0
NMTAP	63	240	0
NMTAP	63	288	6
EXTAP	64	0	1
EXTAP	64	0	3
EXTAP	64	48	1
EXTAP	64	48	3
NMHLD	64	144	4	144
NMHLD	64	144	6	144
NMTAP	65	0	5
NMTAP	65	48	5
NMTAP	65	96	3
NMTAP	65	144	3
NMTAP	65	192	4
NMTAP	65	240	4
NMTAP	65	288	2
EXTAP	66	0	1
EXTAP	66	0	3
EXTAP	66	48	1
EXTAP	66	48	3
NMHLD	66	144	0	144
NMHLD	66	144	6	144
NMHLD	67	0	1	96
NMTAP	67	96	3
NMHLD	67	192	6	96
NMTAP	67	288	4
NMTAP	68	0	2
NMTAP	68	96	1
NMTAP	68	96	4
NMTAP	68	192	3
NMTAP	68	192	6
NMTAP	68	288	4
NMTAP	68	288	5
NMSTR	69	0	6
NMSCL	69	0	6	96	96	3
NMHLD	69	192	1	96
NMTAP	69	288	0
NMTAP	69	336	0
NMTAP	70	48	7
NMTAP	70	96	7
BRTAP	70	192	2
BRTAP	70	192	6
BRTAP	70	288	1
BRTAP	70	288	5
NMTAP	71	0	2
NMTAP	71	96	0
NMTAP	71	96	1
NMTAP	71	192	0
NMTAP	71	192	7
NMTAP	71	288	6
NMTAP	71	288	7
NMTAP	72	0	5
NMTAP	72	96	6
NMTAP	72	96	7
NMTAP	72	192	0
NMTAP	72	192	7
NMTAP	72	288	0
NMTAP	72	288	1
NMHLD	73	0	2	96
NMTAP	73	96	0
NMHLD	73	192	5	96
NMTAP	73	288	7
NMTAP	74	0	0
NMTAP	74	0	6
NMTAP	74	96	1
NMTAP	74	96	5
BRTAP	74	192	2
BRTAP	74	192	4
NMHLD	75	0	3	96
NMHLD	75	0	5	96
NMTAP	75	192	6
NMTAP	75	288	5
NMSTR	76	0	4
NMSF_	76	0	4	96	96	0
NMHLD	77	0	1	96
NMHLD	77	0	3	96
NMTAP	77	192	2
NMTAP	77	288	4
NMSTR	78	0	3
NMSCL	78	0	3	96	48	2
CNSI_	78	144	2	0	96	4
CNSCR	78	240	4	0	48	5
NMTAP	79	0	6
NMTAP	79	96	6
NMTTP	79	192	5	E	0	M1
NMTTP	79	288	4	E	0	M1
NMTAP	80	0	1
NMTAP	80	96	1
BRTAP	80	192	2
BRTAP	80	192	4
BRTAP	80	288	2
BRTAP	80	288	4
NMTAP	81	0	5
NMTAP	81	96	5
NMTTP	81	192	6	E	0	M1
NMTTP	81	288	7	E	0	M1
NMTTP	82	0	1	E	0	M1
NMTTP	82	96	2	E	0	M1
NMTTP	82	192	3	E	0	M1
NMTAP	83	0	2
NMTAP	83	96	2
NMTAP	83	192	0
NMTAP	83	192	1
NMTAP	83	288	0
NMTAP	83	288	1
NMTAP	84	0	5
NMTAP	84	96	5
NMTAP	84	192	6
NMTAP	84	192	7
NMTAP	84	288	6
NMTAP	84	288	7
NMHLD	85	0	0	96
NMHLD	85	0	1	96
NMHLD	85	192	2	96
NMHLD	85	192	3	96
NMTAP	86	0	4
NMTAP	86	96	5
NMTAP	86	192	4
NMTAP	86	192	6
NMTAP	87	0	7
NMTAP	87	96	7
NMTAP	87	192	4
NMTAP	87	192	6
NMTAP	87	288	4
NMTAP	87	288	6
NMTAP	88	0	0
NMTAP	88	96	0
NMTAP	88	192	1
NMTAP	88	192	3
NMTAP	88	288	1
NMTAP	88	288	3
NMTAP	89	0	2
NMTAP	89	96	0
NMTAP	89	192	7
NMTAP	89	288	5
NMSTR	90	0	3
NMSCL	90	0	3	96	192	0
NMSTR	90	0	4
NMSCR	90	0	4	96	192	7
EXHLD	91	0	1	96
EXTAP	91	96	0
EXHLD	91	192	6	96
EXTAP	91	288	7
NMTAP	92	0	0
NMTAP	92	0	7
NMTAP	92	96	1
NMTAP	92	96	6
BRTAP	92	144	1
BRTAP	92	144	6
NMHLD	93	0	2	192
NMHLD	93	192	3	384
NMTTP	94	0	2	E	0	M1
NMTTP	94	96	3	E	0	M1
NMTTP	94	192	4	E	0	M1
NMHLD	95	0	5	192
NMHLD	95	192	4	384
NMTTP	96	0	6	E	0	M1
NMTTP	96	96	5	E	0	M1
NMTTP	96	192	4	E	0	M1
NMHLD	97	0	2	192
NMTTP	97	192	3	B	0	M1
NMTTP	97	192	4	E	0	M1
NMHLD	98	0	5	192
NMTTP	98	192	4	B	0	M1
NMTTP	98	192	4	E	0	M1
NMTAP	99	0	2
NMTAP	99	96	1
NMTAP	99	96	3
NMTAP	99	192	0
NMTAP	99	192	4
NMSTR	99	288	0
NMSLR	99	288	0	96	192	7
NMSTR	99	288	4
NMSLR	99	288	4	96	192	3
BRTAP	101	0	0
BRTAP	101	0	2
BRTAP	101	96	5
BRTAP	101	96	7
BRTAP	101	192	0
BRTAP	101	192	4
NMTAP	101	336	1
NMHLD	102	0	1	96
NMTAP	102	96	3
NMTAP	102	192	6
NMTAP	102	240	6
NMTAP	102	288	4
NMSTR	103	0	6
NMSI_	103	0	6	96	48	3
NMSTR	103	0	7
NMSI_	103	0	7	96	48	3
NMSTR	103	192	0
NMSI_	103	192	0	96	48	4
NMSTR	103	192	1
NMSI_	103	192	1	96	48	4
NMSTR	104	0	6
NMSCL	104	0	6	96	192	1
NMSTR	104	0	7
NMSUL	104	0	7	96	192	0
NMTAP	105	0	6
NMTAP	105	96	2
NMTAP	105	96	7
NMTAP	105	192	1
NMTAP	105	288	0
NMTAP	105	288	6
NMTAP	106	0	1
NMTAP	106	0	7
NMTAP	106	96	3
NMTAP	106	96	5
BRTAP	106	192	2
BRTAP	106	192	6
NMTAP	107	0	4
NMTAP	107	0	5
NMTAP	107	96	2
NMTAP	107	96	3
NMTAP	107	144	2
NMTAP	107	144	3
NMSTR	107	240	0
NMSXR	107	240	0	96	240	5
NMSTR	107	240	1
NMSXL	107	240	1	96	240	4
NMTAP	108	288	3
NMTAP	108	288	6
NMTAP	109	0	2
NMTAP	109	48	2
NMTAP	109	96	7
NMTAP	109	144	7
NMTAP	109	192	0
NMTAP	109	240	0
NMTAP	109	288	5
NMTAP	110	0	6
NMTAP	110	0	7
NMTAP	110	48	6
NMTAP	110	48	7
NMTAP	110	144	4
NMTAP	110	144	5
NMTAP	110	240	2
NMTAP	110	240	3
NMTAP	110	288	2
NMTAP	110	288	3
NMTAP	111	0	1
NMTAP	111	48	1
NMTAP	111	96	4
NMTAP	111	144	4
NMTAP	111	192	3
NMTAP	111	240	3
NMTAP	111	288	6
NMTAP	112	0	4
NMTAP	112	0	5
NMTAP	112	48	4
NMTAP	112	48	5
NMTAP	112	144	2
NMTAP	112	144	6
NMTAP	112	240	1
NMTAP	112	240	7
NMTAP	112	288	1
NMTAP	112	288	7
NMHLD	113	0	2	96
NMTAP	113	96	3
NMHLD	113	192	5	96
NMTAP	113	288	4
NMHLD	114	0	1	96
NMTAP	114	96	0
NMHLD	114	192	6	96
NMTAP	114	288	7
NMTAP	115	0	6
NMTAP	115	0	7
NMTAP	115	96	4
NMTAP	115	96	5
NMTAP	115	192	2
NMTAP	115	192	3
NMSTR	115	288	0
NMSUR	115	288	0	96	192	5
NMSTR	115	288	1
NMSCR	115	288	1	96	192	4
NMTAP	116	288	2
NMTAP	116	288	6
NMTAP	117	0	1
NMTAP	117	48	1
NMTAP	117	96	3
NMTAP	117	144	2
NMTAP	117	192	5
NMTAP	117	240	5
NMTAP	117	288	4
NMTAP	117	288	6
NMTAP	118	0	7
NMTAP	118	48	7
NMTAP	118	144	0
NMTAP	118	144	6
NMTAP	118	240	1
NMTAP	118	240	5
NMTAP	118	288	1
NMTAP	118	288	5
NMTAP	119	0	6
NMTAP	119	48	6
NMTAP	119	96	4
NMTAP	119	144	5
NMTAP	119	192	2
NMTAP	119	240	2
NMTAP	119	288	1
NMTAP	119	288	3
NMTAP	120	0	3
NMTAP	120	0	5
NMTAP	120	48	3
NMTAP	120	48	5
BRHLD	120	144	1	144
BRHLD	120	144	7	144
NMTAP	121	0	0
NMTAP	121	0	1
NMTAP	121	96	2
NMTAP	121	192	6
NMTAP	121	192	7
NMTAP	121	288	5
NMTAP	122	0	0
NMTAP	122	0	2
NMTAP	122	96	2
NMTAP	122	96	3
NMTAP	122	192	5
NMTAP	122	192	7
NMTAP	122	288	4
NMTAP	122	288	5
NMTAP	123	0	6
NMTAP	123	48	6
NMTAP	123	96	4
NMTAP	123	192	2
NMTAP	123	192	3
NMTAP	123	288	1
NMHLD	123	336	1	96
NMTAP	124	48	3
NMTAP	124	96	3
NMTAP	124	192	4
NMTAP	124	192	5
BRSTR	124	288	6
NMSCL	124	288	6	96	192	3
BRSTR	124	288	7
NMSCR	124	288	7	96	192	2
NMTAP	125	288	1
NMTAP	125	288	3
NMTAP	126	0	1
NMTAP	126	0	3
NMTAP	126	96	4
NMTAP	126	96	6
NMTAP	126	192	0
NMTAP	126	192	7
NMTTP	126	288	0	C	1	M1
NMTTP	126	288	1	B	0	M1
NMTTP	126	288	1	A	0	M1
NMTTP	126	288	5	B	0	M1
NMTTP	126	288	5	A	0	M1

T_REC_TAP	413
T_REC_BRK	23
T_REC_XTP	34
T_REC_BXX	26
T_REC_HLD	50
T_REC_XHO	7
T_REC_BHO	4
T_REC_BXH	0
T_REC_STR	34
T_REC_BST	2
T_REC_XST	0
T_REC_XBS	0
T_REC_TTP	38
T_REC_THO	0
T_REC_SLD	38
T_REC_BSL	0
T_REC_ALL	669
T_NUM_TAP	519
T_NUM_BRK	55
T_NUM_HLD	57
T_NUM_SLD	38
T_NUM_ALL	669
T_JUDGE_TAP	570
T_JUDGE_HLD	168
T_JUDGE_SLD	38
T_JUDGE_ALL	776
TTM_EACHPAIRS	178
TTM_SCR_TAP	259500
TTM_SCR_BRK	143000
TTM_SCR_HLD	57000
TTM_SCR_SLD	57000
TTM_SCR_ALL	516500
TTM_SCR_S	495700
TTM_SCR_SS	511000
TTM_RAT_ACV	10107

