VERSION	0.00.00	1.05.00
FES_MODE	0
BPM_DEF	198.000	198.000	198.000	198.000
MET_DEF	4	4
RESOLUTION	384
CLK_DEF	384
COMPATIBLE_CODE	MA2

BPM	0	0	198.000
MET	0	0	4	4

NMTAP	5	0	2
NMTAP	5	96	2
NMTAP	5	192	2
NMTAP	6	0	1
NMTAP	6	96	1
NMTAP	6	192	1
NMTAP	7	0	0
NMTAP	7	96	0
NMTAP	7	192	0
NMTAP	8	0	6
NMTAP	8	0	7
NMTAP	8	192	6
NMTAP	8	192	7
NMTAP	9	0	5
NMTAP	9	96	5
NMTAP	9	192	5
NMTAP	10	0	6
NMTAP	10	96	6
NMTAP	10	192	6
NMTAP	11	0	7
NMTAP	11	96	7
NMTAP	11	192	7
BXTAP	12	0	0
BXTAP	12	0	1
NMTAP	13	0	7
NMTAP	13	96	7
NMTAP	13	192	6
NMTAP	14	0	5
NMTAP	14	96	5
NMTAP	14	192	4
NMTAP	15	0	3
NMTAP	15	96	3
NMTAP	15	192	2
NMTAP	16	0	0
NMTAP	16	0	1
NMTAP	16	192	0
NMTAP	16	192	1
NMTAP	17	0	0
NMTAP	17	96	0
NMTAP	17	192	1
NMTAP	18	0	2
NMTAP	18	96	2
NMTAP	18	192	3
NMTAP	19	0	4
NMTAP	19	96	4
NMTAP	19	192	5
NMTAP	20	0	6
NMTAP	20	0	7
NMTTP	21	0	6	B	0	L1
NMTTP	21	192	5	B	0	L1
NMTTP	22	0	4	B	0	L1
NMTTP	23	0	1	B	0	L1
NMTTP	23	192	2	B	0	L1
NMTTP	24	0	3	B	0	L1
NMTTP	25	0	6	B	0	L1
NMTTP	25	192	5	B	0	L1
NMTTP	26	0	4	B	0	L1
NMTTP	26	192	3	B	0	L1
NMTTP	27	0	2	B	0	L1
NMTTP	27	192	1	B	0	L1
NMTTP	28	0	0	C	1	L1
EXSTR	29	0	0
NMSI_	29	0	0	96	288	4
NMTAP	30	192	5
NMSTR	31	0	6
NMSI_	31	0	6	96	288	3
NMTAP	32	192	2
NMSTR	33	0	2
NMSI_	33	0	2	96	288	7
NMTAP	34	192	6
NMSTR	35	0	6
NMSUL	35	0	6	96	672	3
BXTAP	38	0	3
BXTAP	38	0	4
EXTAP	39	0	5
EXTAP	39	96	5
EXTAP	39	192	6
NMTAP	39	288	6
NMTAP	40	0	7
NMTAP	40	96	7
NMTAP	40	192	0
NMTAP	40	192	1
EXTAP	41	0	2
EXTAP	41	96	2
EXTAP	41	192	1
NMTAP	41	288	1
NMTAP	42	0	0
NMTAP	42	96	0
NMTAP	42	192	6
NMTAP	42	192	7
NMTAP	43	0	6
NMTAP	43	96	6
NMTAP	43	192	5
NMTAP	43	288	5
NMTAP	44	0	4
NMTAP	44	96	4
NMTAP	44	192	2
NMTAP	44	192	3
NMTAP	45	0	1
NMTAP	45	96	1
NMTAP	45	192	2
NMTAP	45	288	2
NMTAP	46	0	3
NMTAP	46	96	3
BXTAP	46	192	4
BXTAP	46	192	5
EXTAP	47	0	5
EXTAP	47	96	5
EXTAP	47	192	6
NMTAP	47	288	6
NMTAP	48	0	7
NMTAP	48	96	7
NMTAP	48	192	0
NMTAP	48	192	1
NMTAP	49	0	2
NMTAP	49	96	2
NMTAP	49	192	1
NMTAP	49	288	1
NMTAP	50	0	0
NMTAP	50	96	0
NMTAP	50	192	6
NMTAP	50	192	7
NMTAP	51	0	6
NMTAP	51	96	6
NMTAP	51	192	5
NMTAP	51	288	5
EXTAP	52	0	4
EXTAP	52	96	4
BXTAP	52	192	2
BXTAP	52	192	3
NMTAP	53	0	1
NMTAP	53	96	1
NMTAP	53	192	2
NMTAP	53	288	2
NMTAP	54	0	3
NMTAP	54	96	3
NMTAP	54	192	4
NMTAP	54	192	5
NMTAP	55	0	6
NMTAP	55	96	6
NMTAP	55	192	6
NMTAP	55	288	6
NMTAP	55	288	7
NMTAP	56	0	5
NMTAP	56	96	5
NMTAP	56	192	5
NMTAP	56	288	4
NMTAP	56	288	5
NMTAP	57	0	3
NMTAP	57	96	3
NMTAP	57	192	3
NMTAP	57	288	2
NMTAP	57	288	3
NMTAP	58	0	1
NMTAP	58	96	1
NMTAP	58	192	0
NMTAP	58	192	1
NMTAP	59	0	1
NMTAP	59	96	1
NMTAP	59	192	1
NMTAP	59	288	0
NMTAP	59	288	1
NMTAP	60	0	2
NMTAP	60	96	2
NMTAP	60	192	2
NMTAP	60	288	2
NMTAP	60	288	3
NMTAP	61	0	4
NMTAP	61	96	4
NMTAP	61	192	4
NMTAP	61	288	4
NMTAP	61	288	5
EXTAP	62	0	6
EXTAP	62	96	6
EXTAP	62	192	6
EXTAP	62	192	7
NMTAP	63	0	7
NMTAP	63	96	7
NMTAP	63	192	6
NMTAP	63	288	6
NMTAP	64	0	5
NMTAP	64	96	5
NMTAP	64	192	4
NMTAP	64	288	4
NMTAP	65	0	3
NMTAP	65	96	3
NMTAP	65	192	2
NMTAP	65	288	2
NMTAP	66	0	1
NMTAP	66	96	1
NMTAP	66	192	0
NMTAP	66	192	7
NMTAP	67	0	0
NMTAP	67	96	0
NMTAP	67	192	1
NMTAP	67	288	1
NMTAP	68	0	2
NMTAP	68	96	2
NMTAP	68	192	3
NMTAP	68	288	3
NMTAP	69	0	4
NMTAP	69	96	4
NMTAP	69	192	5
NMTAP	69	288	5
NMTAP	70	0	6
NMTAP	70	96	6
BRTAP	70	192	0
BRTAP	70	192	7
NMSTR	71	0	7
NMSI_	71	0	7	96	288	3
NMTAP	72	192	2
NMSTR	73	0	1
NMSI_	73	0	1	96	288	4
NMTAP	74	192	5
NMHLD	75	0	6	384
NMHLD	76	0	5	384
NMHLD	77	0	4	384
NMTAP	78	0	3
NMHLD	79	0	1	384
NMHLD	80	0	2	384
NMHLD	81	0	3	384
NMTAP	82	0	4
NMTAP	83	0	2
NMTAP	83	96	2
NMTAP	83	192	2
NMTAP	83	192	3
NMTAP	84	0	1
NMTAP	84	96	1
NMTAP	84	192	0
NMTAP	84	192	1
NMTAP	85	0	7
NMTAP	85	96	7
NMTAP	85	192	6
NMTAP	85	192	7
NMTAP	86	0	4
NMTAP	86	0	5
NMTAP	87	0	5
NMTAP	87	96	5
NMTAP	87	192	4
NMTAP	87	192	5
NMTAP	88	0	6
NMTAP	88	96	6
NMTAP	88	192	6
NMTAP	88	192	7
NMTAP	89	0	0
NMTAP	89	96	0
NMTAP	89	192	0
NMTAP	89	192	1
BRTAP	90	0	2
BRTAP	90	0	3
NMTHO	91	0	0	384	C	1	L1
NMTTP	93	0	7	B	0	L1
NMTTP	93	192	6	B	0	L1
NMTTP	94	0	4	B	0	L1
NMTTP	94	0	5	B	0	L1
NMTTP	95	0	0	B	0	L1
NMTTP	95	192	1	B	0	L1
NMTTP	96	0	2	B	0	L1
NMTTP	96	0	3	B	0	L1
NMTTP	97	0	7	E	0	L1
NMTTP	97	192	6	E	0	L1
NMTTP	98	0	5	E	0	L1
NMTTP	98	192	4	E	0	L1
NMTTP	99	0	3	E	0	L1
NMTTP	99	192	2	E	0	L1
NMTTP	100	0	0	C	1	L1
EXTAP	101	0	0
EXTAP	101	96	0
EXTAP	101	192	0
EXTAP	101	192	7
EXTAP	101	288	0
EXTAP	101	288	7
EXTAP	102	0	6
EXTAP	102	96	6
EXTAP	102	192	6
EXTAP	102	192	7
NMTAP	103	0	5
NMTAP	103	96	5
NMTAP	103	192	6
NMTAP	103	192	7
NMTAP	103	288	6
NMTAP	103	288	7
NMTAP	104	0	0
NMTAP	104	96	0
NMTAP	104	192	0
NMTAP	104	192	1
NMTAP	105	0	1
NMTAP	105	96	1
NMTAP	105	192	2
NMTAP	105	192	3
NMTAP	105	288	2
NMTAP	105	288	3
EXTAP	106	0	4
EXTAP	106	96	4
BXTAP	106	192	4
BXTAP	106	192	5
NMTAP	107	0	6
NMTAP	107	96	6
NMTAP	107	192	4
NMTAP	107	192	5
NMTAP	107	288	4
NMTAP	107	288	5
NMTAP	108	0	3
NMTAP	108	96	3
NMTAP	108	192	2
NMTAP	108	192	3
NMTAP	109	0	1
NMTAP	109	96	1
NMTAP	109	192	0
NMTAP	109	192	1
NMTAP	109	288	0
NMTAP	109	288	1
NMTAP	110	0	2
NMTAP	110	96	2
NMTAP	110	192	2
NMTAP	110	192	3
NMTAP	110	288	2
NMTAP	110	288	3
NMTAP	111	0	4
NMTAP	111	96	4
NMTAP	111	192	4
NMTAP	111	192	5
NMTAP	111	288	4
NMTAP	111	288	5
NMTAP	112	0	6
NMTAP	112	96	6
NMTAP	112	192	6
NMTAP	112	192	7
NMTAP	113	0	6
NMTAP	113	96	6
NMTAP	113	192	6
NMTAP	113	192	7
NMTAP	113	288	6
NMTAP	113	288	7
NMTAP	114	0	5
NMTAP	114	96	5
NMTAP	114	192	4
NMTAP	114	192	5
NMTAP	114	288	4
NMTAP	114	288	5
NMTAP	115	0	3
NMTAP	115	96	3
NMTAP	115	192	2
NMTAP	115	192	3
NMTAP	115	288	2
NMTAP	115	288	3
EXTAP	116	0	1
EXTAP	116	96	1
EXTAP	116	192	0
EXTAP	116	192	1
NMTAP	117	0	0
NMTAP	117	96	1
NMTAP	117	192	2
NMTAP	117	288	3
NMTAP	118	0	4
NMTAP	118	96	5
NMTAP	118	192	6
NMTAP	118	192	7
NMTAP	119	0	7
NMTAP	119	96	6
NMTAP	119	192	5
NMTAP	119	288	4
NMTAP	120	0	3
NMTAP	120	96	2
NMTAP	120	192	0
NMTAP	120	192	1
NMTAP	121	0	0
NMTAP	121	96	1
NMTAP	121	192	2
NMTAP	121	288	3
NMTAP	122	0	4
NMTAP	122	96	5
NMTAP	122	192	6
NMTAP	122	288	7
NMTAP	123	0	0
NMTAP	123	96	1
NMTAP	123	192	2
NMTAP	123	288	3
NMTAP	124	0	3
NMTAP	124	0	4
NMTAP	124	96	3
NMTAP	124	96	4
NMTAP	124	192	2
NMTAP	124	192	5
NMTAP	125	0	4
NMTAP	125	96	4
NMTAP	125	192	3
NMTAP	125	288	3
NMTAP	126	0	3
NMTAP	126	0	4
NMTAP	126	96	3
NMTAP	126	96	4
NMTAP	126	192	2
NMTAP	126	192	5
BRTAP	126	288	1
BRTAP	126	288	6

T_REC_TAP	302
T_REC_BRK	6
T_REC_XTP	31
T_REC_BXX	10
T_REC_HLD	6
T_REC_XHO	0
T_REC_BHO	0
T_REC_BXH	0
T_REC_STR	5
T_REC_BST	0
T_REC_XST	1
T_REC_XBS	0
T_REC_TTP	28
T_REC_THO	1
T_REC_SLD	6
T_REC_BSL	0
T_REC_ALL	396
T_NUM_TAP	367
T_NUM_BRK	16
T_NUM_HLD	7
T_NUM_SLD	6
T_NUM_ALL	396
T_JUDGE_TAP	383
T_JUDGE_HLD	56
T_JUDGE_SLD	6
T_JUDGE_ALL	445
TTM_EACHPAIRS	68
TTM_SCR_TAP	183500
TTM_SCR_BRK	41600
TTM_SCR_HLD	7000
TTM_SCR_SLD	9000
TTM_SCR_ALL	241100
TTM_SCR_S	232350
TTM_SCR_SS	239500
TTM_RAT_ACV	10066

