VERSION	0.00.00	1.05.00
FES_MODE	0
BPM_DEF	198.000	198.000	198.000	198.000
MET_DEF	4	4
RESOLUTION	384
CLK_DEF	384
COMPATIBLE_CODE	MA2

BPM	0	0	198.000
MET	0	0	4	4

NMTAP	5	0	0
NMTAP	5	192	0
NMTAP	6	0	1
NMTAP	7	0	2
NMTAP	7	192	2
NMTAP	8	0	3
NMTAP	8	0	4
NMTAP	9	0	4
NMTAP	9	192	4
NMTAP	10	0	5
NMTAP	11	0	6
NMTAP	11	192	6
NMTAP	12	0	0
NMTAP	12	0	7
NMTAP	13	0	7
NMTAP	13	192	7
NMTAP	14	0	6
NMTAP	14	192	6
NMTAP	15	0	5
NMTAP	15	192	5
NMTAP	16	0	3
NMTAP	16	0	4
NMTAP	17	0	3
NMTAP	17	192	3
NMTAP	18	0	2
NMTAP	18	192	2
NMTAP	19	0	1
NMTAP	19	192	1
NMTAP	20	0	0
NMTAP	20	0	7
NMTAP	21	0	0
NMTAP	21	0	1
NMTAP	21	192	0
NMTAP	21	192	1
NMTAP	22	0	0
NMTAP	22	0	1
NMTAP	23	0	2
NMTAP	23	0	3
NMTAP	23	192	2
NMTAP	23	192	3
NMTAP	24	0	2
NMTAP	24	0	3
NMTAP	25	0	4
NMTAP	25	0	5
NMTAP	25	192	4
NMTAP	25	192	5
NMTAP	26	0	4
NMTAP	26	0	5
NMTAP	27	0	6
NMTAP	27	0	7
NMTAP	27	192	6
NMTAP	27	192	7
NMTAP	28	0	6
NMTAP	28	0	7
NMHLD	29	0	6	384
NMHLD	29	0	7	384
NMHLD	31	0	4	384
NMHLD	31	0	5	384
NMHLD	33	0	2	384
NMHLD	33	0	3	384
NMHLD	35	0	0	384
NMHLD	35	0	1	384
NMTAP	37	0	7
NMTAP	37	192	7
BRTAP	38	0	0
BRTAP	38	0	7
NMTAP	39	0	0
NMTAP	39	96	0
NMTAP	39	192	0
NMTAP	40	0	1
NMTAP	40	192	1
NMTAP	41	0	2
NMTAP	41	96	2
NMTAP	41	192	2
NMTAP	42	0	3
NMTAP	42	0	4
NMTAP	43	0	4
NMTAP	43	96	4
NMTAP	43	192	4
NMTAP	44	0	5
NMTAP	44	192	5
NMTAP	45	0	6
NMTAP	45	96	6
NMTAP	45	192	6
NMTAP	46	0	0
NMTAP	46	0	7
NMTAP	47	0	7
NMTAP	47	96	7
NMTAP	47	192	7
NMTAP	48	0	6
NMTAP	48	192	6
NMTAP	49	0	5
NMTAP	49	96	5
NMTAP	49	192	5
NMTAP	50	0	3
NMTAP	50	0	4
NMTAP	51	0	3
NMTAP	51	96	3
NMTAP	51	192	3
NMTAP	52	0	2
NMTAP	52	192	2
NMTAP	53	0	1
NMTAP	53	96	1
NMTAP	53	192	1
NMTAP	54	0	0
NMTAP	54	0	7
NMTAP	55	0	0
NMTAP	55	96	0
NMTAP	55	192	0
NMTAP	56	0	1
NMTAP	56	192	1
NMTAP	57	0	2
NMTAP	57	96	2
NMTAP	57	192	2
NMTAP	58	0	3
NMTAP	58	0	4
NMTAP	58	192	3
NMTAP	58	192	4
NMTAP	59	0	4
NMTAP	59	96	4
NMTAP	59	192	4
NMTAP	60	0	5
NMTAP	60	192	5
NMTAP	61	0	6
NMTAP	61	96	6
NMTAP	61	192	6
NMTAP	62	0	0
NMTAP	62	0	7
NMTAP	63	0	7
NMTAP	63	96	7
NMTAP	63	192	7
NMTAP	64	0	6
NMTAP	64	192	6
NMTAP	65	0	5
NMTAP	65	96	5
NMTAP	65	192	5
NMTAP	66	0	3
NMTAP	66	0	4
NMTAP	66	192	3
NMTAP	66	192	4
NMTAP	67	0	3
NMTAP	67	96	3
NMTAP	67	192	3
NMTAP	68	0	2
NMTAP	68	192	2
NMTAP	69	0	1
NMTAP	69	96	1
NMTAP	69	192	1
EXTAP	70	0	0
EXTAP	70	0	7
NMTAP	71	0	0
NMTAP	71	192	1
NMTAP	72	0	2
NMTAP	72	192	3
NMTAP	73	0	4
NMTAP	73	192	5
NMTAP	74	0	6
NMTAP	74	192	0
NMTAP	74	192	7
NMSTR	75	0	7
NMSI_	75	0	7	96	288	3
NMSTR	77	0	0
NMSI_	77	0	0	96	288	4
NMSTR	79	0	6
NMSI_	79	0	6	96	288	2
NMSTR	81	0	1
NMSI_	81	0	1	96	288	5
NMTAP	83	0	7
NMTAP	83	192	7
NMTAP	84	0	6
NMTAP	84	96	6
NMTAP	84	192	6
NMTAP	85	0	5
NMTAP	85	192	5
NMTAP	86	0	4
NMTAP	86	96	4
NMTAP	86	192	4
NMTAP	87	0	3
NMTAP	87	192	3
NMTAP	88	0	2
NMTAP	88	96	2
NMTAP	88	192	2
NMTAP	89	0	1
NMTAP	89	192	1
NMTAP	90	0	0
NMTAP	90	0	1
NMTAP	90	192	0
NMTAP	90	192	1
NMHLD	91	0	0	384
NMHLD	91	0	1	384
NMTTP	93	0	1	E	0	L1
NMTTP	94	0	2	E	0	L1
NMTTP	95	0	3	E	0	L1
NMTTP	96	0	4	E	0	L1
NMTTP	97	0	5	E	0	L1
NMTTP	98	0	6	E	0	L1
NMTTP	99	0	7	E	0	L1
NMTTP	100	0	0	C	1	L1
EXTAP	101	0	7
EXTAP	101	96	7
EXTAP	101	192	7
NMTAP	102	0	6
NMTAP	102	96	6
NMTAP	102	192	6
EXTAP	103	0	5
EXTAP	103	96	5
EXTAP	103	192	5
NMTAP	104	0	3
NMTAP	104	0	4
NMTAP	104	192	3
NMTAP	104	192	4
NMTAP	105	0	3
NMTAP	105	96	3
NMTAP	105	192	3
NMTAP	106	0	2
NMTAP	106	96	2
NMTAP	106	192	2
NMTAP	107	0	1
NMTAP	107	96	1
NMTAP	107	192	1
NMTAP	108	0	0
NMTAP	108	0	7
NMTAP	108	192	0
NMTAP	108	192	7
NMTAP	109	0	0
NMTAP	109	96	0
NMTAP	109	192	0
NMTAP	110	0	1
NMTAP	110	96	1
NMTAP	110	192	1
NMTAP	111	0	2
NMTAP	111	96	2
NMTAP	111	192	2
NMTAP	112	0	3
NMTAP	112	96	3
NMTAP	112	192	3
NMTAP	112	192	4
NMTAP	113	0	4
NMTAP	113	96	4
NMTAP	113	192	4
NMTAP	114	0	5
NMTAP	114	96	5
NMTAP	114	192	5
NMTAP	115	0	6
NMTAP	115	96	6
NMTAP	115	192	6
EXTAP	116	0	0
EXTAP	116	0	7
BRTAP	117	0	7
NMTAP	117	96	7
NMTAP	117	192	7
NMTAP	118	0	6
NMTAP	118	96	6
NMTAP	118	192	6
NMTAP	119	0	5
NMTAP	119	96	5
NMTAP	119	192	5
NMTAP	120	0	4
NMTAP	120	96	4
NMTAP	120	192	3
NMTAP	120	192	4
NMTAP	121	0	3
NMTAP	121	96	3
NMTAP	121	192	3
NMTAP	122	0	2
NMTAP	122	96	2
NMTAP	122	192	2
NMTAP	123	0	1
NMTAP	123	96	1
NMTAP	123	192	1
NMTAP	124	0	0
NMTAP	124	96	0
NMTAP	124	192	0
NMTAP	125	0	7
NMTAP	125	96	7
NMTAP	125	192	7
EXTAP	126	0	0
EXTAP	126	0	7
EXTAP	126	96	0
EXTAP	126	96	7
EXTAP	126	192	0
EXTAP	126	192	7
EXTAP	126	288	0
EXTAP	126	288	7

T_REC_TAP	237
T_REC_BRK	3
T_REC_XTP	18
T_REC_BXX	0
T_REC_HLD	10
T_REC_XHO	0
T_REC_BHO	0
T_REC_BXH	0
T_REC_STR	4
T_REC_BST	0
T_REC_XST	0
T_REC_XBS	0
T_REC_TTP	8
T_REC_THO	0
T_REC_SLD	4
T_REC_BSL	0
T_REC_ALL	284
T_NUM_TAP	267
T_NUM_BRK	3
T_NUM_HLD	10
T_NUM_SLD	4
T_NUM_ALL	284
T_JUDGE_TAP	270
T_JUDGE_HLD	80
T_JUDGE_SLD	4
T_JUDGE_ALL	354
TTM_EACHPAIRS	46
TTM_SCR_TAP	133500
TTM_SCR_BRK	7800
TTM_SCR_HLD	10000
TTM_SCR_SLD	6000
TTM_SCR_ALL	157300
TTM_SCR_S	152300
TTM_SCR_SS	157000
TTM_RAT_ACV	10019

