VERSION	0.00.00	1.05.00
FES_MODE	0
BPM_DEF	130.000	130.000	130.000	130.000
MET_DEF	4	4
RESOLUTION	384
CLK_DEF	384
COMPATIBLE_CODE	MA2

BPM	0	0	130.000
MET	0	0	4	4

NMTAP	2	0	3
NMTAP	2	0	5
NMTAP	2	96	3
NMTAP	2	96	5
NMSTR	2	192	3
NMSI_	2	192	3	96	48	1
NMTAP	2	192	4
NMTAP	2	240	4
NMTAP	2	288	4
BXTAP	3	0	1
NMTAP	3	0	3
NMTAP	3	96	1
NMTAP	3	96	3
NMSTR	3	192	1
NMSI_	3	192	1	96	48	7
NMTAP	3	192	4
NMTAP	3	240	4
NMTAP	3	288	4
NMTAP	4	0	5
EXTAP	4	0	7
NMTAP	4	96	5
NMTAP	4	96	7
NMTAP	4	192	4
NMSTR	4	192	7
NMSI_	4	192	7	96	48	5
NMTAP	4	240	4
NMTAP	4	288	4
NMTAP	5	0	3
EXTAP	5	0	5
NMTAP	5	96	2
NMTAP	5	96	6
NMSTR	5	192	5
NMSCL	5	192	5	96	48	3
NMTAP	5	240	3
NMTAP	5	288	2
BXHLD	6	0	2	48
EXTAP	6	0	3
NMHLD	6	96	2	48
NMTAP	6	96	3
NMTAP	6	192	1
NMSTR	6	192	3
NMSI_	6	192	3	96	48	0
NMTAP	6	240	1
NMTAP	6	288	1
EXTAP	7	0	0
NMHLD	7	0	2	48
NMTAP	7	96	0
NMHLD	7	96	2	48
NMSTR	7	192	0
NMSI_	7	192	0	96	48	3
NMTAP	7	192	1
NMTAP	7	240	1
NMTAP	7	288	1
NMHLD	8	0	2	48
EXTAP	8	0	3
NMHLD	8	96	2	48
NMTAP	8	96	3
NMTAP	8	192	1
NMSTR	8	192	3
NMSI_	8	192	3	96	48	7
NMTAP	8	240	1
NMTAP	8	288	1
NMHLD	9	0	0	48
EXTAP	9	0	7
NMHLD	9	96	0	48
NMTAP	9	96	7
NMSTR	9	192	0
NMSCL	9	192	0	96	48	5
NMSTR	9	192	1
NMSV_	9	192	1	96	48	4
NMTAP	9	240	2
NMTAP	10	0	3
BRTAP	10	0	6
NMTAP	10	96	5
NMTAP	10	120	4
NMTAP	10	144	5
NMTAP	10	168	4
NMHLD	10	192	6	72
NMTAP	10	264	3
NMTAP	10	288	5
NMTAP	10	336	4
NMTAP	10	336	6
NMTAP	11	0	3
NMHLD	11	0	7	72
NMTAP	11	72	4
NMTAP	11	96	6
NMTAP	11	120	4
NMTAP	11	144	6
NMTAP	11	168	4
NMTAP	11	192	5
NMTAP	11	216	3
NMTAP	11	240	4
NMTAP	11	264	2
NMTAP	11	288	3
NMTAP	11	336	0
NMTAP	11	336	4
NMTAP	12	0	1
NMTAP	12	24	3
NMTAP	12	48	1
NMTAP	12	72	3
NMHLD	12	96	1	48
NMTAP	12	144	4
NMTAP	12	168	2
NMTAP	12	192	4
NMTAP	12	216	2
NMHLD	12	240	4	48
NMTAP	12	288	1
NMTAP	12	312	3
NMTAP	12	336	1
NMTAP	12	360	3
NMSTR	13	0	0
NMSI_	13	0	0	96	48	4
NMTAP	13	48	0
NMSTR	13	96	6
NMSCR	13	96	6	96	96	3
NMTAP	13	144	6
EXTAP	13	192	4
CNSUL	13	288	3	0	96	5
BRTAP	14	0	4
NMTAP	14	48	4
NMTAP	14	96	3
NMSTR	14	96	5
NMSI_	14	96	5	96	48	0
NMHLD	14	144	2	144
NMTAP	14	144	6
CNSI_	14	240	0	0	48	3
NMSTR	15	0	1
NMSI_	15	0	1	96	48	6
NMSTR	15	0	5
NMSI_	15	0	5	96	48	2
NMTAP	15	48	0
NMTAP	15	48	4
NMSTR	15	192	1
NMSI_	15	192	1	96	48	4
NMSTR	15	192	5
NMSI_	15	192	5	96	48	0
NMTAP	15	240	2
NMTAP	15	240	6
NMSTR	16	0	7
NMSI_	16	0	7	96	48	3
NMTAP	16	48	7
NMTAP	16	96	3
NMTAP	16	144	2
CNSXL	16	144	3	0	48	5
NMSTR	16	192	1
NMSI_	16	192	1	96	48	4
NMTAP	16	240	1
NMTAP	16	288	5
CNSV_	16	336	4	0	48	2
NMTAP	16	336	6
NMSTR	17	0	7
NMSV_	17	0	7	96	48	4
NMTAP	17	48	6
NMSTR	17	96	0
NMSCR	17	96	0	96	48	3
NMTAP	17	144	1
EXTAP	17	192	5
NMSTR	17	288	6
NMSXL	17	288	6	96	240	2
BRTAP	18	0	4
NMTTP	18	192	3	B	0	M1
NMTTP	18	192	4	B	0	M1
NMTTP	18	192	4	E	0	M1
CNSXL	18	240	2	0	240	5
NMTTP	19	0	0	B	0	M1
NMTTP	19	0	0	E	0	M1
NMTTP	19	0	7	B	0	M1
NMTTP	19	192	0	C	0	M1
NMSTR	19	288	0
NMSXR	19	288	0	96	240	5
NMTTP	20	0	6	B	0	M1
NMTTP	20	0	7	B	0	M1
NMTTP	20	0	7	E	0	M1
NMTTP	20	192	3	B	0	M1
NMTTP	20	192	4	B	0	M1
NMTTP	20	192	4	E	0	M1
CNSXR	20	240	5	0	240	2
NMHLD	21	0	0	192
NMSTR	21	192	3
NMSI_	21	192	3	96	48	7
NMTAP	21	240	2
NMSTR	21	288	1
NMSCL	21	288	1	96	48	6
NMSV_	21	288	1	96	48	4
BRTAP	22	0	1
NMHLD	22	96	5	48
NMHLD	22	192	5	48
NMTTP	22	288	4	B	0	M1
NMHLD	22	288	6	48
NMHLD	23	0	2	48
NMHLD	23	96	2	48
NMHLD	23	192	1	48
NMTTP	23	192	3	B	0	M1
NMHLD	23	288	2	48
NMTAP	24	0	0
NMTAP	24	0	1
NMTAP	24	48	0
NMTAP	24	48	1
NMTAP	24	96	0
NMTAP	24	96	7
NMTAP	24	144	0
NMTAP	24	144	7
NMTAP	24	192	6
NMTAP	24	192	7
NMTAP	24	240	6
NMTAP	24	240	7
NMTAP	24	288	5
NMTAP	24	288	6
NMTAP	24	336	5
NMTAP	24	336	6
NMTAP	25	0	4
NMHLD	25	0	5	96
NMTTP	25	96	4	E	1	M1
NMTAP	25	192	1
NMTAP	25	192	3
NMTAP	25	240	3
NMTAP	25	240	4
NMSTR	25	288	4
NMSI_	25	288	4	96	48	0
NMTAP	25	288	6
BRTAP	26	0	4
BRTAP	26	0	5
NMTAP	26	48	6
NMTAP	26	72	6
NMHLD	26	96	6	48
NMTAP	26	144	1
NMTAP	26	168	0
NMTAP	26	192	2
NMTAP	26	240	6
NMTAP	26	264	7
NMSTR	26	288	5
NMSI_	26	288	5	96	48	0
NMTAP	26	336	3
NMSTR	27	0	1
NMSCR	27	0	1	96	48	4
NMTAP	27	0	5
NMTAP	27	48	3
NMSTR	27	96	1
NMSXR	27	96	1	96	48	7
NMSTR	27	96	5
NMSV_	27	96	5	96	48	3
NMTAP	27	144	7
BRTAP	27	192	1
BRTAP	27	192	5
NMSTR	27	288	0
NMSI_	27	288	0	96	24	6
NMSCR	27	288	0	96	48	3
BRSTR	28	0	0
NMSI_	28	0	0	96	48	4
CNSCL	28	24	6	0	24	5
NMTAP	28	96	0
NMTAP	28	144	6
NMTAP	28	168	6
NMHLD	28	192	6	48
NMTAP	28	240	4
NMTAP	28	264	5
NMTAP	28	288	2
NMTAP	28	312	3
NMTAP	28	336	1
NMTAP	28	360	7
BRTAP	29	0	0
NMTAP	29	48	4
NMTAP	29	48	6
NMSTR	29	96	0
NMSV_	29	96	0	96	48	5
NMSTR	29	96	7
NMSI_	29	96	7	96	48	4
NMTAP	29	144	1
NMTAP	29	144	3
BRTAP	29	192	0
BRTAP	29	192	7
NMTAP	29	288	0
NMTAP	29	288	1
NMTAP	29	336	2
NMTAP	29	336	7
BRSTR	30	0	4
NMSI_	30	0	4	96	48	0
NMTAP	30	0	5
NMTAP	30	96	2
NMTAP	30	96	4
NMTAP	30	144	1
NMTAP	30	168	1
NMHLD	30	192	1	48
NMTAP	30	240	0
NMTAP	30	264	2
NMSTR	30	288	6
NMSI_	30	288	6	96	48	3
NMTAP	30	336	4
NMSTR	31	0	2
NMSI_	31	0	2	96	48	7
NMTAP	31	0	6
NMTAP	31	48	0
NMSTR	31	96	2
NMSXL	31	96	2	96	48	4
NMSTR	31	96	6
NMSV_	31	96	6	96	48	0
NMTAP	31	144	4
BRTAP	31	192	2
BRTAP	31	192	6
NMTAP	31	288	3
NMTAP	31	288	7
NMTAP	31	336	2
NMTAP	31	336	6
NMTAP	32	0	1
NMTAP	32	0	5
NMTAP	32	48	2
NMTAP	32	72	2
NMSTR	32	96	3
NMSI_	32	96	3	96	48	7
NMTAP	32	144	0
NMSTR	32	192	1
NMSI_	32	192	1	96	48	4
NMTAP	32	240	2
CNSI_	32	240	7	0	48	5
CNSI_	32	336	4	0	48	0
BRTAP	33	0	7
NMTAP	33	48	1
NMTAP	33	48	3
NMSTR	33	96	3
NMSI_	33	96	3	96	48	7
NMTAP	33	96	4
NMTAP	33	144	4
NMSTR	33	144	6
NMSI_	33	144	6	96	48	2
CNSI_	33	288	2	0	48	5
CNSI_	33	336	5	0	48	3
EXSTR	34	0	0
NMSF_	34	0	0	96	48	4
BRTAP	34	96	0
NMTAP	34	192	2
NMHLD	34	192	6	48
NMTAP	34	240	0
NMHLD	34	288	2	48
NMTAP	34	288	4
NMTAP	34	336	7
NMTAP	35	0	4
NMTAP	35	0	6
NMTAP	35	48	3
NMTAP	35	48	4
NMTAP	35	96	1
NMTAP	35	96	3
NMTAP	35	144	1
NMTAP	35	144	3
NMTTP	35	192	1	E	0	M1
NMHLD	35	192	4	48
NMTTP	35	204	0	B	0	M1
NMTTP	35	216	7	B	0	M1
NMTTP	35	228	7	E	0	M1
NMTTP	35	288	3	E	0	M1
NMHLD	35	288	5	48
NMTTP	35	300	3	B	0	M1
NMTTP	35	312	4	B	0	M1
NMTTP	35	324	5	E	0	M1
NMTTP	36	0	1	E	0	M1
NMHLD	36	0	6	48
NMTTP	36	12	0	B	0	M1
NMTTP	36	24	7	B	0	M1
NMTTP	36	36	7	E	0	M1
NMTTP	36	96	2	A	0	M1
NMTTP	36	96	3	B	0	M1
NMTTP	36	96	3	E	0	M1
NMTTP	36	96	4	B	0	M1
NMTTP	36	96	4	E	1	M1
NMTTP	36	96	5	E	0	M1
NMTTP	36	96	5	A	0	M1
EXSTR	36	192	0
NMSI_	36	192	0	96	48	2
EXSTR	36	192	7
NMSI_	36	192	7	96	48	3
NMTAP	36	240	6
NMSTR	36	288	0
NMSI_	36	288	0	96	48	4
NMTAP	36	288	7
NMSTR	37	0	6
NMSCR	37	0	6	96	48	1
NMTAP	37	48	5
NMSTR	37	96	2
NMSXL	37	96	2	96	48	4
NMTAP	37	144	3
NMSTR	37	192	5
NMSUR	37	192	5	96	48	1
NMTAP	37	240	6
NMTTP	37	288	3	B	1	M1
BRSTR	38	0	2
NMSI_	38	0	2	96	48	6
NMTAP	38	48	1
NMTAP	38	96	5
NMTAP	38	144	4
CNSI_	38	144	6	0	48	0
NMSTR	38	192	3
NMSCR	38	192	3	96	48	6
NMTAP	38	240	2
NMTAP	38	288	1
NMTAP	38	336	0
EXTAP	39	0	6
NMTAP	39	0	7
NMTAP	39	48	4
NMTAP	39	96	5
NMTAP	39	96	7
NMTAP	39	144	3
NMSTR	39	192	0
NMSV_	39	192	0	96	48	3
NMSTR	39	192	4
BRSCR	39	192	4	96	48	7
NMTAP	39	240	1
NMTAP	39	240	2
BRTAP	39	288	0
BRTAP	39	288	4
NMTAP	40	0	4
NMTAP	40	0	6
NMTAP	40	48	2
NMTAP	40	48	3
NMTAP	40	96	0
NMSTR	40	96	4
BRSUR	40	96	4	96	48	0
NMSTR	40	144	1
NMSV_	40	144	1	96	48	3
NMTAP	40	144	3
NMTAP	40	336	6
NMTAP	40	360	4
NMTAP	41	0	5
NMTAP	41	24	2
NMTAP	41	48	3
NMTAP	41	72	1
NMHLD	41	96	7	48
NMHLD	41	144	4	48
NMHLD	41	192	0	48
NMHLD	41	240	3	48
NMSTR	41	288	1
NMSCL	41	288	1	96	96	5
NMTHO	42	0	3	192	B	0	M1
CNSUR	42	96	5	0	96	2
CNSV_	42	192	2	0	96	4
EXHLD	43	0	2	72
NMHLD	43	72	1	72
NMTAP	43	144	0
NMTAP	43	192	0
NMTAP	43	288	1
NMHLD	43	288	7	288
NMTHO	44	0	4	192	E	0	M1
NMTTP	44	96	3	B	0	M1
NMTTP	44	192	4	B	0	M1
NMTAP	44	288	3
NMTAP	44	288	6
NMTAP	44	336	2
NMHLD	45	0	1	72
NMTAP	45	0	4
NMHLD	45	72	2	72
NMTAP	45	144	3
NMSTR	45	192	3
NMSUL	45	192	3	96	48	7
NMTHO	45	288	5	192	B	0	M1
NMTHO	45	288	6	192	B	0	M1
NMTHO	45	288	6	192	E	0	M1
NMTHO	46	0	0	96	C	0	M1
NMSTR	46	192	7
NMSI_	46	192	7	96	48	3
NMTAP	46	240	0
NMTAP	46	288	1
EXTAP	46	336	2
BRSTR	47	0	1
NMSI_	47	0	1	96	48	3
NMTAP	47	48	1
NMTTP	47	96	0	C	0	M1
CNSI_	47	144	3	0	48	1
NMSTR	47	192	7
NMSI_	47	192	7	96	48	5
NMTAP	47	240	7
NMTTP	47	288	4	B	0	M1
CNSI_	47	336	5	0	48	7
NMSTR	48	0	1
NMSI_	48	0	1	96	48	4
NMTAP	48	48	1
NMTAP	48	96	0
CNSI_	48	144	4	0	48	0
CNSCR	48	192	0	0	48	2
EXTAP	48	192	7
NMTTP	48	288	1	B	0	M1
NMTTP	48	288	2	B	0	M1
NMTTP	48	288	2	E	0	M1
NMTHO	48	288	4	384	B	0	M1
NMTHO	48	288	5	384	B	0	M1
NMTHO	48	288	5	384	E	0	M1
NMSTR	49	0	7
BRSI_	49	0	7	96	48	1
NMTAP	49	48	0
NMTAP	49	96	7
NMSTR	49	192	7
BRSI_	49	192	7	96	48	2
NMTAP	49	240	0
NMTAP	49	288	7
BRTAP	50	0	0
BRTAP	50	0	7
NMTAP	50	48	6
NMTAP	50	72	7
NMTAP	50	96	5
NMTAP	50	120	0
NMTAP	50	144	4
NMTAP	50	168	1
NMTAP	50	192	4
NMTAP	50	216	2
NMTAP	50	240	4
NMTAP	50	264	2
EXTAP	50	288	3
EXTAP	50	312	3
EXTAP	50	336	3
EXTAP	50	360	3
NMTTP	51	0	0	C	1	M1
NMTTP	51	96	2	B	0	M1
NMTTP	51	96	2	E	0	M1
NMTTP	51	96	2	A	0	M1
NMTTP	51	96	3	E	0	M1
NMTHO	51	96	6	96	B	0	M1
NMTHO	51	96	6	120	E	0	M1
NMTHO	51	96	6	144	A	0	M1
NMTHO	51	96	7	168	E	0	M1
NMSTR	51	192	0
NMSUR	51	192	0	96	96	5
NMTAP	51	240	1
BRTAP	52	0	7
NMTAP	52	96	3
NMTAP	52	120	2
NMTAP	52	144	4
NMTAP	52	168	5
NMTHO	52	192	3	72	B	0	M1
NMTHO	52	192	4	84	E	0	M1
EXTAP	52	288	7
NMHLD	53	0	1	48
NMTAP	53	48	0
NMTAP	53	72	2
BRTAP	53	96	7
BRTAP	53	144	7
NMTTP	53	192	3	E	0	M1
NMTTP	53	216	3	B	0	M1
NMTTP	53	240	5	B	0	M1
NMTHO	53	264	6	48	E	0	M1
NMTAP	53	312	0
NMTAP	53	336	0
NMTAP	53	360	0
BXTAP	54	0	1
BXHLD	54	0	7	96
NMTAP	54	96	3
NMTAP	54	144	2
NMTAP	54	168	2
BXHLD	54	192	1	48
BXHLD	54	192	3	48
BXHLD	54	264	0	48
BXHLD	54	264	7	48
BXTAP	54	336	4
BXTAP	54	336	6
BRTAP	55	0	3
BRTAP	55	0	7
NMTHO	55	96	1	96	B	0	M1
NMTHO	55	96	1	144	A	0	M1
NMTHO	55	96	1	168	E	0	M1
NMTHO	55	96	2	120	E	0	M1
NMTTP	55	96	4	B	0	M1
NMTTP	55	96	4	E	0	M1
NMTTP	55	96	4	A	0	M1
NMTTP	55	96	5	E	0	M1
NMSTR	55	192	7
NMSUL	55	192	7	96	96	2
NMTAP	55	240	6
EXTAP	56	0	0
NMTAP	56	96	4
NMTAP	56	120	5
NMTAP	56	144	3
NMTAP	56	168	2
NMTHO	56	192	4	72	B	0	M1
NMTHO	56	192	4	84	E	0	M1
EXTAP	56	288	0
NMHLD	57	0	6	48
NMTAP	57	48	7
NMTAP	57	72	5
BRTAP	57	96	0
BRTAP	57	144	0
NMTTP	57	192	5	E	0	M1
NMTTP	57	216	4	B	0	M1
NMTTP	57	240	2	B	0	M1
NMTHO	57	264	2	48	E	0	M1
NMTAP	57	312	0
NMTAP	57	336	0
NMTAP	57	360	0
BXHLD	58	0	1	96
BXTAP	58	0	7
NMTAP	58	96	0
NMTAP	58	144	0
NMTAP	58	144	2
NMTAP	58	168	3
NMTAP	58	168	7
BXTAP	58	192	4
BXSTR	58	192	6
NMSI_	58	192	6	96	48	2
BXSTR	58	264	2
BRSI_	58	264	2	96	48	6
BXTAP	58	336	7
NMTTP	59	0	0	B	0	M1
NMTTP	59	0	0	A	0	M1
NMTTP	59	0	1	B	0	M1
NMTTP	59	0	1	E	1	M1
NMTTP	59	0	1	A	0	M1
NMTTP	59	0	1	D	0	M1
NMHLD	60	0	1	1056
NMSTR	60	192	0
NMSUR	60	192	0	96	192	3
NMSTR	61	192	3
NMSXR	61	192	3	96	192	3
NMHLD	62	192	3	96
NMTTP	63	0	3	E	0	M1
NMTTP	63	96	4	E	0	M1
NMSTR	63	192	2
NMSUR	63	192	2	96	192	4
NMTTP	63	192	5	E	0	M1
NMTTP	63	288	6	E	0	M1
NMTTP	64	0	7	E	0	M1
NMTTP	64	96	0	E	0	M1
NMTTP	64	192	1	E	0	M1
NMSTR	64	192	5
NMSUL	64	192	5	96	192	3
NMTTP	64	288	2	E	0	M1
NMTTP	65	0	3	E	0	M1
NMTTP	65	96	0	C	0	M1
NMTTP	65	192	0	E	0	M1
NMSTR	65	288	0
NMSI_	65	288	0	96	96	3
NMSTR	65	336	7
BRSI_	65	336	7	96	144	4
CNSI_	66	96	3	0	96	0
NMSTR	66	288	1
NMSI_	66	288	1	96	48	7
NMSTR	66	288	5
NMSCL	66	288	5	96	48	3
NMTTP	67	96	4	E	1	M1
NMSTR	67	192	6
NMSCR	67	192	6	96	48	1
NMTAP	67	240	4
BXSTR	67	288	2
NMSV_	67	288	2	96	48	7
BXSTR	67	288	6
BRSV_	67	288	6	96	48	3
NMTTP	68	0	0	C	1	M1
NMTAP	68	192	1
NMTAP	68	204	2
NMTAP	68	216	3
NMTAP	68	228	4
NMTAP	68	240	5
NMTAP	68	252	6
NMTAP	68	264	7
NMTAP	68	276	0
NMSTR	68	288	1
NMSI_	68	288	1	96	48	6
BRTAP	69	0	1
BRSTR	69	0	5
NMSI_	69	0	5	96	48	3
BRTAP	69	48	3
BRSTR	69	96	1
BRSV_	69	96	1	96	48	6
BRSTR	69	96	5
NMSV_	69	96	5	96	48	2
BRTAP	69	144	7
BRTAP	69	192	1
BRTAP	69	192	5
CNSCR	69	240	2	0	48	4
CNSI_	69	240	6	0	48	0
NMTAP	69	336	2
NMTAP	69	336	6
BXHLD	70	0	3	96
NMSTR	70	0	7
NMSI_	70	0	7	96	48	3
NMTAP	70	96	7
NMTAP	70	144	1
NMTAP	70	168	1
NMHLD	70	192	1	48
NMTAP	70	240	3
NMTAP	70	264	2
NMTAP	70	288	5
NMTAP	70	312	4
NMTAP	70	336	6
NMTAP	70	360	0
BRTAP	71	0	7
NMTAP	71	48	4
NMTAP	71	48	6
NMSTR	71	96	0
NMSV_	71	96	0	96	48	3
NMSTR	71	96	7
NMSI_	71	96	7	96	24	5
NMTAP	71	144	1
NMTAP	71	144	3
BRTAP	71	192	0
BRTAP	71	192	7
CNSCL	71	216	5	0	24	4
NMTAP	71	288	0
NMTAP	71	288	1
NMTAP	71	336	2
NMTAP	71	336	7
BRSTR	72	0	4
NMSI_	72	0	4	96	48	0
NMTAP	72	0	5
NMTAP	72	96	2
NMTAP	72	96	4
NMTAP	72	144	1
NMTAP	72	168	1
NMHLD	72	192	1	48
NMTAP	72	240	0
NMTAP	72	264	2
NMSTR	72	288	6
NMSCL	72	288	6	96	48	4
NMTAP	72	312	7
NMTAP	72	336	5
BRSTR	73	0	2
NMSI_	73	0	2	96	48	0
BRTAP	73	0	6
BRTAP	73	48	0
BRSTR	73	96	2
NMSV_	73	96	2	96	48	7
BRSTR	73	96	6
BRSV_	73	96	6	96	48	3
BRTAP	73	144	4
BRTAP	73	192	2
BRTAP	73	192	6
CNSI_	73	240	3	0	48	5
CNSCR	73	240	7	0	48	1
NMTAP	73	336	3
NMTAP	73	336	7
NMTAP	74	0	1
NMTAP	74	0	5
NMTAP	74	48	2
NMTAP	74	72	2
NMSTR	74	96	3
NMSI_	74	96	3	96	48	7
NMTAP	74	144	0
NMSTR	74	192	1
NMSI_	74	192	1	96	48	4
NMTAP	74	240	2
CNSI_	74	240	7	0	48	5
CNSI_	74	336	4	0	48	0
BRTAP	75	0	7
NMTAP	75	48	4
NMTAP	75	48	6
NMSTR	75	96	0
BRSI_	75	96	0	96	48	3
NMTAP	75	96	7
NMTAP	75	144	1
NMSTR	75	144	3
NMSI_	75	144	3	96	48	7
NMTAP	75	192	5
NMTAP	75	240	5
NMTAP	75	288	4
CNSI_	75	288	7	0	48	5
NMTAP	75	336	3
CNSI_	75	336	5	0	48	1
EXSTR	76	0	2
NMSF_	76	0	2	96	48	6
BRTAP	76	96	2
NMHLD	76	192	0	48
NMTAP	76	192	4
NMTAP	76	240	2
NMTAP	76	288	3
NMHLD	76	288	7	48
NMTAP	76	336	5
NMTAP	77	0	0
NMTAP	77	0	6
NMTAP	77	48	2
NMTAP	77	48	3
NMTAP	77	96	0
NMTAP	77	96	5
NMTAP	77	144	2
NMTAP	77	144	4
NMTTP	77	192	1	E	0	M1
NMHLD	77	192	5	48
NMTTP	77	204	0	B	0	M1
NMTTP	77	216	7	B	0	M1
NMTTP	77	228	7	E	0	M1
NMTTP	77	288	3	E	0	M1
NMHLD	77	288	6	48
NMTTP	77	300	3	B	0	M1
NMTTP	77	312	4	B	0	M1
NMTTP	77	324	5	E	0	M1
NMTTP	78	0	1	E	0	M1
NMHLD	78	0	7	48
NMTTP	78	12	0	B	0	M1
NMTTP	78	24	7	B	0	M1
NMTTP	78	36	7	E	0	M1
NMTTP	78	96	2	A	0	M1
NMTTP	78	96	3	B	0	M1
NMTTP	78	96	3	E	0	M1
NMTTP	78	96	4	B	0	M1
NMTTP	78	96	4	E	1	M1
NMTTP	78	96	5	E	0	M1
NMTTP	78	96	5	A	0	M1
EXSTR	78	192	0
NMSI_	78	192	0	96	48	4
EXSTR	78	192	7
NMSI_	78	192	7	96	48	5
NMTAP	78	240	1
NMTAP	78	288	0
NMSTR	78	288	7
NMSI_	78	288	7	96	48	3
NMSTR	79	0	1
BRSCL	79	0	1	96	48	6
NMTAP	79	48	0
NMSTR	79	96	5
BRSXR	79	96	5	96	48	3
NMTAP	79	144	4
NMSTR	79	192	2
BRSUL	79	192	2	96	48	6
NMTAP	79	240	1
BRTAP	79	288	4
NMTAP	80	0	1
BRSTR	80	0	5
NMSI_	80	0	5	96	48	1
NMTAP	80	48	4
NMTAP	80	96	2
CNSI_	80	144	1	0	48	7
NMTAP	80	144	3
NMSTR	80	192	4
BRSCL	80	192	4	96	48	1
NMTAP	80	240	5
NMTAP	80	288	6
NMTAP	80	336	7
NMTAP	81	0	0
EXTAP	81	0	1
NMTAP	81	48	3
NMTAP	81	96	0
NMTAP	81	96	2
NMTAP	81	144	4
NMSTR	81	192	3
BRSCL	81	192	3	96	48	0
NMSTR	81	192	7
NMSV_	81	192	7	96	48	4
NMTAP	81	240	5
NMTAP	81	240	6
BRTAP	81	288	3
BRTAP	81	288	7
NMTAP	82	0	1
NMTAP	82	0	3
NMTAP	82	48	2
NMTAP	82	48	4
NMSTR	82	96	3
BRSV_	82	96	3	96	48	0
NMTAP	82	96	5
NMTAP	82	144	2
NMSTR	82	144	6
NMSV_	82	144	6	96	48	7
CNSCR	82	240	0	0	48	2
NMTAP	82	336	6
NMTAP	82	360	4
NMTAP	83	0	5
NMTAP	83	24	2
NMTAP	83	48	3
NMTAP	83	72	1
NMTAP	83	96	7
NMTAP	83	144	5
NMTAP	83	144	7
NMTAP	83	192	3
NMTAP	83	192	5
NMTAP	83	240	1
NMTAP	83	240	3
NMTAP	83	288	1
NMTAP	83	288	7
NMTAP	83	336	2
NMTAP	83	336	6
NMHLD	84	0	3	48
NMHLD	84	0	5	48
NMHLD	84	96	3	48
NMHLD	84	96	5	48
NMTAP	84	192	3
NMTAP	84	192	6
NMTAP	84	240	3
NMTAP	84	240	7
NMTAP	84	288	3
NMSTR	84	288	7
BRSI_	84	288	7	96	48	4
NMTAP	84	312	2
NMTAP	84	336	1
NMTAP	84	360	0
BXTAP	85	0	7
NMTTP	85	1	1	E	0	M1
NMTTP	85	12	1	B	0	M1
NMTTP	85	24	2	B	0	M1
NMTTP	85	36	3	E	0	M1
NMTTP	85	48	3	A	0	M1

T_REC_TAP	378
T_REC_BRK	44
T_REC_XTP	19
T_REC_BXX	8
T_REC_HLD	52
T_REC_XHO	1
T_REC_BHO	0
T_REC_BXH	8
T_REC_STR	86
T_REC_BST	12
T_REC_XST	6
T_REC_XBS	4
T_REC_TTP	101
T_REC_THO	23
T_REC_SLD	93
T_REC_BSL	17
T_REC_ALL	852
T_NUM_TAP	590
T_NUM_BRK	93
T_NUM_HLD	76
T_NUM_SLD	93
T_NUM_ALL	852
T_JUDGE_TAP	658
T_JUDGE_HLD	183
T_JUDGE_SLD	110
T_JUDGE_ALL	951
TTM_EACHPAIRS	147
TTM_SCR_TAP	295000
TTM_SCR_BRK	241800
TTM_SCR_HLD	76000
TTM_SCR_SLD	139500
TTM_SCR_ALL	752300
TTM_SCR_S	720750
TTM_SCR_SS	743000
TTM_RAT_ACV	10125

