VERSION	0.00.00	1.05.00
FES_MODE	0
BPM_DEF	130.000	130.000	130.000	130.000
MET_DEF	4	4
RESOLUTION	384
CLK_DEF	384
COMPATIBLE_CODE	MA2

BPM	0	0	130.000
MET	0	0	4	4

NMHLD	2	0	2	48
NMHLD	2	0	4	48
NMHLD	2	96	3	48
NMHLD	2	96	5	48
NMTAP	2	192	2
NMTAP	2	240	2
NMTAP	2	288	1
NMTAP	2	288	3
NMTAP	2	336	1
NMTAP	2	336	3
NMTAP	3	48	6
NMTAP	3	96	6
NMTAP	3	144	4
NMTAP	3	192	4
NMTAP	3	240	5
NMTAP	3	288	5
NMTAP	3	336	4
NMTAP	3	336	6
NMHLD	4	0	4	48
NMHLD	4	0	6	48
NMHLD	4	96	3	48
NMHLD	4	96	5	48
NMHLD	4	192	2	48
NMHLD	4	192	4	48
NMHLD	4	288	1	48
NMHLD	4	288	3	48
NMTAP	5	48	2
NMTAP	5	96	1
NMTAP	5	144	1
NMTAP	5	192	3
NMTAP	5	240	3
NMSTR	5	288	0
NMSI_	5	288	0	96	48	4
NMTAP	5	336	0
BRTAP	6	0	5
NMTAP	6	96	6
NMTAP	6	144	6
NMTAP	6	192	4
NMTAP	6	240	4
NMTAP	6	288	5
NMTAP	6	336	5
NMTAP	7	0	4
NMTAP	7	0	6
NMTAP	7	96	1
NMTAP	7	144	1
NMTAP	7	192	3
NMTAP	7	240	3
NMTAP	7	288	2
NMTAP	7	336	2
NMTAP	8	0	1
NMTAP	8	0	3
NMTAP	8	96	6
NMTAP	8	144	6
NMTAP	8	192	4
NMTAP	8	192	6
NMTAP	8	288	1
NMTAP	8	336	1
NMTAP	9	0	1
NMTAP	9	0	3
NMTAP	9	96	6
NMTAP	9	144	6
NMTAP	9	192	2
NMTAP	9	240	2
NMTAP	9	288	4
BRTAP	10	0	1
BRTAP	10	0	5
NMSTR	10	96	7
NMSCL	10	96	7	96	48	4
NMTAP	10	144	7
NMTAP	10	192	3
NMSTR	10	288	1
NMSCR	10	288	1	96	48	4
NMTAP	10	336	1
NMTAP	11	0	5
NMSTR	11	96	7
NMSCL	11	96	7	96	48	4
NMTAP	11	144	7
NMSTR	11	192	1
NMSCR	11	192	1	96	48	4
NMTAP	11	240	1
NMTAP	11	288	5
NMTAP	12	0	5
NMTAP	12	48	6
NMTAP	12	96	7
NMTAP	12	144	2
NMTAP	12	192	1
NMTAP	12	240	0
NMTAP	12	288	6
NMTAP	12	336	5
NMTAP	13	0	4
NMTAP	13	48	2
NMSTR	13	96	3
NMSI_	13	96	3	96	48	0
NMSTR	13	192	4
NMSI_	13	192	4	96	48	7
BRTAP	14	0	0
NMTAP	14	48	7
NMTAP	14	96	6
NMTAP	14	144	5
NMSTR	14	192	4
NMSI_	14	192	4	96	48	0
NMSTR	14	192	5
NMSI_	14	192	5	96	48	0
NMTAP	15	0	7
NMTAP	15	48	0
NMTAP	15	96	1
NMTAP	15	144	2
NMSTR	15	192	2
NMSI_	15	192	2	96	48	7
NMSTR	15	192	3
NMSI_	15	192	3	96	48	7
NMTAP	16	0	0
NMTAP	16	48	7
NMTAP	16	96	6
NMTAP	16	144	5
NMTAP	16	192	4
NMTAP	16	240	3
NMSTR	16	288	2
NMSI_	16	288	2	96	48	5
NMTAP	16	336	2
NMSTR	17	0	6
NMSV_	17	0	6	96	48	1
NMTAP	17	48	6
NMSTR	17	96	0
NMSCR	17	96	0	96	144	5
NMTAP	17	144	0
BRTAP	17	192	7
EXHLD	18	0	6	192
NMTTP	18	192	5	E	0	M1
NMTTP	18	288	4	E	0	M1
NMHLD	19	0	2	192
NMTTP	19	192	4	E	0	M1
NMTTP	19	288	5	E	0	M1
NMHLD	20	0	6	192
NMHLD	20	192	4	192
NMHLD	21	0	3	192
NMTAP	21	192	1
NMTAP	21	240	1
NMTAP	21	288	3
BRTAP	22	0	2
BRTAP	22	0	4
NMTAP	22	96	1
NMTAP	22	144	1
NMTAP	22	192	0
NMTAP	22	240	0
NMTAP	22	288	3
NMTAP	22	336	3
NMTAP	23	0	4
NMTAP	23	48	4
NMTAP	23	96	7
NMTAP	23	144	7
NMTAP	23	192	6
BRTAP	23	288	0
BRTAP	23	336	0
NMHLD	24	0	1	72
NMHLD	24	72	2	72
NMTAP	24	144	3
NMHLD	24	192	4	72
NMHLD	24	264	5	72
NMTAP	24	336	6
NMTAP	25	0	6
NMTTP	25	96	3	B	0	M1
NMTTP	25	96	4	B	0	M1
NMTTP	25	96	4	E	1	M1
EXTAP	25	192	1
EXTAP	25	192	6
NMSTR	25	288	0
NMSI_	25	288	0	96	48	4
NMSTR	25	288	7
NMSI_	25	288	7	96	48	3
EXTAP	26	0	0
EXTAP	26	0	7
NMHLD	26	96	2	48
NMHLD	26	96	5	48
NMHLD	26	192	3	48
NMHLD	26	192	6	48
NMSTR	26	288	7
NMSI_	26	288	7	96	48	3
NMTAP	26	336	7
NMSTR	27	0	1
NMSI_	27	0	1	96	48	5
NMTAP	27	48	1
NMSTR	27	96	6
NMSI_	27	96	6	96	48	2
NMTAP	27	144	6
NMTAP	27	192	0
BRTAP	27	240	0
NMTAP	27	336	0
NMTAP	27	336	1
NMSTR	28	0	0
NMSI_	28	0	0	96	48	4
NMSTR	28	0	1
NMSI_	28	0	1	96	48	3
EXTAP	28	96	0
EXTAP	28	96	1
NMTAP	28	192	6
NMTAP	28	192	7
NMSTR	28	288	0
NMSCR	28	288	0	96	48	2
NMTAP	28	336	0
NMSTR	29	0	6
NMSCL	29	0	6	96	48	4
NMTAP	29	48	6
NMSTR	29	96	1
NMSI_	29	96	1	96	48	5
NMTAP	29	144	1
NMTAP	29	192	7
BRTAP	29	240	7
NMTAP	29	336	6
NMTAP	29	336	7
NMSTR	30	0	6
NMSI_	30	0	6	96	48	4
NMSTR	30	0	7
NMSI_	30	0	7	96	48	3
EXTAP	30	96	6
EXTAP	30	96	7
NMTAP	30	192	0
NMTAP	30	192	1
NMSTR	30	288	7
NMSI_	30	288	7	96	48	3
NMTAP	30	336	7
NMSTR	31	0	1
NMSI_	31	0	1	96	48	6
NMTAP	31	48	1
NMSTR	31	96	5
NMSI_	31	96	5	96	48	2
NMTAP	31	144	5
NMTAP	31	192	0
BRTAP	31	240	0
NMTAP	31	336	0
NMTAP	31	336	1
NMSTR	32	0	0
NMSI_	32	0	0	96	48	4
NMSTR	32	0	1
NMSI_	32	0	1	96	48	3
EXTAP	32	96	0
EXTAP	32	96	1
NMTAP	32	192	6
NMTAP	32	192	7
NMSTR	32	288	0
NMSI_	32	288	0	96	48	4
NMTAP	32	336	0
NMSTR	33	0	6
NMSI_	33	0	6	96	48	2
NMTAP	33	48	6
NMSTR	33	96	1
NMSI_	33	96	1	96	48	5
NMTAP	33	144	1
NMTAP	33	192	7
NMTAP	33	240	7
NMTAP	33	288	2
NMTAP	33	288	6
NMSTR	34	0	1
NMSI_	34	0	1	96	48	5
NMSTR	34	0	7
NMSI_	34	0	7	96	48	3
BXTAP	34	96	1
BXTAP	34	96	7
EXTAP	34	192	2
EXTAP	34	192	6
NMSTR	34	288	1
NMSI_	34	288	1	96	48	4
NMSTR	35	0	0
NMSI_	35	0	0	96	48	5
NMSTR	35	96	1
NMSI_	35	96	1	96	48	4
NMSTR	35	192	0
NMSI_	35	192	0	96	48	5
NMTAP	35	288	2
NMTAP	35	336	2
NMTAP	36	0	7
NMTAP	36	48	7
NMTAP	36	96	0
NMTAP	36	192	5
NMHLD	36	240	5	48
NMTAP	36	288	7
NMHLD	36	336	7	48
NMTAP	37	0	0
NMHLD	37	48	0	48
NMTAP	37	96	2
NMHLD	37	144	2	48
NMTAP	37	192	4
NMSTR	37	288	0
NMSI_	37	288	0	96	48	4
NMSTR	37	288	6
NMSI_	37	288	6	96	48	2
EXTAP	38	0	0
EXTAP	38	0	6
EXTAP	38	96	1
EXTAP	38	96	5
NMSTR	38	192	0
NMSLR	38	192	0	96	96	4
NMSTR	38	288	4
NMSLR	38	288	4	96	96	0
NMTAP	39	0	0
NMTAP	39	96	4
NMHLD	39	192	2	48
NMHLD	39	192	6	48
NMHLD	39	288	1	48
NMHLD	39	288	5	48
NMHLD	40	0	2	48
NMHLD	40	0	6	48
NMSTR	40	96	2
NMSCL	40	96	2	96	48	7
NMSTR	40	96	6
NMSCL	40	96	6	96	48	3
NMTAP	40	336	0
NMTAP	41	0	0
NMTAP	41	48	3
NMTAP	41	96	2
NMTAP	41	144	5
NMTAP	41	192	3
NMTAP	41	240	4
NMSTR	41	288	1
NMSLR	41	288	1	96	192	0
NMSTR	41	288	6
NMSLL	41	288	6	96	192	7
NMHLD	43	0	1	48
NMHLD	43	0	7	48
NMHLD	43	96	0	48
NMHLD	43	96	6	48
NMTAP	43	192	1
NMTAP	43	192	5
NMTAP	43	240	1
NMSTR	43	240	5
NMSCL	43	240	5	96	48	2
NMTAP	43	336	0
NMHLD	44	0	0	96
NMTAP	44	96	3
NMTAP	44	144	3
NMTAP	44	192	2
NMTAP	44	192	4
NMTAP	44	336	5
NMTAP	44	360	4
NMTAP	45	0	5
NMTAP	45	48	2
NMTAP	45	72	3
NMTAP	45	96	2
NMTAP	45	144	5
NMTAP	45	168	4
NMTAP	45	192	5
NMTAP	45	240	2
NMTAP	45	264	3
NMTAP	45	288	2
NMSTR	46	0	0
NMSI_	46	0	0	96	48	4
NMTAP	46	48	0
NMSTR	46	96	6
NMSI_	46	96	6	96	48	2
NMTAP	46	144	6
NMHLD	46	192	1	96
NMTAP	46	288	7
BRTAP	46	336	7
NMTAP	47	0	3
NMTAP	47	48	3
NMTAP	47	96	0
NMTAP	47	144	0
NMTAP	47	192	4
NMTAP	47	240	4
NMTAP	47	288	7
NMTAP	47	336	7
NMHLD	48	0	4	48
NMHLD	48	0	6	48
NMHLD	48	96	0	48
NMHLD	48	96	2	48
NMHLD	48	192	5	48
NMHLD	48	192	7	48
NMHLD	48	288	1	48
NMHLD	48	288	3	48
BRTAP	49	0	0
BRTAP	49	48	0
BRTAP	49	96	0
NMTAP	49	144	5
BRTAP	49	192	7
BRTAP	49	240	7
BRTAP	49	288	7
NMHLD	49	336	2	96
NMTAP	50	48	0
NMHLD	50	96	0	96
NMHLD	50	192	7	96
NMTAP	50	288	5
NMTAP	50	336	5
BRTAP	51	0	0
BRTAP	51	0	4
NMHLD	51	96	1	96
NMTTP	51	192	3	E	0	M1
NMTTP	51	240	4	E	0	M1
NMTTP	51	288	5	E	0	M1
NMTTP	52	0	7	E	0	M1
NMTTP	52	48	0	E	0	M1
NMTTP	52	96	1	E	0	M1
NMTHO	52	192	0	96	C	0	M1
EXTAP	53	0	7
EXTAP	53	48	7
EXSTR	53	96	0
NMSLR	53	96	0	96	96	4
EXTAP	53	144	0
NMTAP	53	192	5
NMTAP	53	288	6
NMHLD	54	0	2	96
NMHLD	54	0	7	96
NMTTP	54	192	0	A	0	M1
NMTTP	54	192	1	A	0	M1
NMTTP	54	192	1	D	1	M1
NMTTP	54	264	0	C	1	M1
NMTTP	54	264	2	B	0	M1
NMTTP	54	264	6	B	0	M1
NMTTP	54	336	4	A	0	M1
NMTTP	54	336	5	A	0	M1
NMTTP	54	336	5	D	1	M1
EXTAP	55	0	7
NMTAP	55	96	6
NMTAP	55	144	4
NMTAP	55	192	3
NMTAP	55	240	1
NMSTR	55	288	1
BRSI_	55	288	1	96	96	6
CNSI_	56	96	6	0	96	2
CNSI_	56	192	2	0	48	5
NMHLD	56	288	6	96
NMTAP	57	0	4
NMTAP	57	48	4
EXSTR	57	96	7
NMSLL	57	96	7	96	96	3
EXTAP	57	144	7
NMTAP	57	192	2
NMTAP	57	288	1
NMHLD	58	0	0	96
NMHLD	58	0	5	96
NMTTP	58	192	6	A	0	M1
NMTTP	58	192	7	A	0	M1
NMTTP	58	192	7	D	1	M1
NMTTP	58	264	0	C	1	M1
NMTTP	58	264	1	B	0	M1
NMTTP	58	264	5	B	0	M1
NMTTP	58	336	2	A	0	M1
NMTTP	58	336	3	A	0	M1
NMTTP	58	336	3	D	1	M1
EXHLD	59	0	0	336
NMTAP	59	336	3
NMHLD	60	0	3	336
NMTAP	60	336	4
NMHLD	61	0	4	336
NMTAP	61	336	7
NMHLD	62	0	7	336
NMTAP	62	336	0
NMTAP	63	0	0
NMTAP	63	96	7
NMHLD	63	192	1	96
NMTAP	63	192	6
NMTAP	63	288	5
NMTAP	64	0	4
NMTAP	64	96	3
NMTAP	64	192	2
NMHLD	64	192	4	96
NMTAP	64	288	1
NMTAP	65	0	0
NMTAP	65	96	7
NMHLD	65	192	1	96
NMTAP	65	192	6
NMTAP	65	288	5
NMTAP	65	336	5
NMHLD	66	0	5	384
NMSTR	67	0	7
NMSI_	67	0	7	96	48	4
EXTAP	67	96	7
BRTAP	67	192	2
BRTAP	67	192	6
NMSTR	67	288	1
NMSI_	67	288	1	96	48	5
NMSTR	67	288	7
NMSI_	67	288	7	96	48	3
EXTAP	68	0	1
EXTAP	68	0	7
NMSTR	68	288	0
NMSI_	68	288	0	96	48	4
NMTAP	68	336	0
NMSTR	69	0	6
NMSI_	69	0	6	96	48	2
NMTAP	69	48	6
NMSTR	69	96	1
NMSI_	69	96	1	96	48	5
NMTAP	69	144	1
NMTAP	69	192	7
BRTAP	69	240	7
NMTAP	69	336	6
NMTAP	69	336	7
NMSTR	70	0	6
NMSI_	70	0	6	96	48	4
NMSTR	70	0	7
NMSI_	70	0	7	96	48	3
EXTAP	70	96	6
EXTAP	70	96	7
NMTAP	70	192	0
NMTAP	70	192	1
NMTAP	70	240	0
NMTAP	70	240	1
NMSTR	70	288	7
NMSCL	70	288	7	96	48	5
NMTAP	70	336	7
NMSTR	71	0	1
NMSCR	71	0	1	96	48	3
NMTAP	71	48	1
NMSTR	71	96	6
NMSI_	71	96	6	96	48	2
NMTAP	71	144	6
NMTAP	71	192	0
BRTAP	71	240	0
NMTAP	71	336	0
NMTAP	71	336	1
NMSTR	72	0	0
NMSI_	72	0	0	96	48	4
NMSTR	72	0	1
NMSI_	72	0	1	96	48	3
EXTAP	72	96	0
EXTAP	72	96	1
NMTAP	72	192	6
NMTAP	72	192	7
NMTAP	72	240	6
NMTAP	72	240	7
NMSTR	72	288	0
NMSI_	72	288	0	96	48	4
NMTAP	72	336	0
NMSTR	73	0	6
NMSI_	73	0	6	96	48	1
NMTAP	73	48	6
NMSTR	73	96	2
NMSI_	73	96	2	96	48	5
NMTAP	73	144	2
NMTAP	73	192	7
BRTAP	73	240	7
NMTAP	73	336	6
NMTAP	73	336	7
NMSTR	74	0	6
NMSI_	74	0	6	96	48	4
NMSTR	74	0	7
NMSI_	74	0	7	96	48	3
EXTAP	74	96	6
EXTAP	74	96	7
NMTAP	74	192	0
NMTAP	74	192	1
NMTAP	74	240	0
NMTAP	74	240	1
NMSTR	74	288	7
NMSI_	74	288	7	96	48	3
NMTAP	74	336	7
NMSTR	75	0	1
NMSI_	75	0	1	96	48	5
NMTAP	75	48	1
NMSTR	75	96	6
NMSI_	75	96	6	96	48	2
NMTAP	75	144	6
NMTAP	75	192	0
NMTAP	75	240	0
NMTAP	75	288	1
NMTAP	75	288	5
NMTAP	75	336	1
NMTAP	75	336	5
NMSTR	76	0	0
NMSI_	76	0	0	96	48	4
NMSTR	76	0	6
NMSI_	76	0	6	96	48	2
BXTAP	76	96	0
BXTAP	76	96	6
EXHLD	76	192	1	48
EXHLD	76	192	5	48
NMSTR	76	288	6
NMSI_	76	288	6	96	48	3
NMTAP	76	336	6
NMSTR	77	0	7
NMSI_	77	0	7	96	48	2
NMTAP	77	48	7
NMSTR	77	96	6
NMSI_	77	96	6	96	48	3
NMTAP	77	144	6
NMSTR	77	192	7
NMSI_	77	192	7	96	48	2
NMTAP	77	240	7
NMTAP	77	288	5
NMTAP	77	336	5
NMTAP	78	0	0
NMTAP	78	48	0
NMTAP	78	96	7
NMTAP	78	192	2
NMHLD	78	240	2	48
NMTAP	78	288	0
NMHLD	78	336	0	48
NMTAP	79	0	7
NMHLD	79	48	7	48
NMTAP	79	96	5
NMHLD	79	144	5	48
NMTAP	79	192	3
NMSTR	79	288	1
NMSI_	79	288	1	96	48	5
NMSTR	79	288	7
NMSI_	79	288	7	96	48	3
EXTAP	80	0	1
EXTAP	80	0	7
EXHLD	80	96	2	48
EXHLD	80	96	6	48
NMSTR	80	192	7
NMSLL	80	192	7	96	96	3
NMSTR	80	288	3
NMSLL	80	288	3	96	96	7
NMTAP	81	0	7
NMTAP	81	96	3
NMHLD	81	192	1	48
NMHLD	81	192	5	48
NMHLD	81	288	2	48
NMHLD	81	288	6	48
NMHLD	82	0	1	48
NMHLD	82	0	5	48
NMSTR	82	96	1
NMSCR	82	96	1	96	48	4
NMSTR	82	96	5
NMSCR	82	96	5	96	48	0
NMTAP	82	144	1
NMTAP	82	144	5
NMTAP	82	336	7
NMTAP	83	0	7
NMTAP	83	48	4
NMTAP	83	96	5
NMTAP	83	144	1
NMTAP	83	192	1
NMTAP	83	240	3
NMSTR	83	288	0
NMSCR	83	288	0	96	96	4
NMSTR	84	0	4
NMSCR	84	0	4	96	96	0
NMSTR	84	96	0
NMSCR	84	96	0	96	96	4
NMTAP	84	192	4
NMTAP	84	288	0
NMTHO	85	0	0	48	C	0	M1
NMTHO	85	0	2	48	B	0	M1
NMTHO	85	0	6	48	B	0	M1

T_REC_TAP	277
T_REC_BRK	26
T_REC_XTP	32
T_REC_BXX	4
T_REC_HLD	74
T_REC_XHO	6
T_REC_BHO	0
T_REC_BXH	0
T_REC_STR	88
T_REC_BST	0
T_REC_XST	2
T_REC_XBS	0
T_REC_TTP	31
T_REC_THO	4
T_REC_SLD	89
T_REC_BSL	1
T_REC_ALL	634
T_NUM_TAP	430
T_NUM_BRK	31
T_NUM_HLD	84
T_NUM_SLD	89
T_NUM_ALL	634
T_JUDGE_TAP	460
T_JUDGE_HLD	149
T_JUDGE_SLD	90
T_JUDGE_ALL	699
TTM_EACHPAIRS	92
TTM_SCR_TAP	215000
TTM_SCR_BRK	80600
TTM_SCR_HLD	84000
TTM_SCR_SLD	133500
TTM_SCR_ALL	513100
TTM_SCR_S	494700
TTM_SCR_SS	510000
TTM_RAT_ACV	10060

