VERSION	0.00.00	1.05.00
FES_MODE	0
BPM_DEF	130.000	130.000	130.000	130.000
MET_DEF	4	4
RESOLUTION	384
CLK_DEF	384
COMPATIBLE_CODE	MA2

BPM	0	0	130.000
MET	0	0	4	4

NMHLD	2	0	4	96
NMHLD	2	96	5	96
NMSTR	2	192	6
NMSI_	2	192	6	96	48	4
NMHLD	3	0	2	96
NMTAP	3	96	3
NMHLD	3	192	5	96
NMTAP	3	288	4
NMSTR	4	0	1
NMSI_	4	0	1	96	48	3
NMSTR	4	192	6
NMSI_	4	192	6	96	48	4
NMHLD	5	0	1	96
NMHLD	5	96	2	96
NMTAP	5	192	3
NMTAP	5	288	2
NMTAP	5	288	4
BRTAP	6	0	1
BRTAP	6	0	5
NMTAP	6	96	6
NMTAP	6	96	7
NMTAP	6	192	5
NMTAP	6	240	5
NMTAP	6	288	4
NMTAP	7	0	3
NMTAP	7	0	6
NMTAP	7	96	2
NMTAP	7	96	7
NMTAP	7	192	1
NMTAP	7	240	1
NMTAP	7	288	3
NMTAP	8	0	2
NMTAP	8	0	4
NMTAP	8	96	6
NMTAP	8	144	6
NMTAP	8	192	4
NMTAP	8	288	3
NMTAP	8	288	5
NMTAP	9	0	2
NMTAP	9	0	4
NMTAP	9	96	0
NMTAP	9	96	6
NMTAP	9	192	1
NMTAP	9	192	7
EXHLD	9	240	1	96
EXHLD	9	240	7	96
BRTAP	10	0	2
BRTAP	10	0	6
NMTAP	10	96	5
NMTAP	10	144	5
NMTAP	10	192	4
NMTAP	10	192	6
NMTAP	10	288	7
NMTAP	10	336	7
NMTAP	11	0	0
NMTAP	11	0	6
NMTAP	11	96	1
NMTAP	11	144	1
NMSTR	11	192	7
NMSI_	11	192	7	96	48	3
NMTAP	12	0	2
NMTAP	12	48	2
NMTAP	12	96	3
NMTAP	12	144	3
NMSTR	12	192	0
NMSI_	12	192	0	96	48	4
NMTAP	13	0	5
NMSTR	13	96	3
NMSLL	13	96	3	96	144	4
NMSTR	13	96	7
NMSLL	13	96	7	96	144	0
BXTAP	14	0	2
BXTAP	14	0	6
NMTAP	14	96	5
NMTAP	14	144	5
NMTAP	14	192	4
NMTAP	14	288	1
NMTAP	14	288	7
NMTAP	14	336	1
NMTAP	14	336	7
NMTAP	15	48	2
NMTAP	15	96	2
NMTAP	15	144	3
NMTAP	15	192	1
NMTAP	15	288	0
NMTAP	15	288	6
NMTAP	15	336	0
NMTAP	15	336	6
NMTAP	16	48	1
NMHLD	16	96	1	96
NMHLD	16	192	3	96
NMHLD	16	288	4	96
NMTAP	17	0	6
EXSTR	17	96	6
NMSCL	17	96	6	96	96	3
EXSTR	17	96	7
NMSCR	17	96	7	96	96	2
BRTAP	18	0	0
BRTAP	18	0	1
NMTAP	18	288	2
NMHLD	19	0	3	288
NMTAP	19	288	4
NMHLD	20	0	4	72
NMHLD	20	0	5	72
NMHLD	20	192	2	72
NMHLD	20	192	3	72
NMHLD	21	0	4	72
NMHLD	21	0	5	72
NMTTP	21	192	5	E	0	M1
NMTTP	21	240	4	E	0	M1
NMTTP	21	288	3	E	0	M1
BRTAP	22	0	1
BRTAP	22	0	6
NMTAP	22	96	2
NMTAP	22	96	3
NMTAP	22	192	7
NMTAP	22	240	7
NMTAP	22	288	0
NMTAP	22	288	6
NMTAP	23	0	4
NMTAP	23	0	5
NMTAP	23	96	2
NMTAP	23	144	2
NMTAP	23	192	1
NMTAP	23	192	3
NMTAP	23	288	0
NMTAP	23	288	7
NMHLD	24	0	1	72
NMHLD	24	72	2	72
NMTAP	24	144	3
NMHLD	24	192	6	72
NMHLD	24	264	5	72
NMTAP	24	336	4
BXSTR	25	0	1
BRSI_	25	0	1	96	48	3
NMSTR	25	96	6
NMSI_	25	96	6	96	48	4
EXTAP	25	288	3
BRSTR	26	0	1
NMSI_	26	0	1	96	48	5
BRSTR	26	0	6
NMSI_	26	0	6	96	48	0
NMHLD	26	192	3	72
NMHLD	26	264	2	72
NMTAP	26	336	1
NMTAP	27	0	1
NMTAP	27	48	3
NMTAP	27	96	5
NMTAP	27	144	7
NMTAP	27	192	7
EXTAP	27	264	0
EXTAP	27	264	6
NMTAP	27	336	1
NMTAP	27	336	5
NMSTR	28	0	1
NMSI_	28	0	1	96	48	4
NMSTR	28	0	5
NMSI_	28	0	5	96	48	0
NMHLD	28	192	7	72
NMHLD	28	264	6	72
NMTAP	28	336	5
NMTAP	29	0	5
NMTAP	29	48	7
NMTAP	29	96	1
NMTAP	29	144	3
NMTAP	29	192	3
EXTAP	29	264	1
EXTAP	29	264	5
NMTAP	29	336	3
NMTAP	29	336	6
NMSTR	30	0	3
NMSI_	30	0	3	96	48	7
NMSTR	30	0	6
NMSI_	30	0	6	96	48	4
NMHLD	30	192	0	72
NMHLD	30	264	1	72
NMTAP	30	336	2
NMTAP	31	0	2
NMTAP	31	48	0
NMTAP	31	96	6
NMTAP	31	144	4
NMTAP	31	192	4
EXTAP	31	264	2
EXTAP	31	264	3
NMTAP	31	336	1
NMTAP	31	336	4
NMSTR	32	0	1
NMSCR	32	0	1	96	48	4
NMSTR	32	0	4
NMSCR	32	0	4	96	48	7
NMHLD	32	192	0	72
NMHLD	32	264	2	72
NMTAP	32	336	3
NMTAP	33	0	0
NMTAP	33	0	4
NMTAP	33	48	0
NMTAP	33	48	4
NMTAP	33	96	0
NMTAP	33	96	4
NMTAP	33	144	0
NMTAP	33	144	4
EXTAP	33	192	1
EXTAP	33	192	3
EXTAP	33	264	4
EXTAP	33	264	6
EXTAP	33	336	0
EXTAP	33	336	7
NMSTR	34	0	0
BRSI_	34	0	0	96	48	3
NMSTR	34	0	7
BRSI_	34	0	7	96	48	4
NMTAP	34	192	5
NMTAP	34	240	5
NMTAP	34	288	4
NMTAP	34	288	6
NMTAP	35	0	2
NMTAP	35	48	2
EXSTR	35	96	1
NMSI_	35	96	1	96	48	5
EXSTR	35	192	6
NMSI_	35	192	6	96	48	0
EXSTR	35	288	2
NMSI_	35	288	2	96	48	4
NMTAP	36	0	7
NMTAP	36	96	7
NMHLD	36	192	1	72
NMHLD	36	264	2	72
NMTAP	36	336	3
NMTAP	37	0	3
NMTAP	37	96	1
NMTAP	37	96	4
NMTAP	37	192	5
NMTAP	37	240	4
NMTAP	37	288	3
NMTAP	37	288	6
BRTAP	38	0	0
BRTAP	38	0	5
NMTAP	38	96	7
NMTAP	38	144	7
NMTAP	38	192	1
NMTAP	38	240	1
NMTAP	38	288	2
NMTAP	38	288	3
NMHLD	39	0	0	48
NMHLD	39	0	1	48
NMHLD	39	96	6	48
NMHLD	39	96	7	48
NMTAP	39	192	4
NMTAP	39	192	5
NMTAP	39	240	3
NMTAP	39	288	4
NMTAP	39	288	5
NMTAP	40	0	3
NMTAP	40	48	3
NMTAP	40	96	7
NMTAP	40	144	7
NMTAP	40	192	1
NMHLD	40	240	1	96
NMTAP	40	336	3
NMTAP	41	0	2
NMTAP	41	48	0
NMTAP	41	96	7
NMTAP	41	144	5
NMTAP	41	192	4
NMTAP	41	240	2
NMSTR	41	288	1
NMSCR	41	288	1	96	96	3
CNSUR	42	96	3	0	96	4
CNSCR	42	192	4	0	96	6
NMHLD	43	0	4	144
NMTAP	43	0	5
NMTAP	43	144	5
NMTAP	43	192	4
NMTAP	43	288	3
NMTAP	43	288	4
NMHLD	44	0	3	144
NMTAP	44	0	4
NMTAP	44	144	4
NMTAP	44	192	3
NMTAP	44	288	2
NMTAP	44	288	3
NMHLD	45	0	1	96
NMHLD	45	96	3	96
NMHLD	45	192	4	96
NMHLD	45	288	6	96
NMTAP	46	0	4
NMTAP	46	96	4
NMTAP	46	96	6
NMSTR	46	192	7
BRSI_	46	192	7	96	48	4
EXTAP	47	0	3
NMTAP	47	96	2
NMTAP	47	96	4
NMTAP	47	192	5
NMTAP	47	240	5
NMTAP	47	288	4
NMTAP	48	0	2
NMTAP	48	48	2
NMSTR	48	96	3
NMSI_	48	96	3	96	48	0
NMTAP	48	288	7
NMTAP	49	0	0
NMTAP	49	0	1
NMTAP	49	48	0
NMTAP	49	48	1
NMTAP	49	96	0
NMTAP	49	96	1
NMTAP	49	192	6
NMTAP	49	192	7
NMTAP	49	240	6
NMTAP	49	240	7
NMTAP	49	288	6
NMTAP	49	288	7
NMTAP	49	336	0
NMHLD	49	336	5	96
NMTAP	50	48	4
NMTAP	50	96	5
NMTAP	50	144	7
NMTAP	50	192	0
NMTAP	50	240	2
NMTAP	50	288	3
NMTAP	50	336	5
NMHLD	51	0	6	288
NMTAP	51	96	4
NMTAP	51	192	4
NMTAP	51	288	4
NMSTR	52	0	5
NMSI_	52	0	5	96	48	2
NMHLD	52	192	1	96
NMHLD	52	192	3	96
NMTAP	53	0	2
NMTAP	53	0	4
NMTTP	53	96	3	B	0	M1
NMTTP	53	144	7	B	0	M1
EXSTR	53	192	1
NMSI_	53	192	1	96	48	5
NMHLD	54	0	6	96
NMTAP	54	96	4
EXTAP	54	192	4
EXTAP	54	192	6
EXTAP	54	264	3
EXTAP	54	264	4
EXTAP	54	336	1
EXTAP	54	336	3
BXTAP	55	0	1
BXTAP	55	0	3
NMTAP	55	96	0
NMTAP	55	96	7
NMHLD	55	192	4	96
NMTAP	55	192	5
NMTAP	55	288	6
NMTAP	55	336	6
NMSTR	56	0	7
NMSI_	56	0	7	96	48	3
NMHLD	56	192	0	96
NMHLD	56	192	4	96
NMTAP	57	0	1
NMTAP	57	0	3
NMTTP	57	96	4	B	0	M1
NMTTP	57	144	0	B	0	M1
EXSTR	57	192	6
NMSCL	57	192	6	96	48	3
NMHLD	58	0	2	48
NMHLD	58	96	3	48
EXTAP	58	192	1
EXTAP	58	192	3
EXTAP	58	264	3
EXTAP	58	264	4
EXTAP	58	336	4
EXTAP	58	336	6
EXHLD	59	0	4	672
EXHLD	59	0	6	288
NMHLD	60	0	3	672
NMHLD	61	0	1	576
NMTAP	62	0	3
NMSTR	62	96	3
NMSCL	62	96	3	96	192	5
NMTAP	63	0	2
NMTAP	63	96	2
NMTAP	63	192	3
NMTAP	63	288	3
NMTAP	64	0	4
NMTAP	64	96	4
NMTAP	64	192	5
NMTAP	64	288	5
NMTAP	65	0	4
NMTAP	65	96	3
NMTAP	65	192	2
NMTAP	65	288	1
NMTAP	65	336	1
NMSTR	66	0	1
NMSUR	66	0	1	96	192	3
NMHLD	67	0	4	48
NMHLD	67	0	5	48
NMHLD	67	96	1	48
NMHLD	67	96	3	48
NMHLD	67	192	6	48
NMHLD	67	192	7	48
NMTAP	67	288	0
NMSTR	67	288	1
NMSI_	67	288	1	96	96	4
NMTTP	68	0	0	C	1	M1
CNSI_	68	96	4	0	48	7
CNSI_	68	144	7	0	48	2
CNSI_	68	192	2	0	144	5
NMTAP	69	0	6
NMTAP	69	48	5
NMTAP	69	96	4
NMTAP	69	144	3
NMTAP	69	192	2
NMTAP	69	192	7
EXTAP	69	264	0
EXTAP	69	264	5
NMTAP	69	336	2
NMTAP	69	336	3
NMSTR	70	0	2
NMSUR	70	0	2	96	48	7
NMSTR	70	0	3
NMSCR	70	0	3	96	48	6
NMHLD	70	192	0	72
NMHLD	70	264	1	72
NMTAP	70	336	2
NMTAP	71	0	3
NMTAP	71	48	4
NMTAP	71	96	5
NMTAP	71	144	6
NMTAP	71	192	0
NMTAP	71	192	7
EXTAP	71	264	1
EXTAP	71	264	4
NMTAP	71	336	3
NMTAP	71	336	7
NMSTR	72	0	3
NMSCL	72	0	3	96	48	0
NMSTR	72	0	7
NMSCL	72	0	7	96	48	4
NMHLD	72	192	5	72
NMHLD	72	264	6	72
NMTAP	72	336	7
NMTAP	73	0	0
NMTAP	73	48	1
NMTAP	73	96	2
NMTAP	73	144	3
NMTAP	73	192	1
NMTAP	73	192	4
EXTAP	73	264	3
EXTAP	73	264	6
NMTAP	73	336	4
NMTAP	73	336	5
NMSTR	74	0	4
NMSCL	74	0	4	96	48	1
NMSTR	74	0	5
NMSUL	74	0	5	96	48	0
NMHLD	74	192	7	72
NMHLD	74	264	6	72
NMTAP	74	336	5
NMTAP	75	0	4
NMTAP	75	48	3
NMTAP	75	96	2
NMTAP	75	144	1
EXTAP	75	192	0
EXTAP	75	192	7
EXTAP	75	264	4
EXTAP	75	264	6
EXTAP	75	336	2
EXTAP	75	336	3
NMSTR	76	0	2
BRSI_	76	0	2	96	48	7
NMSTR	76	0	3
BRSI_	76	0	3	96	48	6
EXTAP	76	192	0
EXTAP	76	240	0
EXTAP	76	288	1
EXTAP	76	288	7
NMTAP	77	0	5
NMTAP	77	48	5
NMTAP	77	96	4
NMTAP	77	96	6
NMTAP	77	192	2
NMTAP	77	192	3
NMTAP	77	240	1
NMTAP	77	288	2
NMTAP	77	288	3
NMTAP	78	0	2
NMTAP	78	0	3
NMTAP	78	48	1
NMSTR	78	96	2
NMSCL	78	96	2	96	120	5
NMSTR	78	96	3
NMSUL	78	96	3	96	120	4
NMTAP	79	0	3
NMTAP	79	48	3
NMTAP	79	96	4
NMTAP	79	144	5
NMTAP	79	192	3
NMTAP	79	240	2
NMSTR	79	288	2
BRSI_	79	288	2	96	48	5
BRSI_	79	288	2	96	48	6
EXTAP	80	96	0
EXTAP	80	96	7
NMTAP	80	192	1
NMTAP	80	240	1
NMTAP	80	288	2
NMTAP	80	288	3
NMHLD	81	0	1	48
NMHLD	81	0	3	48
NMHLD	81	96	4	48
NMHLD	81	96	6	48
NMTAP	81	192	6
NMTAP	81	192	7
NMTAP	81	240	6
NMTAP	81	240	7
NMTAP	81	288	0
NMTAP	81	288	1
NMTAP	81	336	0
NMTAP	81	336	1
NMTAP	82	0	2
NMTAP	82	0	7
NMTAP	82	96	3
NMTAP	82	96	5
NMTAP	82	144	3
NMTAP	82	144	5
EXTAP	82	192	2
EXTAP	82	192	6
BRTAP	82	240	1
BRTAP	82	240	7
NMTAP	82	336	0
NMTAP	83	0	1
NMTAP	83	48	3
NMTAP	83	96	4
NMTAP	83	144	6
NMTAP	83	192	7
NMTAP	83	240	7
NMSTR	83	288	0
NMSCR	83	288	0	96	48	3
NMTAP	83	288	6
NMSTR	84	0	7
NMSCL	84	0	7	96	48	4
NMTAP	84	96	2
NMTAP	84	192	0
NMTAP	84	240	0
EXTAP	84	288	1
EXTAP	84	288	7
EXTAP	84	336	2
EXTAP	84	336	6
BRTAP	85	0	3
BRTAP	85	0	5

T_REC_TAP	299
T_REC_BRK	14
T_REC_XTP	50
T_REC_BXX	4
T_REC_HLD	69
T_REC_XHO	4
T_REC_BHO	0
T_REC_BXH	0
T_REC_STR	37
T_REC_BST	2
T_REC_XST	7
T_REC_XBS	1
T_REC_TTP	8
T_REC_THO	0
T_REC_SLD	40
T_REC_BSL	8
T_REC_ALL	543
T_NUM_TAP	401
T_NUM_BRK	29
T_NUM_HLD	73
T_NUM_SLD	40
T_NUM_ALL	543
T_JUDGE_TAP	422
T_JUDGE_HLD	178
T_JUDGE_SLD	48
T_JUDGE_ALL	648
TTM_EACHPAIRS	128
TTM_SCR_TAP	200500
TTM_SCR_BRK	75400
TTM_SCR_HLD	73000
TTM_SCR_SLD	60000
TTM_SCR_ALL	408900
TTM_SCR_S	393850
TTM_SCR_SS	406000
TTM_RAT_ACV	10071

